osu file format v14

[General]
AudioFilename: audio.mp3
AudioLeadIn: 0
PreviewTime: 60011
Countdown: 0
SampleSet: Soft
StackLeniency: 0.7
Mode: 0
LetterboxInBreaks: 0
WidescreenStoryboard: 0

[Editor]
DistanceSpacing: 1.3
BeatDivisor: 4
GridSize: 32
TimelineZoom: 2.5

[Metadata]
Title:Anime o Katare! ~Animegatari Doukoukai no Thema~
TitleUnicode:アニメを語レ!~アニメガタリ同好会のテーマ~
Artist:Maya(CV.Minase Inori) & Erika(CV.Inami Anju)
ArtistUnicode:マヤ(CV.水瀬いのり)&エリカ(CV.伊波杏樹)
Creator:Sotarks
Version:Dai dai dai... Daisuki!
Source:アニメガタリ
Tags:Anime-Gatari animegatari W-Toon Studio kalibe haruto haruto_aizawa akitoshi corinn -Sh1n1- shini irohas mugiwarasekai milan- toybot
BeatmapID:1365637
BeatmapSetID:644332

[Difficulty]
HPDrainRate:6.2
CircleSize:4
OverallDifficulty:9
ApproachRate:9.3
SliderMultiplier:1.82
SliderTickRate:1

[Events]
//Background and Video events
0,0,"BG.jpg",0,0
//Break Periods
//Storyboard Layer 0 (Background)
//Storyboard Layer 1 (Fail)
//Storyboard Layer 2 (Pass)
//Storyboard Layer 3 (Foreground)
//Storyboard Sound Samples

[TimingPoints]
-226,324.324324324324,4,2,2,32,1,0
422,-161.290322580645,4,2,2,32,0,0
1071,-108.695652173913,4,2,2,52,0,0
6909,-75.7575757575758,4,2,2,62,0,0
7557,-108.695652173913,4,2,2,52,0,0
8530,-75.7575757575758,4,2,2,52,0,0
8773,-75.7575757575758,4,2,2,5,0,0
8855,-108.695652173913,4,2,2,52,0,0
10638,-75.7575757575758,4,2,2,52,0,0
11125,-75.7575757575758,4,2,2,62,0,0
11368,-75.7575757575758,4,2,2,5,0,0
11449,-98.0392156862745,4,2,2,62,0,0
16314,-81.9672131147541,4,2,2,62,0,0
16557,-81.9672131147541,4,2,2,5,0,0
16638,-98.0392156862745,4,2,2,62,0,0
21828,-192.307692307692,4,2,2,62,0,0
23125,-138.888888888889,4,2,2,62,0,0
24422,-108.695652173913,4,2,2,62,0,0
29611,-98.0392156862746,4,2,2,62,0,0
29855,-98.0392156862746,4,2,2,5,0,0
29936,-98.0392156862746,4,2,2,62,0,0
31882,-81.9672131147541,4,2,2,62,0,0
32125,-81.9672131147541,4,2,2,5,0,0
32206,-98.0392156862745,4,2,2,62,0,0
34801,-121.951219512195,4,2,2,62,0,0
40152,-161.290322580645,4,2,2,42,0,0
45179,-98.0392156862745,4,2,2,62,0,0
45746,-98.0392156862745,4,2,2,5,0,0
45828,-98.0392156862745,4,2,2,62,0,0
48017,-98.0392156862745,4,2,2,5,0,0
48098,-98.0392156862745,4,2,2,62,0,0
51665,-81.9672131147541,4,2,2,62,0,0
52963,-70.4225352112676,4,2,2,62,0,0
54260,-61.7283950617284,4,2,2,62,0,0
55557,-161.290322580645,4,2,2,62,0,0
55801,-161.290322580645,4,2,2,5,0,0
55882,-121.951219512195,4,2,2,62,0,0
56125,-121.951219512195,4,2,2,5,0,0
56206,-98.0392156862745,4,2,2,62,0,0
56449,-98.0392156862745,4,2,2,5,0,0
56530,-81.9672131147541,4,2,2,62,0,0
56773,-81.9672131147541,4,2,2,5,0,0
56855,-70.4225352112676,4,2,2,62,0,0
57098,-70.4225352112676,4,2,2,5,0,0
57179,-65.7894736842105,4,2,2,62,0,0
57422,-65.7894736842105,4,2,2,5,0,0
57503,-61.7283950617284,4,2,2,62,0,0
57746,-61.7283950617284,4,2,2,5,0,0
57828,-54.9450549450549,4,2,2,62,0,0
57909,-54.9450549450549,4,2,2,5,0,0
57990,-54.9450549450549,4,2,2,62,0,0
60098,-61.7283950617284,4,2,2,62,0,0
60341,-61.7283950617284,4,2,2,5,0,0
60422,-52.0833333333333,4,2,2,62,0,0
60665,-52.0833333333333,4,2,2,5,0,0
60746,-81.9672131147541,4,2,2,72,0,1
67395,-81.9672131147541,4,2,2,5,0,1
67476,-81.9672131147541,4,2,2,72,0,1
67638,-81.9672131147541,4,2,2,5,0,1
67719,-81.9672131147541,4,2,2,72,0,1
69990,-81.9672131147541,4,2,2,5,0,1
70071,-81.9672131147541,4,2,2,72,0,1
70233,-81.9672131147541,4,2,2,5,0,1
70314,-81.9672131147541,4,2,2,72,0,1
70395,-81.9672131147541,4,2,2,5,0,1
70476,-161.290322580645,4,2,2,72,0,1
70719,-161.290322580645,4,2,2,5,0,1
70801,-70.4225352112676,4,2,2,72,0,1
71044,-70.4225352112676,4,2,2,5,0,1
71125,-81.9672131147541,4,2,2,72,0,1
73395,-192.307692307692,4,2,2,72,0,1
73719,-81.9672131147541,4,2,2,72,0,1
75503,-89.2857142857143,4,2,2,72,0,1
77611,-81.9672131147541,4,2,2,72,0,1
77773,-81.9672131147541,4,2,2,5,0,1
77855,-81.9672131147541,4,2,2,72,0,1
78017,-81.9672131147541,4,2,2,5,0,1
78098,-81.9672131147541,4,2,2,72,0,1
78584,-89.2857142857143,4,2,2,72,0,1
80206,-81.9672131147541,4,2,2,72,0,1
80368,-81.9672131147541,4,2,2,5,0,1
80449,-81.9672131147541,4,2,2,72,0,1
80611,-81.9672131147541,4,2,2,5,0,1
80692,-81.9672131147541,4,2,2,72,0,1
80773,-81.9672131147541,4,2,2,5,0,1
80855,-81.9672131147541,4,2,2,72,0,1
81098,-81.9672131147541,4,2,2,5,0,1
81179,-81.9672131147541,4,2,2,72,0,1
81503,-108.695652173913,4,2,2,72,0,0
82152,-75.7575757575758,4,2,2,72,0,0
82801,-108.695652173913,4,2,2,72,0,0
83773,-75.7575757575758,4,2,2,72,0,0
84134,324.324324324324,4,2,2,72,1,0
84134,-75.7575757575758,4,2,2,72,0,0
86647,-75.7575757575758,4,2,2,5,0,0
86728,-75.7575757575758,4,2,2,32,0,0

[Colours]
Combo1 : 175,253,153
Combo2 : 252,67,169
Combo3 : 131,98,217
Combo4 : 17,234,228

[HitObjects]
297,86,422,5,8,3:0:0:0:
270,266,584,1,8,3:0:0:0:
279,239,665,1,8,3:0:0:0:
279,210,746,1,12,0:0:0:0:
324,340,909,1,8,3:0:0:0:
155,163,1071,6,0,P|197:142|240:144,1,83.7199971895753,6|0,1:0|0:0,0:0:0:0:
370,236,1395,1,2,1:0:0:0:
120,33,1719,5,8,1:1:0:0:
97,356,2044,1,8,1:1:0:0:
296,79,2368,5,2,1:0:0:0:
388,108,2530,1,2,1:0:0:0:
429,196,2692,1,2,1:0:0:0:
204,106,3017,5,8,1:1:0:0:
447,45,3179,1,8,1:1:0:0:
421,290,3341,1,8,1:1:0:0:
128,55,3665,6,0,P|111:104|117:136,1,83.7199971895753,2|0,1:0|0:0,0:0:0:0:
221,312,3990,1,2,1:0:0:0:
368,34,4314,5,8,1:1:0:0:
41,254,4638,1,8,1:1:0:0:
445,180,4963,5,2,1:0:0:0:
322,215,5125,1,2,1:0:0:0:
210,170,5287,1,2,1:0:0:0:
459,26,5611,5,8,1:1:0:0:
428,313,5773,1,8,1:1:0:0:
407,107,5936,2,0,L|416:176,1,41.8599985947876,8|0,1:1|0:0,0:0:0:0:
484,205,6098,2,0,L|495:136,1,41.8599985947876,8|8,0:0|0:0,0:0:0:0:
326,140,6260,6,0,P|280:156|234:206,1,83.7199971895753,6|0,1:0|0:0,0:0:0:0:
169,37,6584,2,0,P|215:53|261:103,1,83.7199971895753,2|0,1:0|0:0,0:0:0:0:
205,248,6909,6,0,P|173:184|194:128,1,120.119999633423,8|0,0:1|0:0,0:0:0:0:
377,74,7233,2,0,P|407:123|398:181,1,120.119999633423,8|0,0:1|0:0,0:0:0:0:
122,76,7557,5,2,1:0:0:0:
185,140,7719,1,2,0:1:0:0:
68,239,7882,2,0,L|88:339,1,83.7199971895753,2|0,1:0|0:0,0:0:0:0:
108,55,8206,5,8,0:1:0:0:
249,200,8368,1,8,0:1:0:0:
84,321,8530,2,0,P|151:254|239:308,1,180.179999450134,8|0,0:1|0:0,0:0:0:0:
284,335,8855,5,14,1:0:0:0:
231,123,9017,1,0,1:0:0:0:
386,291,9179,5,10,1:0:0:0:
147,147,9341,1,0,1:0:0:0:
388,77,9503,5,8,1:1:0:0:
208,363,9665,1,2,1:0:0:0:
308,101,9827,5,8,1:1:0:0:
429,360,9990,1,0,1:0:0:0:
230,47,10152,5,8,1:1:0:0:
215,104,10233,1,0,1:0:0:0:
232,161,10314,1,0,1:0:0:0:
260,214,10395,1,0,1:0:0:0:
261,273,10476,1,8,1:1:0:0:
245,331,10557,1,0,1:0:0:0:
208,363,10639,2,0,P|141:360|136:354,1,60.0599998167114,0|0,1:0|1:0,0:0:0:0:
308,101,10801,1,2,1:2:0:0:
308,101,11125,6,0,P|356:119|346:244,1,180.179999450134,2|0,0:0|0:0,0:0:0:0:
307,178,11449,6,0,L|195:171,1,92.8200005665283,4|0,1:2|0:0,0:0:0:0:
306,19,11773,1,10,0:0:0:0:
307,178,11935,1,0,0:0:0:0:
136,134,12098,2,0,P|123:178|139:221,1,92.8200005665283,8|2,3:0|0:0,0:0:0:0:
217,280,12341,1,2,0:0:0:0:
219,309,12422,1,8,0:0:0:0:
206,86,12584,5,2,0:0:0:0:
220,340,12746,1,8,3:0:0:0:
214,196,12909,1,2,0:0:0:0:
323,341,13071,1,10,0:0:0:0:
146,241,13233,2,0,L|30:266,1,92.8200005665283,2|8,0:0|3:0,0:0:0:0:
206,86,13557,1,2,0:0:0:0:
206,86,13638,1,0,0:0:0:0:
206,86,13719,2,0,P|258:86|275:92,1,46.4100002832642,10|0,0:0|0:0,0:0:0:0:
320,127,13882,2,0,P|360:161|369:176,1,46.4100002832642,0|0,0:0|0:0,0:0:0:0:
390,301,14044,6,0,L|231:285,1,139.230000849792,2|0,1:2|0:0,0:0:0:0:
172,338,14368,2,0,L|111:318,1,46.4100002832642,10|2,0:0|0:0,0:0:0:0:
127,220,14530,2,0,L|82:234,1,46.4100002832642,2|2,0:0|0:0,0:0:0:0:
20,306,14692,2,0,P|38:249|32:151,1,139.230000849792,8|2,3:0|0:0,0:0:0:0:
7,97,15017,1,8,0:0:0:0:
216,238,15179,5,2,0:0:0:0:
112,109,15341,1,8,3:0:0:0:
167,303,15503,1,2,0:0:0:0:
266,166,15665,1,8,0:0:0:0:
136,208,15828,1,2,0:0:0:0:
296,261,15990,1,8,3:0:0:0:
243,83,16152,1,2,0:0:0:0:
167,303,16314,2,0,P|93:296|126:225,1,166.529993139176,10|0,0:0|0:0,0:0:0:0:
167,303,16638,6,0,B|259:262|256:347|367:297,1,185.640001133057,6|8,1:2|0:0,0:0:0:0:
443,129,17125,1,2,0:0:0:0:
429,352,17287,1,8,3:0:0:0:
337,176,17449,1,2,0:0:0:0:
319,202,17530,1,2,0:0:0:0:
309,233,17611,1,8,0:0:0:0:
190,43,17773,6,0,P|242:65|274:113,1,92.8200005665283,2|8,0:0|3:0,0:0:0:0:
237,294,18098,1,2,0:0:0:0:
187,126,18260,1,10,0:0:0:0:
161,340,18422,2,0,P|146:283|167:243,1,92.8200005665283,2|8,0:0|3:0,0:0:0:0:
340,140,18746,1,2,0:0:0:0:
340,140,18828,1,0,0:0:0:0:
340,140,18909,2,0,L|335:210,1,46.4100002832642,10|0,0:0|0:0,0:0:0:0:
262,227,19071,2,0,L|267:297,1,46.4100002832642,0|0,0:0|0:0,0:0:0:0:
383,326,19233,6,0,P|318:351|267:281,1,139.230000849792,2|0,1:2|0:0,0:0:0:0:
185,243,19557,2,0,P|143:275|137:286,1,46.4100002832642,10|2,0:0|0:0,0:0:0:0:
104,354,19719,2,0,P|83:343|66:327,1,46.4100002832642,2|2,0:0|0:0,0:0:0:0:
38,177,19882,2,0,L|218:160,1,139.230000849792,8|2,3:0|0:0,0:0:0:0:
259,192,20206,1,8,0:0:0:0:
95,90,20368,5,2,0:0:0:0:
327,95,20530,1,8,3:0:0:0:
192,35,20692,1,2,0:0:0:0:
352,81,20855,1,8,0:0:0:0:
176,163,21017,1,2,0:0:0:0:
351,179,21179,1,8,3:0:0:0:
263,106,21341,5,8,0:0:0:0:
251,150,21422,1,0,1:0:0:0:
259,195,21503,1,2,0:0:0:0:
286,233,21584,1,2,0:0:0:0:
295,277,21665,1,2,0:0:0:0:
287,323,21746,1,2,0:0:0:0:
257,364,21828,6,0,B|229:294|264:245|264:245|301:189|264:105|264:105|270:164|224:194,1,354.899997833862,4|0,0:0|0:0,0:0:0:0:
184,118,23125,6,0,P|139:109|96:128,1,65.5200015996094,0|8,1:0|3:0,0:0:0:0:
61,171,23368,1,8,3:0:0:0:
56,201,23449,2,0,P|54:240|57:258,1,32.7600007998047,2|2,0:0|0:0,0:0:0:0:
97,302,23611,2,0,P|126:325|136:329,1,32.7600007998047,2|2,0:0|0:0,0:0:0:0:
203,323,23773,1,8,3:0:0:0:
472,81,24098,1,12,0:0:0:0:
310,327,24422,6,0,P|299:281|312:243,1,83.7199971895753,4|0,0:0|0:0,0:0:0:0:
238,132,24746,2,0,P|248:172|237:211,1,83.7199971895753,0|0,1:0|0:0,0:0:0:0:
137,299,25071,2,0,L|238:286,1,83.7199971895753,0|0,1:0|0:0,0:0:0:0:
165,172,25395,2,0,L|81:161,1,83.7199971895753,0|0,1:0|0:0,0:0:0:0:
197,50,25719,5,0,1:0:0:0:
238,132,25882,1,2,0:0:0:0:
281,214,26044,1,0,1:0:0:0:
292,60,26206,2,0,P|346:32|387:40,1,83.7199971895753,2|0,0:0|1:0,0:0:0:0:
459,97,26449,1,0,0:0:0:0:
445,124,26530,2,0,P|429:166|425:182,1,41.8599985947876,2|0,0:0|0:0,0:0:0:0:
449,241,26692,1,0,1:0:0:0:
359,113,26855,1,2,0:0:0:0:
339,304,27017,6,0,L|254:291,1,83.7199971895753,4|0,1:2|0:0,0:0:0:0:
186,169,27341,1,0,1:0:0:0:
186,169,27503,1,0,0:0:0:0:
163,277,27665,1,0,1:0:0:0:
277,185,27828,1,0,0:0:0:0:
242,370,27990,1,0,1:0:0:0:
186,169,28152,1,2,0:0:0:0:
256,291,28314,6,0,P|281:300|303:315,3,41.8599985947876,0|0|0|0,1:0|0:0|0:0|0:0,0:0:0:0:
355,235,28638,2,0,P|370:256|379:281,3,41.8599985947876,0|0|0|0,1:0|0:0|0:0|0:0,0:0:0:0:
466,253,28963,2,0,P|466:279|459:305,3,41.8599985947876,0|0|2|0,1:0|0:0|0:0|0:0,0:0:0:0:
422,180,29287,1,0,1:0:0:0:
476,31,29449,1,8,3:3:0:0:
482,59,29530,1,8,3:3:0:0:
475,84,29611,6,0,L|320:64,1,139.230000849792,4|0,0:0|0:0,0:0:0:0:
298,79,29936,1,8,0:0:0:0:
320,266,30098,2,0,P|337:209|341:163,1,92.8200005665283,2|0,0:0|0:0,0:0:0:0:
199,55,30422,1,8,3:0:0:0:
171,292,30584,1,8,0:0:0:0:
55,96,30746,6,0,B|155:72|120:174|253:136,1,185.640001133057,8|8,3:0|3:0,0:0:0:0:
364,59,31233,1,8,0:0:0:0:
199,55,31395,1,2,0:0:0:0:
405,171,31557,5,8,3:0:0:0:
256,124,31719,1,8,3:0:0:0:
446,99,31882,2,0,L|459:297,1,166.529993139176,8|0,0:0|0:0,0:0:0:0:
435,307,32206,5,8,3:0:0:0:
280,213,32368,1,0,0:0:0:0:
302,222,32449,1,0,0:0:0:0:
318,239,32530,1,8,0:0:0:0:
340,57,32692,1,0,0:0:0:0:
245,284,32855,2,0,L|180:275,1,46.4100002832642,2|0,0:0|0:0,0:0:0:0:
185,114,33017,1,8,3:0:0:0:
199,135,33098,1,2,0:0:0:0:
207,160,33179,2,0,L|141:171,1,46.4100002832642,8|2,0:0|0:0,0:0:0:0:
310,120,33341,1,8,3:0:0:0:
93,70,33503,5,0,0:0:0:0:
126,263,33665,1,8,3:0:0:0:
246,56,33828,1,8,0:0:0:0:
245,284,33990,1,0,0:0:0:0:
108,143,34152,2,0,L|115:188,3,46.4100002832642,8|0|8|8,3:0|0:0|3:0|3:0,0:0:0:0:
151,167,34476,1,8,0:0:0:0:
195,177,34557,1,8,0:0:0:0:
236,178,34638,1,8,0:0:0:0:
276,166,34719,1,8,0:0:0:0:
310,120,34800,5,8,3:0:0:0:
220,332,35125,2,0,P|284:307|334:304,1,99.4933348514812,2|0,0:0|0:0,0:0:0:0:
444,230,35449,2,0,P|380:204|330:201,1,99.4933348514812,8|0,0:0|0:0,0:0:0:0:
237,243,35773,1,2,0:0:0:0:
236,48,35990,1,0,1:0:0:0:
244,59,36098,6,0,P|275:119|281:170,1,99.4933348514812,2|0,0:0|0:0,0:0:0:0:
152,250,36422,2,0,P|177:183|231:164,1,99.4933348514812,0|0,1:0|0:0,0:0:0:0:
279,319,36746,2,0,L|396:291,1,99.4933348514812,8|0,0:0|0:0,0:0:0:0:
493,262,37071,1,2,0:0:0:0:
344,82,37287,1,8,0:0:0:0:
355,91,37395,6,0,P|392:144|401:206,1,99.4933348514812,8|0,3:0|0:0,0:0:0:0:
266,106,37719,2,0,P|200:80|157:92,1,99.4933348514812,2|0,0:0|0:0,0:0:0:0:
73,162,38044,1,8,0:0:0:0:
264,197,38260,2,0,P|310:241|272:348,1,149.240002277222,2|0,0:0|1:0,0:0:0:0:
94,300,38692,6,0,L|241:271,1,149.240002277222,2|0,0:0|1:0,0:0:0:0:
454,344,39233,1,0,1:0:0:0:
435,337,39341,2,0,P|397:284|437:190,1,149.240002277222,8|0,0:0|1:0,0:0:0:0:
416,207,40152,6,0,L|351:201,2,56.4199977616578,0|2|0,0:0|0:0|0:0,0:0:0:0:
394,116,40638,2,0,L|258:102,1,112.839995523316,2|0,0:0|0:0,0:0:0:0:
235,187,41125,2,0,B|173:199|192:155|102:182,1,112.839995523316,0|0,0:0|0:0,0:0:0:0:
53,228,41611,2,0,P|79:268|87:291,1,56.4199977616578,2|0,0:0|0:0,0:0:0:0:
12,355,41936,2,0,L|146:342,1,112.839995523316,2|0,0:0|0:0,0:0:0:0:
211,359,42422,1,0,0:0:0:0:
388,292,42584,6,0,B|273:347|299:233|173:271|173:271|226:222|208:157,1,338.519986569947,4|0,0:3|0:0,0:0:0:0:
130,193,43719,1,0,0:0:0:0:
256,192,43882,12,0,45098,0:0:0:0:
254,194,45179,6,0,P|323:184|356:186,1,92.8200005665283,4|0,3:2|0:0,0:0:0:0:
178,121,45503,2,0,P|152:179|181:267,1,139.230000849792,0|0,1:0|0:0,0:0:0:0:
183,278,45828,2,0,P|129:269|87:246,1,92.8200005665283,8|0,3:0|0:0,0:0:0:0:
182,99,46152,1,10,0:0:0:0:
254,194,46314,1,0,0:0:0:0:
270,19,46476,5,8,3:0:0:0:
262,102,46638,1,2,0:0:0:0:
254,194,46801,1,8,0:0:0:0:
183,278,46963,2,0,L|372:261,1,185.640001133057,2|0,0:0|0:0,0:0:0:0:
390,107,47449,1,8,0:0:0:0:
454,253,47611,1,2,0:0:0:0:
435,36,47773,6,0,P|379:23|309:83,1,139.230000849792,8|0,3:0|0:0,0:0:0:0:
311,98,48098,2,0,P|262:79|226:47,1,92.8200005665283,8|0,0:0|0:0,0:0:0:0:
184,255,48422,1,8,3:0:0:0:
182,218,48503,1,2,0:0:0:0:
199,185,48584,1,2,0:0:0:0:
229,164,48665,1,2,0:0:0:0:
266,161,48746,1,8,0:0:0:0:
102,190,48909,1,0,0:0:0:0:
155,26,49071,5,10,3:0:0:0:
267,242,49233,1,2,0:0:0:0:
242,60,49395,5,10,3:0:0:0:
210,324,49557,1,2,0:0:0:0:
327,95,49719,5,10,3:0:0:0:
296,322,49882,1,2,0:0:0:0:
154,141,50044,5,8,0:0:0:0:
123,326,50206,1,2,0:0:0:0:
65,137,50368,5,4,0:0:0:0:
44,329,50530,2,0,L|-4:343,2,46.4100002832642,8|8|8,3:0|3:0|0:0,0:0:0:0:
154,141,50855,2,0,L|202:155,2,46.4100002832642,8|8|8,3:0|3:0|0:0,0:0:0:0:
266,308,51179,2,0,L|310:295,2,46.4100002832642,8|8|8,3:0|3:0|0:0,0:0:0:0:
322,100,51503,2,0,P|294:150|292:163,1,46.4100002832642,8|8,3:0|3:0,0:0:0:0:
383,265,51665,5,8,0:0:0:0:
400,68,51828,2,0,P|362:26|347:21,2,55.5099977130586,8|8|8,3:0|3:0|0:0,0:0:0:0:
310,295,52152,2,0,P|323:318|345:335,2,55.5099977130586,8|8|8,3:0|3:0|0:0,0:0:0:0:
322,100,52476,2,0,P|274:75|233:74,2,55.5099977130586,8|8|8,3:0|3:0|0:0,0:0:0:0:
229,312,52801,2,0,P|168:330|145:326,1,55.5099977130586,8|8,0:0|0:0,0:0:0:0:
37,241,52963,5,8,3:0:0:0:
337,182,53125,2,0,L|402:236,2,64.609996746628,8|0|8,3:0|3:0|0:0,0:0:0:0:
39,153,53449,1,8,0:0:0:0:
74,138,53530,1,8,0:0:0:0:
113,141,53611,1,8,3:0:0:0:
284,243,53773,2,0,L|349:297,2,64.609996746628,8|8|8,3:0|3:0|0:0,0:0:0:0:
37,241,54098,2,0,P|71:222|140:218,1,64.609996746628,8|8,0:0|0:0,0:0:0:0:
225,304,54260,5,8,3:0:0:0:
164,73,54422,2,0,P|199:126|191:166,1,73.7100017995606,8|8,0:0|0:0,0:0:0:0:
132,294,54584,1,8,3:0:0:0:
285,129,54746,2,0,P|365:113|383:117,1,73.7100017995606,8|8,0:0|0:0,0:0:0:0:
115,141,54909,1,10,3:0:0:0:
399,250,55071,1,8,0:3:0:0:
403,264,55152,1,8,0:3:0:0:
400,286,55233,1,8,0:0:0:0:
384,311,55314,1,8,0:0:0:0:
352,330,55395,1,8,0:0:0:0:
303,316,55476,1,8,0:0:0:0:
273,276,55557,6,0,L|183:275,1,84.6299966424867,8|0,0:0|0:0,0:0:0:0:
171,271,55882,6,0,L|315:265,1,111.930001707916,8|0,3:0|0:0,0:0:0:0:
298,255,56206,6,0,L|140:247,1,139.230000849792,8|0,3:0|0:0,0:0:0:0:
150,224,56530,6,0,L|320:217,1,166.529993139176,8|0,3:0|0:0,0:0:0:0:
329,191,56855,6,0,L|130:182,1,193.829990239884,8|0,3:0|0:0,0:0:0:0:
130,143,57179,6,0,L|342:133,1,207.479997467285,8|0,3:0|0:0,0:0:0:0:
345,91,57503,6,0,L|104:80,1,221.130005398682,8|0,3:0|0:0,0:0:0:0:
117,24,57828,5,8,3:0:0:0:
154,321,57990,5,12,0:0:0:0:
344,92,58152,1,8,0:0:0:0:
149,315,58638,5,8,0:0:0:0:
340,85,58801,1,8,0:0:0:0:
140,307,59287,5,8,0:0:0:0:
333,78,59449,1,8,0:0:0:0:
134,301,59611,1,8,0:0:0:0:
117,23,59773,1,8,0:0:0:0:
127,295,59936,1,8,0:0:0:0:
448,47,60098,6,0,P|348:112|328:241,1,221.130005398682,10|2,0:0|0:0,0:0:0:0:
365,318,60422,6,0,P|298:241|143:319,1,262.080006398438,12|0,0:1|0:0,0:0:0:0:
110,355,60746,6,0,P|71:299|72:282,1,55.5099977130586,4|0,1:2|0:0,0:0:0:0:
118,159,60909,2,0,L|112:227,1,55.5099977130586,8|0,0:2|0:0,0:0:0:0:
159,282,61071,2,0,P|153:214|162:199,1,55.5099977130586,2|0,1:2|0:0,0:0:0:0:
263,116,61234,2,0,L|223:171,1,55.5099977130586,8|0,0:0|0:0,0:0:0:0:
229,243,61395,2,0,P|288:209|305:211,1,55.5099977130586,2|0,1:2|0:0,0:0:0:0:
423,267,61558,2,0,L|355:255,1,55.5099977130586,8|0,0:2|0:0,0:0:0:0:
250,337,61719,6,0,P|311:348|336:334,1,55.5099977130586,2|0,1:2|0:0,0:0:0:0:
368,257,61882,2,0,P|307:268|282:254,1,55.5099977130586,8|0,0:2|0:0,0:0:0:0:
176,230,62044,2,0,P|237:241|262:227,1,55.5099977130586,2|0,1:2|0:0,0:0:0:0:
276,153,62207,2,0,P|215:164|190:150,1,55.5099977130586,8|0,0:2|0:0,0:0:0:0:
116,98,62368,6,0,P|163:151|168:170,1,55.5099977130586,2|0,1:2|0:0,0:0:0:0:
225,35,62530,2,0,P|239:104|234:123,1,55.5099977130586,8|0,0:2|0:0,0:0:0:0:
347,53,62692,2,0,P|324:120|310:134,1,55.5099977130586,2|0,1:2|0:0,0:0:0:0:
440,135,62855,2,0,P|387:182|368:187,1,55.5099977130586,8|0,0:0|0:0,0:0:0:0:
450,250,63017,2,0,P|380:264|361:259,1,55.5099977130586,2|0,1:2|0:0,0:0:0:0:
397,355,63179,2,0,P|329:332|315:318,1,55.5099977130586,8|0,0:0|0:0,0:0:0:0:
292,176,63341,6,0,L|307:250,1,55.5099977130586,2|0,1:2|0:0,0:0:0:0:
216,352,63503,2,0,L|227:297,1,55.5099977130586,8|0,0:2|0:0,0:0:0:0:
232,177,63665,2,0,L|217:251,1,55.5099977130586,2|0,1:2|0:0,0:0:0:0:
311,352,63828,2,0,L|299:297,1,55.5099977130586,8|0,0:0|0:0,0:0:0:0:
310,164,63990,6,0,L|325:238,1,55.5099977130586,2|0,1:2|0:0,0:0:0:0:
198,364,64152,2,0,L|209:309,1,55.5099977130586,8|0,0:0|0:0,0:0:0:0:
219,166,64314,2,0,L|204:240,1,55.5099977130586,2|0,1:2|0:0,0:0:0:0:
325,367,64477,2,0,L|313:312,1,55.5099977130586,8|0,0:0|0:0,0:0:0:0:
135,257,64638,5,2,1:2:0:0:
392,255,64801,1,10,0:0:0:0:
190,157,64963,1,0,1:0:0:0:
340,155,65125,2,0,L|104:138,1,222.039990852234,10|10,0:0|0:0,0:0:0:0:
292,54,65611,1,0,1:0:0:0:
275,240,65773,1,8,0:0:0:0:
192,56,65936,5,0,1:0:0:0:
176,246,66098,2,0,L|186:359,2,111.019995426117,10|0|10,0:0|1:0|0:0,0:0:0:0:
292,54,66584,2,0,P|361:43|406:76,1,111.019995426117,0|8,1:0|0:0,0:0:0:0:
220,174,66909,2,0,P|151:163|106:196,1,111.019995426117,0|0,1:0|0:0,0:0:0:0:
305,325,67233,6,0,L|426:313,1,111.019995426117,2|0,1:2|0:0,0:0:0:0:
464,246,67476,6,0,L|343:234,1,111.019995426117,2|0,1:2|0:0,0:0:0:0:
250,213,67719,6,0,P|340:229|393:122,1,222.039990852234,4|8,1:2|0:0,0:0:0:0:
153,128,68206,1,0,1:0:0:0:
173,291,68368,1,8,3:0:0:0:
188,259,68449,1,8,3:0:0:0:
187,229,68530,5,8,3:0:0:0:
88,71,68692,2,0,P|134:44|214:74,1,111.019995426117,8|0,0:0|1:0,0:0:0:0:
173,291,69017,1,8,0:0:0:0:
153,128,69179,1,0,1:0:0:0:
123,352,69341,2,0,P|189:372|235:336,1,111.019995426117,8|0,0:0|1:0,0:0:0:0:
243,118,69665,1,8,0:0:0:0:
62,282,69828,6,0,L|190:292,1,111.019995426117,2|0,1:2|0:0,0:0:0:0:
264,203,70071,2,0,L|136:213,1,111.019995426117,2|0,1:2|0:0,0:0:0:0:
89,128,70314,2,0,L|193:137,1,55.5099977130586,0|0,1:0|0:0,0:0:0:0:
241,92,70476,6,0,P|175:97|155:71,1,84.6299966424867,0|0,1:0|0:0,0:0:0:0:
252,9,70801,6,0,L|267:252,1,193.829990239884,12|0,0:1|0:0,0:0:0:0:
322,264,71125,6,0,L|332:336,1,55.5099977130586,4|0,1:2|0:0,0:0:0:0:
414,221,71287,2,0,L|404:293,1,55.5099977130586,8|0,0:0|0:0,0:0:0:0:
329,131,71449,2,0,L|339:203,1,55.5099977130586,2|0,1:2|0:0,0:0:0:0:
421,88,71611,2,0,L|411:160,1,55.5099977130586,8|0,0:0|0:0,0:0:0:0:
331,39,71773,6,0,L|257:29,1,55.5099977130586,2|0,1:2|0:0,0:0:0:0:
245,109,71936,2,0,L|189:116,1,55.5099977130586,8|0,0:0|0:0,0:0:0:0:
162,33,72098,2,0,L|88:23,1,55.5099977130586,2|0,1:2|0:0,0:0:0:0:
76,103,72261,2,0,L|20:110,1,55.5099977130586,8|0,0:0|0:0,0:0:0:0:
52,194,72422,6,0,P|80:249|81:260,1,55.5099977130586,2|0,1:2|0:0,0:0:0:0:
184,220,72584,2,0,P|156:275|155:286,1,55.5099977130586,8|0,0:0|0:0,0:0:0:0:
15,283,72746,2,0,P|43:338|44:349,1,55.5099977130586,2|0,1:2|0:0,0:0:0:0:
147,309,72908,2,0,P|119:364|118:375,1,55.5099977130586,8|0,0:0|0:0,0:0:0:0:
244,286,73071,6,0,P|302:275|312:276,1,55.5099977130586,2|0,1:2|0:0,0:0:0:0:
344,347,73233,2,0,P|371:344|397:335,1,55.5099977130586,8|0,0:0|0:0,0:0:0:0:
435,251,73395,6,0,B|401:239|401:239|368:267,1,70.9799995667725,2|0,1:3|0:0,0:0:0:0:
499,347,73719,6,0,L|506:273,1,55.5099977130586,2|0,1:2|0:0,0:0:0:0:
435,251,73882,2,0,L|429:195,1,55.5099977130586,8|0,0:0|0:0,0:0:0:0:
507,158,74044,2,0,L|514:84,1,55.5099977130586,2|0,1:2|0:0,0:0:0:0:
443,62,74207,2,0,L|437:6,1,55.5099977130586,8|0,0:0|0:0,0:0:0:0:
336,236,74368,6,0,P|301:188|290:177,1,55.5099977130586,2|0,1:2|0:0,0:0:0:0:
217,222,74530,2,0,P|199:200|184:176,1,55.5099977130586,8|0,0:0|0:0,0:0:0:0:
226,105,74692,2,0,P|191:57|180:46,1,55.5099977130586,2|0,1:2|0:0,0:0:0:0:
107,91,74854,2,0,P|89:69|74:45,1,55.5099977130586,8|0,0:0|0:0,0:0:0:0:
19,261,75017,6,0,L|91:252,1,55.5099977130586,2|0,1:2|0:0,0:0:0:0:
129,333,75179,2,0,L|184:339,1,55.5099977130586,8|2,0:0|0:3,0:0:0:0:
269,293,75341,1,2,1:2:0:0:
435,302,75503,6,0,P|355:347|260:249,1,203.840002488281,8|8,0:0|0:0,0:0:0:0:
350,119,75990,1,0,1:0:0:0:
354,258,76152,1,8,0:0:0:0:
265,71,76314,6,0,L|160:63,1,101.920001244141,4|8,1:2|0:0,0:0:0:0:
43,182,76638,1,0,1:0:0:0:
234,160,76801,2,0,L|339:152,1,101.920001244141,8|0,0:0|1:0,0:0:0:0:
133,172,77125,1,8,0:0:0:0:
129,201,77206,1,8,0:0:0:0:
131,229,77287,1,0,1:0:0:0:
198,78,77449,2,0,P|250:72|261:74,1,50.9600006220703,8|8,0:0|0:0,0:0:0:0:
344,171,77611,6,0,L|210:157,1,111.019995426117,2|0,1:2|0:0,0:0:0:0:
131,229,77855,6,0,L|265:215,1,111.019995426117,2|0,1:2|0:0,0:0:0:0:
402,293,78098,6,0,B|301:225|299:361|172:284,1,222.039990852234,4|8,1:2|0:0,0:0:0:0:
226,120,78584,2,0,P|247:190|234:232,1,101.920001244141,2|8,1:2|3:0,0:0:0:0:
326,30,78909,5,0,1:0:0:0:
347,224,79071,2,0,L|458:197,1,101.920001244141,8|2,0:0|1:2,0:0:0:0:
335,111,79395,1,10,0:0:0:0:
355,313,79557,1,2,1:2:0:0:
226,120,79719,2,0,L|115:93,1,101.920001244141,10|0,0:0|1:0,0:0:0:0:
258,308,80044,1,8,0:0:0:0:
280,52,80206,6,0,P|314:116|292:176,1,111.019995426117,2|0,1:2|0:0,0:0:0:0:
253,219,80449,2,0,P|256:164|225:119,1,111.019995426117,2|0,1:2|0:0,0:0:0:0:
107,44,80692,2,0,P|128:108|126:133,1,55.5099977130586,2|0,1:2|0:0,0:0:0:0:
0,195,80855,2,0,P|76:141|169:181,1,166.529993139176,2|0,1:2|0:0,0:0:0:0:
176,185,81179,1,8,0:0:0:0:
380,260,81503,6,0,L|265:239,1,83.7199971895753,2|0,1:0|0:0,0:0:0:0:
240,370,81827,2,0,L|343:348,1,83.7199971895753,2|0,1:0|0:0,0:0:0:0:
234,179,82152,6,0,B|210:231|210:231|223:299,1,120.119999633423,8|0,1:0|0:0,0:0:0:0:
455,304,82476,2,0,B|465:247|465:247|430:184,1,120.119999633423,8|0,1:0|0:0,0:0:0:0:
244,55,82800,5,2,1:0:0:0:
336,141,82962,1,2,1:0:0:0:
73,160,83125,2,0,L|93:60,1,83.7199971895753,2|0,1:0|0:0,0:0:0:0:
246,315,83449,5,8,1:0:0:0:
250,183,83611,1,8,1:0:0:0:
89,79,83773,2,0,B|201:21|201:21|250:59,1,180.179999450134,8|0,1:0|0:0,0:0:0:0:
323,143,84134,5,14,1:0:0:0:
179,226,84296,1,0,1:0:0:0:
381,219,84458,5,10,1:0:0:0:
120,141,84620,1,0,1:0:0:0:
400,86,84782,5,10,1:0:0:0:
103,276,84945,1,2,1:0:0:0:
458,250,85107,5,10,1:1:0:0:
40,109,85269,1,2,1:0:0:0:
235,13,85431,5,8,1:1:0:0:
250,70,85512,1,0,1:0:0:0:
233,127,85593,1,0,1:0:0:0:
205,180,85674,1,0,1:0:0:0:
204,239,85755,1,8,1:1:0:0:
220,297,85836,1,0,1:0:0:0:
261,337,85918,2,0,P|328:334|333:328,1,60.0599998167114,0|0,1:0|1:0,0:0:0:0:
157,67,86080,1,2,1:2:0:0:
157,67,86404,6,0,B|223:58|223:58|287:79|287:79|367:69,1,180.179999450134,2|0,0:0|0:0,0:0:0:0:
451,43,86728,5,0,1:0:0:0:
