osu file format v14

[General]
AudioFilename: audio.mp3
AudioLeadIn: 0
PreviewTime: 60011
Countdown: 0
SampleSet: Soft
StackLeniency: 0.7
Mode: 0
LetterboxInBreaks: 0
WidescreenStoryboard: 1

[Editor]
DistanceSpacing: 1.1
BeatDivisor: 4
GridSize: 32
TimelineZoom: 2.5

[Metadata]
Title:Anime o Katare! ~Animegatari Doukoukai no Thema~
TitleUnicode:アニメを語レ!~アニメガタリ同好会のテーマ~
Artist:Maya(CV.Minase Inori) & Erika(CV.Inami Anju)
ArtistUnicode:マヤ(CV.水瀬いのり)&エリカ(CV.伊波杏樹)
Creator:Sotarks
Version:Akitoshi's Normal
Source:アニメガタリ
Tags:Anime-Gatari animegatari W-Toon Studio kalibe haruto haruto_aizawa akitoshi corinn -Sh1n1- shini irohas mugiwarasekai milan- toybot
BeatmapID:1367151
BeatmapSetID:644332

[Difficulty]
HPDrainRate:4
CircleSize:3.3
OverallDifficulty:4
ApproachRate:5
SliderMultiplier:1.01
SliderTickRate:1

[Events]
//Background and Video events
0,0,"BG.jpg",0,0
//Break Periods
//Storyboard Layer 0 (Background)
//Storyboard Layer 1 (Fail)
//Storyboard Layer 2 (Pass)
//Storyboard Layer 3 (Foreground)
//Storyboard Sound Samples

[TimingPoints]
-226,324.324324324324,4,2,2,32,1,0
422,-100,4,2,2,32,0,0
1071,-100,4,2,2,52,0,0
6909,-100,4,2,2,62,0,0
7557,-100,4,2,2,52,0,0
8530,-100,4,2,2,52,0,0
8773,-100,4,2,2,5,0,0
8855,-100,4,2,2,52,0,0
11125,-100,4,2,2,62,0,0
11368,-100,4,2,2,5,0,0
11449,-100,4,2,2,62,0,0
21828,-100,4,2,2,52,0,0
23125,-100,4,2,2,52,0,0
24422,-100,4,2,2,62,0,0
29611,-100,4,2,2,62,0,0
34801,-100,4,2,2,62,0,0
40152,-100,4,2,2,42,0,0
45179,-100,4,2,2,62,0,0
45746,-100,4,2,2,5,0,0
45828,-100,4,2,2,62,0,0
48017,-100,4,2,2,5,0,0
48098,-100,4,2,2,62,0,0
51665,-100,4,2,2,62,0,0
52963,-100,4,2,2,62,0,0
54260,-100,4,2,2,62,0,0
55557,-100,4,2,2,62,0,0
55801,-100,4,2,2,5,0,0
55882,-100,4,2,2,62,0,0
56125,-100,4,2,2,5,0,0
56206,-100,4,2,2,62,0,0
56449,-100,4,2,2,5,0,0
56530,-100,4,2,2,62,0,0
56773,-100,4,2,2,5,0,0
56855,-100,4,2,2,62,0,0
57098,-100,4,2,2,5,0,0
57179,-100,4,2,2,62,0,0
57422,-100,4,2,2,5,0,0
57503,-100,4,2,2,62,0,0
57746,-100,4,2,2,5,0,0
57828,-100,4,2,2,62,0,0
57909,-100,4,2,2,5,0,0
57990,-100,4,2,2,62,0,0
60098,-100,4,2,2,62,0,0
60341,-100,4,2,2,5,0,0
60422,-100,4,2,2,62,0,0
60665,-100,4,2,2,5,0,0
60746,-100,4,2,2,72,0,1
67395,-100,4,2,2,5,0,1
67476,-100,4,2,2,72,0,1
67638,-100,4,2,2,5,0,1
67719,-100,4,2,2,72,0,1
69990,-100,4,2,2,5,0,1
70071,-100,4,2,2,72,0,1
70233,-100,4,2,2,5,0,1
70314,-100,4,2,2,72,0,1
70395,-100,4,2,2,5,0,1
70476,-100,4,2,2,72,0,1
70719,-100,4,2,2,5,0,1
70801,-100,4,2,2,72,0,1
71044,-100,4,2,2,5,0,1
71125,-100,4,2,2,72,0,1
73395,-100,4,2,2,72,0,1
73719,-100,4,2,2,72,0,1
75503,-100,4,2,2,72,0,1
77611,-100,4,2,2,72,0,1
78584,-100,4,2,2,72,0,1
80206,-100,4,2,2,72,0,1
81503,-100,4,2,2,72,0,0
82152,-100,4,2,2,72,0,0
82801,-100,4,2,2,72,0,0
83773,-100,4,2,2,72,0,0
84134,324.324324324324,4,2,2,72,1,0
86728,-100,4,2,2,32,0,0

[Colours]
Combo1 : 175,253,153
Combo2 : 252,67,169
Combo3 : 131,98,217
Combo4 : 17,234,228

[HitObjects]
76,263,1071,6,0,B|184:256,1,101,6|2,1:0|1:0,0:0:0:0:
287,243,1719,1,8,1:1:0:0:
371,170,2044,1,8,1:1:0:0:
329,67,2368,2,0,L|334:16,2,50.5,2|2|2,1:0|1:0|1:0,0:0:0:0:
229,116,3017,2,0,L|234:167,2,50.5,8|8|8,1:1|1:1|1:1,0:0:0:0:
145,42,3665,6,0,P|87:42|35:71,1,101,2|2,1:0|1:0,0:0:0:0:
5,162,4314,1,8,1:1:0:0:
68,253,4638,1,8,1:1:0:0:
171,213,4963,2,0,L|165:148,2,50.5,2|2|2,1:0|1:0|1:0,0:0:0:0:
251,288,5611,2,0,L|245:353,2,50.5,8|8|8,1:1|1:1|1:1,0:0:0:0:
317,198,6260,6,0,P|365:212|425:203,1,101,6|2,1:0|1:0,0:0:0:0:
504,140,6909,1,8,0:1:0:0:
454,40,7233,1,8,0:1:0:0:
347,71,7557,2,0,L|284:66,1,50.5,2|2,1:0|0:1,0:0:0:0:
241,59,7882,1,2,1:0:0:0:
171,145,8206,2,0,L|108:150,1,50.5,8|8,0:1|0:1,0:0:0:0:
65,157,8531,1,8,0:1:0:0:
19,258,8855,6,0,P|60:268|126:250,1,101,2|2,1:0|1:0,0:0:0:0:
172,239,9341,1,0,0:0:0:0:
172,239,9503,2,0,L|180:296,2,50.5,8|2|8,0:1|1:0|0:1,0:0:0:0:
197,130,10152,1,8,0:1:0:0:
291,72,10476,1,8,0:1:0:0:
399,96,10801,2,0,P|424:135|431:189,1,101,2|2,1:0|0:0,0:0:0:0:
410,297,11449,6,0,P|353:291|299:314,1,101,4|10,1:2|0:0,0:0:0:0:
209,264,12098,2,0,P|152:258|98:281,1,101,8|8,3:0|0:0,0:0:0:0:
61,297,12584,2,0,L|48:184,1,101,2|2,0:0|0:0,0:0:0:0:
10,166,13071,1,10,0:0:0:0:
10,166,13233,2,0,L|23:53,1,101,2|2,0:0|0:0,0:0:0:0:
60,26,13719,1,10,0:0:0:0:
160,72,14044,6,0,P|202:63|273:80,1,101,2|10,1:2|0:0,0:0:0:0:
360,28,14692,2,0,P|402:19|473:36,1,101,8|8,3:0|0:0,0:0:0:0:
501,64,15179,2,0,L|495:178,1,101,2|2,0:0|0:0,0:0:0:0:
455,203,15665,1,8,0:0:0:0:
455,203,15828,2,0,L|461:317,1,101,2|2,0:0|0:0,0:0:0:0:
461,359,16314,1,10,0:0:0:0:
352,334,16638,6,0,P|300:347|250:338,1,101,6|8,1:2|0:0,0:0:0:0:
170,266,17287,2,0,P|157:214|166:164,1,101,8|8,3:0|0:0,0:0:0:0:
186,116,17773,2,0,P|139:89|88:85,1,101,2|2,0:0|0:0,0:0:0:0:
44,108,18260,1,10,0:0:0:0:
44,108,18422,2,0,L|35:213,1,101,2|2,0:0|0:0,0:0:0:0:
28,264,18909,1,10,0:0:0:0:
115,332,19233,6,0,P|167:321|230:330,1,101,2|10,1:2|0:0,0:0:0:0:
321,356,19882,2,0,P|373:345|436:354,1,101,8|8,3:0|0:0,0:0:0:0:
475,353,20368,2,0,L|478:233,1,101,2|2,0:0|0:0,0:0:0:0:
502,204,20855,1,8,0:0:0:0:
502,204,21017,2,0,L|499:84,1,101,2|8,0:0|0:0,0:0:0:0:
480,50,21503,1,2,0:0:0:0:
386,110,21828,6,0,P|338:146|142:43,1,303,4|0,0:0|0:0,0:0:0:0:
41,14,23125,2,0,B|23:66|49:111|49:111|73:152|52:218,1,202,0|8,1:0|3:0,0:0:0:0:
104,308,24098,1,12,0:0:0:0:
213,290,24422,6,0,P|264:304|325:295,2,101,4|0|0,0:0|1:0|1:0,0:0:0:0:
162,191,25395,1,0,1:0:0:0:
212,91,25719,2,0,L|199:27,2,50.5,0|2|0,1:0|0:0|1:0,0:0:0:0:
253,128,26206,2,0,P|299:106|364:107,1,101,2|2,0:0|0:0,0:0:0:0:
400,121,26692,1,0,1:0:0:0:
493,182,27017,6,0,L|479:289,1,101,4|0,1:2|1:0,0:0:0:0:
377,323,27665,2,0,L|383:373,2,50.5,0|0|0,1:0|0:0|1:0,0:0:0:0:
334,286,28152,2,0,P|293:301|227:292,1,101,2|0,0:0|0:0,0:0:0:0:
189,267,28638,1,0,1:0:0:0:
108,189,28963,2,0,L|102:129,1,50.5,0|2,1:0|0:0,0:0:0:0:
59,103,29287,2,0,L|65:43,1,50.5,0|8,1:0|3:3,0:0:0:0:
107,18,29611,5,4,0:0:0:0:
210,59,29936,2,0,P|275:34|373:52,1,151.5,8|8,0:0|3:0,0:0:0:0:
404,79,30584,1,8,0:0:0:0:
404,79,30746,2,0,L|398:186,1,101,8|8,3:0|3:0,0:0:0:0:
394,235,31233,1,8,0:0:0:0:
306,303,31557,2,0,L|309:356,2,50.5,8|8|8,3:0|3:0|0:0,0:0:0:0:
214,239,32206,6,0,L|220:131,1,101,8|8,3:0|0:0,0:0:0:0:
224,86,32692,1,0,0:0:0:0:
224,86,32855,2,0,L|296:94,2,50.5,2|8|8,0:0|3:0|0:0,0:0:0:0:
140,12,33503,2,0,P|116:60|120:128,1,101,0|8,0:0|0:0,0:0:0:0:
131,164,33990,1,0,0:0:0:0:
131,164,34152,2,0,L|113:276,1,101,8|8,3:0|0:0,0:0:0:0:
34,340,34801,6,0,P|129:374|217:304,2,202,8|8|2,3:0|0:0|0:0,0:0:0:0:
5,232,36422,1,0,1:0:0:0:
57,134,36746,2,0,L|157:120,1,101,8|2,0:0|0:0,0:0:0:0:
249,58,37395,6,0,B|352:33|334:120|463:83,2,202,8|8|2,3:0|0:0|0:0,0:0:0:0:
157,120,39017,1,0,1:0:0:0:
230,203,39341,2,0,L|227:311,1,101,8|0,0:0|1:0,0:0:0:0:
256,192,40152,12,0,43882,0:0:0:0:
176,187,45179,6,0,P|147:187|75:225,2,101,4|0|8,3:2|1:0|3:0,0:0:0:0:
276,235,46152,2,0,L|344:228,1,50.5,10|0,0:0|0:0,0:0:0:0:
381,227,46476,2,0,P|398:272|386:345,2,101,8|8|0,3:0|0:0|0:0,0:0:0:0:
316,136,47449,2,0,L|305:67,1,50.5,8|2,0:0|0:0,0:0:0:0:
296,31,47773,6,0,P|252:52|185:51,1,101,8|8,3:0|0:0,0:0:0:0:
96,15,48422,1,8,3:0:0:0:
16,92,48746,1,8,0:0:0:0:
35,201,49071,2,0,L|22:306,2,101,10|10|10,3:0|3:0|3:0,0:0:0:0:
136,154,50044,1,8,0:0:0:0:
224,221,50368,6,0,P|264:247|404:195,1,202,4|8,0:0|0:0,0:0:0:0:
220,71,51665,2,0,P|180:45|40:97,1,202,8|8,0:0|0:0,0:0:0:0:
224,221,52963,6,0,L|239:340,1,101,8|8,3:0|0:0,0:0:0:0:
347,321,53611,2,0,L|359:220,1,101,8|8,3:0|0:0,0:0:0:0:
379,111,54260,2,0,P|336:85|276:82,1,101,8|8,3:0|3:0,0:0:0:0:
181,118,54909,2,0,P|138:92|78:89,1,101,10|8,3:0|0:0,0:0:0:0:
23,177,55557,6,0,L|31:285,2,101,8|8|8,0:0|3:0|3:0,0:0:0:0:
89,87,56530,1,8,3:0:0:0:
186,139,56855,2,0,P|246:143|290:123,1,101,8|8,3:0|3:0,0:0:0:0:
361,49,57503,1,8,3:0:0:0:
466,83,57828,2,0,L|473:136,1,50.5,8|12,3:0|0:0,0:0:0:0:
481,187,58152,5,8,0:0:0:0:
351,291,58638,2,0,L|281:285,1,50.5,8|8,0:0|0:0,0:0:0:0:
205,149,59287,2,0,L|86:162,2,101,8|8|8,0:0|0:0|0:0,0:0:0:0:
237,103,60098,1,10,0:0:0:0:
342,69,60422,1,12,0:1:0:0:
445,114,60746,6,0,B|471:160|471:160|467:224,1,101,4|2,1:2|1:2,0:0:0:0:
445,317,61395,2,0,B|399:343|399:343|335:339,1,101,2|2,1:2|1:2,0:0:0:0:
240,326,62044,1,2,1:2:0:0:
147,265,62368,1,2,1:2:0:0:
125,156,62692,1,2,1:2:0:0:
178,58,63017,1,2,1:2:0:0:
285,30,63341,6,0,P|304:83|297:143,1,101,2|2,1:2|1:2,0:0:0:0:
256,229,63990,2,0,P|237:282|244:342,1,101,2|2,1:2|1:2,0:0:0:0:
136,367,64638,2,0,P|78:365|29:339,1,101,2|0,1:2|1:0,0:0:0:0:
3,304,65125,2,0,L|17:200,1,101,10|10,0:0|0:0,0:0:0:0:
24,148,65611,1,0,1:0:0:0:
108,74,65936,6,0,L|215:64,1,101,0|0,1:0|1:0,0:0:0:0:
260,95,66422,1,10,0:0:0:0:
260,95,66584,2,0,L|367:105,1,101,0|0,1:0|1:0,0:0:0:0:
471,109,67233,2,0,P|475:65|459:19,2,75.75,2|2|4,1:2|1:2|1:2,0:0:0:0:
432,217,68044,2,0,L|442:325,1,101,8|8,0:0|3:0,0:0:0:0:
443,373,68530,6,0,P|393:374|343:364,1,101,8|0,3:0|1:0,0:0:0:0:
264,285,69179,1,0,1:0:0:0:
153,273,69503,1,0,1:0:0:0:
45,303,69828,2,0,B|52:378,2,75.75,2|2|0,1:2|1:2|1:0,0:0:0:0:
9,260,70476,2,0,L|16:159,1,101,0|12,1:0|0:1,0:0:0:0:
108,95,71125,6,0,B|150:70|150:70|206:66,1,101,4|2,1:2|1:2,0:0:0:0:
278,146,71773,2,0,B|320:171|320:171|376:175,1,101,2|2,1:2|1:2,0:0:0:0:
463,110,72422,1,2,1:2:0:0:
507,211,72746,1,2,1:2:0:0:
474,317,73071,1,2,1:2:0:0:
365,340,73395,1,2,1:3:0:0:
269,286,73719,6,0,B|218:276|218:276|150:291,1,101,2|2,1:2|1:2,0:0:0:0:
71,338,74368,2,0,B|61:287|61:287|76:219,1,101,2|2,1:2|1:2,0:0:0:0:
127,142,75017,2,0,L|236:136,1,101,2|2,1:2|1:2,0:0:0:0:
279,115,75503,2,0,P|301:156|297:232,1,101,8|8,0:0|0:0,0:0:0:0:
274,257,75990,1,0,1:0:0:0:
240,362,76314,6,0,L|353:352,1,101,4|0,1:2|1:0,0:0:0:0:
451,341,76963,1,0,1:0:0:0:
498,240,77287,1,0,1:0:0:0:
432,150,77611,2,0,L|434:59,2,75.75,2|2|4,1:2|1:2|1:2,0:0:0:0:
385,251,78422,2,0,P|325:248|277:225,1,101,8|8,0:0|3:0,0:0:0:0:
241,201,78909,6,0,L|235:306,1,101,0|2,1:0|1:2,0:0:0:0:
144,366,79557,1,2,1:2:0:0:
33,356,79882,1,0,1:0:0:0:
18,245,80206,2,0,P|10:139|79:60,1,202,2|2,1:2|1:2,0:0:0:0:
165,16,81179,1,8,0:0:0:0:
247,89,81503,6,0,P|300:95|362:79,1,101,2|2,1:0|1:0,0:0:0:0:
435,19,82152,1,8,1:0:0:0:
495,112,82476,1,8,1:0:0:0:
444,211,82801,2,0,L|384:206,2,50.5,2|0|2,1:0|0:0|1:0,0:0:0:0:
462,320,83449,2,0,L|522:315,2,50.5,8|8|8,1:0|1:0|1:0,0:0:0:0:
360,365,84134,6,0,P|312:367|252:340,1,101,6|2,1:0|1:0,0:0:0:0:
179,275,84781,2,0,P|177:227|204:167,1,101,10|10,1:0|1:1,0:0:0:0:
274,99,85430,1,8,1:1:0:0:
187,29,85754,1,8,1:1:0:0:
79,58,86079,1,2,1:2:0:0:
23,153,86404,6,0,L|26:268,1,101,2|0,0:0|1:0,0:0:0:0:
