osu file format v14

[General]
AudioFilename: audio.mp3
AudioLeadIn: 0
PreviewTime: 48541
Countdown: 1
SampleSet: None
StackLeniency: 0.7
Mode: 0
LetterboxInBreaks: 0
WidescreenStoryboard: 1

[Editor]
Bookmarks: 7398
DistanceSpacing: 1.5
BeatDivisor: 4
GridSize: 16
TimelineZoom: 1

[Metadata]
Title:Everyday Level Up!!
TitleUnicode:Everyday Level Up!!
Artist:Maya Jouga
ArtistUnicode:条河麻耶
Creator:ts8zs
Version:Ts8zStyle
Source:
Tags:
BeatmapID:1762696
BeatmapSetID:842136

[Difficulty]
HPDrainRate:6
CircleSize:4
OverallDifficulty:7
ApproachRate:9
SliderMultiplier:2.4
SliderTickRate:1

[Events]
//Background and Video events
0,0,"yande.re 356753 bandaid gochuumon_wa_usagi_desu_ka_ jouga_maya koi seifuku.jpg",0,0
//Break Periods
//Storyboard Layer 0 (Background)
//Storyboard Layer 1 (Fail)
//Storyboard Layer 2 (Pass)
//Storyboard Layer 3 (Foreground)
//Storyboard Sound Samples

[TimingPoints]
541,428.571428571429,4,1,0,100,1,0
51969,-100,4,1,0,100,0,1
78541,-100,4,1,0,100,0,0
127398,-100,4,1,0,100,0,1
153969,-100,4,1,0,100,0,0
168541,-100,4,1,0,100,0,1
201969,-100,4,1,0,100,0,0

[HitObjects]
48,96,541,6,0,P|112:64|192:80,1,120
304,112,969,1,0,0:0:0:0:
144,240,1183,1,0,0:0:0:0:
48,96,1398,6,0,P|112:64|192:80,1,120
304,112,1826,1,0,0:0:0:0:
144,240,2040,1,0,0:0:0:0:
336,320,2255,5,0,0:0:0:0:
416,128,2469,1,0,0:0:0:0:
368,48,2683,1,0,0:0:0:0:
288,240,2898,1,0,0:0:0:0:
144,80,3112,2,0,P|112:144|128:224,1,120
160,288,3433,1,0,0:0:0:0:
160,288,3541,1,0,0:0:0:0:
256,160,3755,1,0,0:0:0:0:
320,304,3969,6,0,P|384:272|416:208,1,120
400,80,4397,1,0,0:0:0:0:
256,160,4611,1,0,0:0:0:0:
320,304,4826,1,0,0:0:0:0:
400,80,5041,1,0,0:0:0:0:
256,160,5255,1,0,0:0:0:0:
320,304,5469,1,0,0:0:0:0:
400,208,5683,6,0,B|208:176|208:176|160:192,1,240
80,240,6112,6,0,B|272:272|272:272|320:304,1,240
384,352,6541,1,0,0:0:0:0:
464,288,6755,1,0,0:0:0:0:
473,302,6862,1,0,0:0:0:0:
486,320,6969,1,0,0:0:0:0:
176,192,7398,6,0,P|192:128|176:48,2,120
42,145,8041,1,0,0:0:0:0:
96,288,8255,2,0,P|168:318|238:292,1,120
416,96,8683,2,0,P|344:66|274:92,1,120
208,144,9112,5,0,0:0:0:0:
464,240,9326,1,0,0:0:0:0:
336,288,9541,2,0,P|350:170|345:151,1,120
96,64,9969,2,0,P|82:182|87:201,1,120
160,288,10398,2,0,P|105:311|46:306,1,120
224,176,10826,6,0,P|256:112|304:80,2,120
288,304,11469,1,0,0:0:0:0:
416,224,11683,1,0,0:0:0:0:
224,64,11898,1,0,0:0:0:0:
400,48,12112,1,0,0:0:0:0:
240,240,12326,1,0,0:0:0:0:
416,304,12541,6,0,P|417:224|395:168,1,120
160,192,12969,2,0,P|228:232|288:241,1,120
368,32,13398,2,0,P|298:71|260:118,1,120
32,132,13826,2,0,P|85:106|128:64,1,120
0,0,14255,5,0,0:0:0:0:
160,192,14469,1,0,0:0:0:0:
240,48,14683,2,0,P|304:64|384:48,1,120
496,16,15112,1,0,0:0:0:0:
368,176,15326,1,0,0:0:0:0:
496,128,15541,2,0,P|500:186|496:272,1,120
176,288,15969,6,0,P|176:224|224:128,1,120
384,48,16398,6,0,P|384:112|336:208,1,120
288,304,16826,1,0,0:0:0:0:
96,80,17041,1,0,0:0:0:0:
48,320,17255,2,0,P|94:356|153:367,1,120
144,240,17683,6,0,P|152:181|132:125,2,120
16,192,18326,1,0,0:0:0:0:
256,112,18540,2,0,P|331:98|398:108,1,120
192,32,18969,2,0,P|117:18|50:28,1,120
73,362,19398,6,0,P|133:365|192:352,1,120
384,272,19827,2,0,P|324:275|265:261,1,120
336,128,20255,1,0,0:0:0:0:
224,336,20469,1,0,0:0:0:0:
224,176,20683,1,0,0:0:0:0:
384,272,20898,1,0,0:0:0:0:
160,256,21112,6,0,P|128:208|128:112,2,120
352,368,21755,1,0,0:0:0:0:
432,160,21969,2,0,P|448:80|432:32,1,120
256,96,22398,2,0,P|240:176|256:224,1,120
352,336,22826,5,0,0:0:0:0:
384,208,23040,1,0,0:0:0:0:
192,320,23255,2,0,P|132:322|74:305,1,120
256,96,23683,2,0,P|315:93|373:110,1,120
128,240,24112,2,0,L|242:203,1,120
236,36,24541,6,0,B|192:112|192:112|240:176|192:272,1,240
80,192,24755,1,0,0:0:0:0:
176,384,25183,1,0,0:0:0:0:
0,288,25397,1,0,0:0:0:0:
224,288,25612,1,0,0:0:0:0:
336,288,25826,1,0,0:0:0:0:
112,288,26040,1,0,0:0:0:0:
48,192,26255,6,0,P|32:134|36:74,1,120
176,128,26683,2,0,P|233:143|283:176,1,120
160,288,27112,2,0,P|117:330|64:356,1,120
176,128,27541,1,0,0:0:0:0:
48,192,27755,1,0,0:0:0:0:
304,224,27969,5,0,0:0:0:0:
160,288,28183,1,0,0:0:0:0:
320,96,28398,1,0,0:0:0:0:
288,352,28612,1,0,0:0:0:0:
80,144,28826,2,0,P|139:138|197:154,1,120
432,304,29255,1,0,0:0:0:0:
192,288,29469,1,0,0:0:0:0:
304,96,29683,6,0,B|328:144|328:144|344:80,1,120
304,240,30112,2,0,B|250:236|250:236|297:282,1,120
160,176,30541,2,0,B|189:130|189:130|126:149,1,120
48,288,30969,2,0,P|144:336|208:320,1,120
160,176,31397,6,0,B|176:80|176:80|160:64,1,120
288,176,31826,2,0,B|363:237|363:237|384:231,1,120
240,272,32255,2,0,B|148:306|148:306|143:328,1,120
336,320,32683,1,0,0:0:0:0:
336,320,32898,1,0,0:0:0:0:
137,227,33112,6,0,B|112:192|112:192|144:160|144:112,1,120
0,96,33541,1,0,0:0:0:0:
0,96,33755,1,0,0:0:0:0:
48,288,33969,1,0,0:0:0:0:
224,192,34183,1,0,0:0:0:0:
224,192,34291,1,0,0:0:0:0:
224,192,34398,2,0,B|256:224|256:224|240:272|240:320,1,120
320,144,34826,6,0,B|384:144|432:112|432:112|384:144|384:144|400:224,1,240
352,16,35041,1,0,0:0:0:0:
432,320,35469,1,0,0:0:0:0:
180,313,35683,2,0,B|128:336|128:336|85:290,1,120
32,80,36112,2,0,B|84:57|84:57|127:103,1,120
272,176,36541,6,0,B|304:144|304:96|304:96|336:160|336:160|336:112|368:80,1,240
432,160,36756,1,0,0:0:0:0:
208,112,37183,1,0,0:0:0:0:
400,256,37397,2,0,P|414:374|409:393,1,120
272,336,37826,1,0,0:0:0:0:
144,384,38041,1,0,0:0:0:0:
240,240,38255,2,0,P|256:128|224:80,2,120
144,384,38897,1,0,0:0:0:0:
96,176,39111,1,0,0:0:0:0:
144,384,39326,1,0,0:0:0:0:
304,240,39540,1,0,0:0:0:0:
96,176,39754,1,0,0:0:0:0:
304,240,39969,6,0,P|384:241|440:219,1,120
224,128,40397,2,0,P|183:196|174:256,1,120
368,112,40825,2,0,P|328:42|281:4,1,120
304,224,41255,5,0,0:0:0:0:
304,224,41362,1,0,0:0:0:0:
304,224,41469,1,0,0:0:0:0:
304,224,41576,1,0,0:0:0:0:
304,224,41683,1,0,0:0:0:0:
400,352,41897,1,0,0:0:0:0:
160,272,42111,2,0,P|100:266|42:282,1,120
224,112,42541,2,0,P|283:117|341:101,1,120
464,32,42969,1,0,0:0:0:0:
400,224,43183,1,0,0:0:0:0:
224,80,43398,6,0,L|96:304,1,240
104,288,43826,2,0,L|376:288,1,240
344,288,44255,2,0,L|232:80,1,180
128,208,44683,2,0,P|224:256|288:240,1,120
224,96,45005,5,0,0:0:0:0:
224,96,45112,2,0,L|170:330,1,240
196,312,45754,2,0,P|137:317|85:290,1,120
0,192,46182,1,0,0:0:0:0:
32,384,46398,1,0,0:0:0:0:
160,224,46612,1,0,0:0:0:0:
288,80,46826,6,0,P|344:61|403:70,1,120
416,304,47255,2,0,P|359:322|300:313,1,120
464,128,47683,2,0,P|482:184|473:243,1,120
240,256,48112,2,0,P|221:199|230:140,1,120
352,192,48541,1,0,0:0:0:0:
0,224,51112,5,0,0:0:0:0:
256,192,51326,1,0,0:0:0:0:
512,160,51541,1,0,0:0:0:0:
176,144,51969,6,0,L|112:320,1,180
96,288,52398,2,0,P|160:320|224:304,1,120
336,240,52826,6,0,L|400:64,1,180
415,95,53255,2,0,P|365:66|306:70,1,120
160,272,53683,6,0,P|275:294|381:242,1,240
255,192,53898,1,0,0:0:0:0:
380,243,54112,2,0,P|341:131|243:65,1,240
255,192,54326,1,0,0:0:0:0:
242,66,54541,2,0,P|166:155|158:273,1,240
256,191,54755,1,0,0:0:0:0:
256,191,55183,1,0,0:0:0:0:
397,70,55398,6,0,L|336:240,1,180
416,96,55827,2,0,P|352:64|288:80,1,120
114,313,56255,6,0,L|176:144,1,180
96,288,56684,2,0,P|160:320|224:304,1,120
352,272,57112,6,0,P|236:294|130:242,1,240
257,192,57327,1,0,0:0:0:0:
132,243,57541,2,0,P|170:131|268:65,1,240
257,192,57755,1,0,0:0:0:0:
269,66,57970,2,0,P|345:155|353:273,1,240
257,192,58184,1,0,0:0:0:0:
257,192,58612,1,0,0:0:0:0:
320,304,58826,2,0,P|235:324|165:271,1,180
144,240,59255,2,0,L|144:384,1,120
208,160,59683,2,0,P|122:140|53:194,1,180
256,192,60112,2,0,L|256:72,1,120
64,320,60541,6,0,P|160:352|224:320,1,120
320,320,60862,1,0,0:0:0:0:
320,320,60969,2,0,L|448:336,1,120
288,144,61398,2,0,L|168:129,1,120
384,80,61826,2,0,P|400:160|368:224,1,120
256,304,62255,6,0,L|416:272,1,120
96,288,62683,1,0,0:0:0:0:
128,368,62898,1,0,0:0:0:0:
192,144,63112,1,0,0:0:0:0:
224,224,63327,1,0,0:0:0:0:
32,128,63541,1,0,0:0:0:0:
64,208,63756,1,0,0:0:0:0:
256,304,63969,1,0,0:0:0:0:
256,192,64076,12,0,65255,0:0:0:0:
96,80,65683,6,0,L|32:256,1,180
16,240,66112,2,0,P|80:272|144:256,1,120
304,240,66540,2,0,L|240:64,1,180
224,80,66969,2,0,P|288:48|352:64,1,120
352,272,67398,2,0,B|288:304|288:304|128:240,1,240
255,192,67613,1,0,0:0:0:0:
131,241,67826,2,0,B|135:169|135:169|270:63,1,240
255,192,68041,1,0,0:0:0:0:
267,65,68255,2,0,B|326:104|326:104|351:274,1,240
256,191,68470,1,0,0:0:0:0:
256,191,68898,1,0,0:0:0:0:
477,256,69112,6,0,L|304:304,1,180
320,272,69540,2,0,L|436:301,1,120
34,256,69969,6,0,L|208:304,1,180
192,272,70397,2,0,L|75:301,1,120
129,179,70826,2,0,B|169:120|169:120|336:96,1,240
257,192,71041,1,0,0:0:0:0:
335,95,71255,2,0,B|367:159|367:159|305:316,1,240
257,192,71469,1,0,0:0:0:0:
305,316,71683,2,0,B|234:312|234:312|130:180,1,240
256,193,71898,1,0,0:0:0:0:
256,193,72326,1,0,0:0:0:0:
464,304,72540,6,0,P|368:320|304:256,1,180
272,240,72969,2,0,L|288:368,1,120
336,144,73397,2,0,P|250:124|181:178,1,180
368,160,73826,2,0,L|352:32,1,120
320,272,74255,2,0,P|406:292|475:238,1,180
272,240,74683,2,0,P|272:304|256:368,1,120
224,96,75112,2,0,P|288:96|352:112,1,120
96,144,75541,2,0,P|96:80|112:16,1,120
192,272,75969,6,0,P|104:289|16:271,1,180
224,160,76397,1,0,0:0:0:0:
304,272,76612,1,0,0:0:0:0:
432,208,76826,2,0,P|444:266|427:322,1,120
288,368,77255,1,0,0:0:0:0:
256,128,77470,1,0,0:0:0:0:
160,272,77683,6,0,B|224:304|272:272|272:272|336:288|384:240,1,240
383,240,78112,2,0,B|319:208|272:240|272:240|207:224|159:272,1,240
159,271,78541,1,0,0:0:0:0:
464,96,79398,5,0,0:0:0:0:
448,224,79612,1,0,0:0:0:0:
448,224,79719,1,0,0:0:0:0:
448,224,79826,2,0,P|384:256|256:128,1,240
258,170,80255,5,0,0:0:0:0:
240,288,80469,1,0,0:0:0:0:
240,288,80576,1,0,0:0:0:0:
240,288,80683,2,0,P|176:320|48:192,1,240
50,234,81112,5,0,0:0:0:0:
144,96,81326,1,0,0:0:0:0:
144,96,81433,1,0,0:0:0:0:
144,96,81541,2,0,L|160:224,1,120
192,384,81969,1,0,0:0:0:0:
256,192,82076,12,0,82826,0:0:0:0:
