osu file format v14

[General]
AudioFilename: audio.mp3
AudioLeadIn: 0
PreviewTime:51255
Countdown: 0
SampleSet: Normal
StackLeniency: 0.4
Mode: 0
LetterboxInBreaks: 0
WidescreenStoryboard: 1

[Editor]
DistanceSpacing: 0.6
BeatDivisor: 4
GridSize: 4
TimelineZoom: 3.300004

[Metadata]
Title:Little * Treasure * Hunt
TitleUnicode:リトル*トレジャー*ハント
Artist:Maya (CV: Tokui Sora), Megu (CV: Murakawa Rie)
ArtistUnicode:マヤ (CV: 德井青空), メグ (CV: 村川梨衣)
Creator:Kyuuchie
Version:LeCandy's Insane
Source:ご注文はうさぎですか??
Tags:gochiusa ごちうさ gochuumon wa usagi desu ka?? is the order a rabbit?? rabbit house Chimame march tai チマメ隊 Jouga Maya 條河 麻耶 Natsu Megumi 奈津 惠 Character Song album japanese anime Amateurre Tsukinyuni xidorn LeCandy projectrabbithouse
BeatmapID:2877331
BeatmapSetID:1387077

[Difficulty]
HPDrainRate:4.8
CircleSize:4
OverallDifficulty:8
ApproachRate:9
SliderMultiplier:1.56
SliderTickRate:1

[Events]
//Background and Video events
0,0,"gochiusa mayamegu.png",0,0
//Break Periods
2,153885,156802
//Storyboard Layer 0 (Background)
//Storyboard Layer 1 (Fail)
//Storyboard Layer 2 (Pass)
//Storyboard Layer 3 (Foreground)
//Storyboard Layer 4 (Overlay)
//Storyboard Sound Samples

[TimingPoints]
433,303.030303030303,4,2,1,45,1,0
1342,-151.515151515152,4,2,1,45,0,0
12252,-151.515151515152,4,2,1,40,0,0
12554,-151.515151515152,4,2,2,55,0,0
17099,-151.515151515152,4,1,1,75,0,0
17402,-83.3333333333333,4,2,1,65,0,0
22251,-100,4,2,1,60,0,0
41645,-100,4,2,1,50,0,0
48614,-100,4,2,1,65,0,0
48917,-100,4,2,1,70,0,0
51039,-100,4,1,1,75,0,0
51342,-83.3333333333333,4,2,1,65,0,0
59675,-83.3333333333333,4,2,1,70,0,0
59978,-83.3333333333333,4,2,1,75,0,0
60130,-83.3333333333333,4,2,1,70,0,0
60584,-83.3333333333333,4,2,1,60,0,0
61039,-83.3333333333333,4,2,1,65,0,0
68311,-83.3333333333333,4,2,1,70,0,0
68614,-83.3333333333333,4,2,1,75,0,0
68917,-83.3333333333333,4,2,1,80,0,0
69220,-83.3333333333333,4,2,1,70,0,0
70129,-83.3333333333333,4,2,1,55,0,0
70433,-83.3333333333333,4,2,1,70,0,0
70736,-83.3333333333333,4,2,1,65,0,0
78008,-100,4,2,1,70,0,0
78615,-100,4,2,1,55,0,0
79069,-100,4,2,1,60,0,0
97402,-100,4,2,1,50,0,0
104372,-100,4,2,1,65,0,0
104675,-100,4,2,1,70,0,0
106796,-100,4,1,1,75,0,0
107099,-83.3333333333333,4,2,1,65,0,0
115433,-83.3333333333333,4,2,1,70,0,0
115736,-83.3333333333333,4,2,1,75,0,0
115888,-83.3333333333333,4,2,1,70,0,0
116342,-83.3333333333333,4,2,1,60,0,0
116796,-83.3333333333333,4,2,1,65,0,0
124069,-83.3333333333333,4,2,1,70,0,0
124372,-83.3333333333333,4,2,1,75,0,0
124675,-83.3333333333333,4,2,1,80,0,0
124978,-83.3333333333333,4,2,1,70,0,0
125887,-83.3333333333333,4,2,1,55,0,0
126190,-83.3333333333333,4,2,1,70,0,0
126493,-83.3333333333333,4,2,1,65,0,0
133766,-83.3333333333333,4,2,1,60,0,0
136190,-83.3333333333333,4,2,1,70,0,0
139675,-83.3333333333333,4,2,1,55,0,0
140433,-83.3333333333333,4,2,1,65,0,0
141039,-83.3333333333333,4,2,1,60,0,0
150736,-221.563530800613,4,2,1,65,0,0
153160,-250,4,2,1,50,0,0
157402,-121.951219512195,4,2,1,50,0,0
158008,-121.951219512195,4,2,2,55,0,0
158386,-121.951219512195,4,2,2,55,0,0
161493,-100,4,2,1,55,0,0
162857,-312.5,4,2,1,55,0,0
163160,-83.3333333333333,4,2,1,65,0,0
171190,-83.3333333333333,4,2,1,70,0,0
171493,-83.3333333333333,4,2,1,75,0,0
171646,-83.3333333333333,4,2,1,70,0,0
172099,-83.3333333333333,4,2,1,60,0,0
172554,-83.3333333333333,4,2,1,65,0,0
179826,-83.3333333333333,4,2,1,70,0,0
180129,-83.3333333333333,4,2,1,75,0,0
180433,-83.3333333333333,4,2,1,80,0,0
180736,-83.3333333333333,4,2,1,70,0,0
181645,-83.3333333333333,4,2,1,55,0,0
181948,-83.3333333333333,4,2,1,70,0,0
182251,-83.3333333333333,4,2,1,65,0,0
199523,-83.3333333333333,4,2,1,60,0,0
200129,-139.200294054325,4,2,1,70,0,0
202705,-161.290322580645,4,2,1,60,0,0
202856,-161.290322580645,4,2,1,70,0,0

[Colours]
Combo1 : 186,117,255
Combo2 : 45,150,255
Combo3 : 245,112,115
Combo4 : 255,255,174

[HitObjects]
0,35,1039,5,2,0:0:0:0:
0,35,1190,1,0,0:0:0:0:
0,35,1342,2,0,P|0:63|7:88,1,51.4799999999998,2|0,0:0|0:0,0:0:0:0:
93,168,1645,6,0,P|38:187|36:246,1,102.96,2|0,0:0|0:0,0:0:0:0:
147,305,2251,1,2,0:0:0:0:
147,305,2402,1,0,0:0:0:0:
147,305,2554,2,0,P|117:306|91:309,1,51.4799999999998,2|0,0:0|0:0,0:0:0:0:
164,224,2857,6,0,P|223:219|286:213,1,102.96,2|0,0:0|0:0,0:0:0:0:
427,265,3463,1,2,0:0:0:0:
427,265,3615,1,0,0:0:0:0:
427,265,3766,2,0,P|444:243|427:201,1,51.4799999999998,2|0,0:0|0:0,0:0:0:0:
341,158,4069,6,0,B|385:202|353:268|330:240|288:310|334:356,2,205.919999371582,2|2|2,0:0|0:0|0:0,0:0:0:0:
171,6,5887,2,0,P|178:33|184:69,1,51.4799999999998,2|0,0:0|0:0,0:0:0:0:
121,130,6190,5,2,0:0:0:0:
121,130,6342,1,2,0:0:0:0:
120,129,6493,2,0,P|151:167|199:155,1,102.959999685791,2|0,0:0|0:0,0:0:0:0:
264,78,6948,2,0,P|310:59|351:86,1,102.959999685791,2|0,0:0|0:0,0:0:0:0:
293,173,7402,5,2,0:0:0:0:
293,173,7554,1,0,0:0:0:0:
293,172,7705,2,0,P|301:223|305:275,1,102.959999685791,2|0,0:0|0:0,0:0:0:0:
406,246,8160,2,0,P|395:296|388:347,1,102.959999685791,2|0,0:0|0:0,0:0:0:0:
233,344,8615,5,2,0:0:0:0:
233,344,8766,1,0,0:0:0:0:
233,344,8918,2,0,P|116:358|12:384,2,205.919999371582,2|2|2,0:0|0:0|0:0,0:0:0:0:
75,283,10736,2,0,P|61:261|77:218,1,51.4799999999998,2|0,0:0|0:0,0:0:0:0:
163,267,11039,2,0,P|168:239|153:214,1,51.4799999999998
96,150,11342,1,2,0:0:0:0:
256,192,11493,12,2,12554,0:0:0:0:
91,18,16796,5,0,1:0:0:0:
91,18,16872,1,0,1:0:0:0:
91,18,16948,1,0,1:0:0:0:
0,145,17099,1,4,0:0:0:0:
14,59,17251,1,0,0:0:0:0:
68,202,17402,6,0,P|81:253|87:308,1,93.6000000000001,6|0,0:0|0:0,0:0:0:0:
160,162,17706,2,0,P|165:214|178:265,1,93.6000000000001,10|0,0:0|0:0,0:0:0:0:
258,346,18009,2,0,B|220:304|262:248|292:284|340:219|278:160,1,187.19999428711,0|8,1:0|0:0,0:0:0:0:
414,13,18463,2,0,P|356:47|348:114,1,140.4,4|0,1:2|0:0,0:0:0:0:
381,150,18766,5,0,1:0:0:0:
243,208,18918,2,0,P|295:215|346:227,1,93.6000000000001,12|0,0:0|0:0,0:0:0:0:
469,292,19221,2,0,P|416:299|365:311,1,93.6000000000001,0|0,1:0|1:0,0:0:0:0:
249,197,19524,1,8,0:0:0:0:
389,220,19675,1,0,1:0:0:0:
298,373,19827,6,0,P|266:334|273:283,1,93.6000000000001,6|0,1:2|0:0,0:0:0:0:
395,210,20130,2,0,P|402:159|370:119,1,93.6000000000001,8|0,0:0|0:0,0:0:0:0:
233,208,20433,2,0,P|143:218|40:242,1,187.19999428711,0|8,1:0|0:0,0:0:0:0:
29,82,20887,2,0,P|-8:116|0:167,1,93.6000000000001,4|0,1:2|0:0,0:0:0:0:
67,247,21190,1,0,1:0:0:0:
200,131,21342,2,0,P|207:181|170:216,1,93.6000000000001,12|0,0:0|0:0,0:0:0:0:
56,278,21645,5,0,1:0:0:0:
56,278,21721,1,0,1:0:0:0:
56,278,21796,1,0,1:0:0:0:
106,106,21948,2,0,B|108:71|144:69|144:69|118:91|120:115,1,93.6000000000001,8|0,0:0|1:0,0:0:0:0:
4,189,22251,6,0,B|38:158|81:178|63:201|109:221|156:184,1,156,2|10,1:2|0:0,0:0:0:0:
293,252,22705,1,0,0:0:0:0:
293,252,22857,2,0,P|249:257|207:269,1,78,2|2,1:2|1:2,0:0:0:0:
239,176,23160,1,8,0:0:0:0:
358,312,23312,6,0,P|385:278|380:236,1,78,2|0,1:2|0:0,0:0:0:0:
320,171,23615,2,0,P|315:128|342:95,1,78,2|10,1:2|0:0,0:0:0:0:
512,98,23918,2,0,P|468:104|425:114,1,78,2|0,1:2|0:0,0:0:0:0:
319,4,24221,1,2,1:2:0:0:
319,4,24372,2,0,P|362:10|405:20,1,78,8|0,0:0|0:0,0:0:0:0:
278,202,24675,6,0,P|226:152|256:85,1,156,2|10,1:2|0:0,0:0:0:0:
366,171,25130,1,0,0:0:0:0:
366,171,25281,2,0,P|357:224|354:273,1,78,2|2,1:2|1:2,0:0:0:0:
447,224,25584,1,8,0:0:0:0:
263,296,25736,6,0,P|198:281|132:276,1,117,2|0,1:2|0:0,0:0:0:0:
121,274,26039,2,0,P|91:243|99:201,1,78,2|8,1:2|0:0,0:0:0:0:
106,90,26342,1,2,1:2:0:0:
106,90,26493,2,0,P|113:133|115:177,1,78,0|2,0:0|1:2,0:0:0:0:
243,214,26796,2,0,P|235:170|233:126,1,78,10|10,0:0|0:0,0:0:0:0:
96,13,27099,6,0,P|20:48|27:123,1,156,2|10,1:2|0:0,0:0:0:0:
85,244,27554,1,0,0:0:0:0:
85,244,27705,2,0,P|90:200|102:158,1,78,2|2,1:2|1:2,0:0:0:0:
148,81,28009,1,10,0:0:0:0:
177,228,28160,6,0,P|222:207|226:158,1,78,2|0,1:2|0:0,0:0:0:0:
144,73,28463,2,0,P|157:32|197:17,1,78,2|10,1:2|0:0,0:0:0:0:
306,106,28766,2,0,P|262:98|218:94,1,78,2|0,1:2|1:0,0:0:0:0:
63,148,29069,1,2,1:2:0:0:
63,148,29221,2,0,P|106:151|150:159,1,78,8|0,0:0|0:0,0:0:0:0:
274,21,29524,5,2,1:2:0:0:
324,255,29827,1,10,1:2:0:0:
452,34,30130,2,0,P|408:37|364:45,1,78,2|0,1:2|0:0,0:0:0:0:
294,111,30433,1,10,0:0:0:0:
395,280,30584,6,0,P|445:241|443:178,1,117,2|0,1:2|0:0,0:0:0:0:
437,168,30887,2,0,P|393:171|349:179,1,78,2|10,1:2|0:0,0:0:0:0:
437,83,31190,5,2,1:2:0:0:
294,111,31342,2,0,P|259:144|264:196,1,78,8|0,0:0|1:0,0:0:0:0:
378,299,31645,1,8,0:0:0:0:
342,178,31796,1,0,1:0:0:0:
235,347,31948,6,0,B|204:315|151:355|174:373|134:407|78:374,1,156,2|10,1:2|0:0,0:0:0:0:
0,255,32402,1,0,0:0:0:0:
0,255,32554,2,0,P|17:297|24:349,1,78,2|2,1:2|1:2,0:0:0:0:
99,264,32857,1,8,0:0:0:0:
13,136,33009,6,0,P|54:126|99:168,1,78,2|0,1:2|0:0,0:0:0:0:
106,270,33312,2,0,P|147:279|183:256,1,78,2|10,1:2|0:0,0:0:0:0:
187,91,33615,2,0,P|174:133|166:177,1,78,2|0,1:2|0:0,0:0:0:0:
275,270,33918,1,2,1:2:0:0:
275,270,34069,2,0,P|288:228|296:184,1,78,8|0,0:0|0:0,0:0:0:0:
487,116,34372,6,0,P|462:189|449:266,1,156,2|10,1:2|0:0,0:0:0:0:
373,384,34827,1,0,0:0:0:0:
373,384,34978,2,0,P|332:347|346:307,1,78,2|2,1:2|1:2,0:0:0:0:
448,284,35281,1,8,0:0:0:0:
289,233,35433,6,0,P|353:217|418:210,1,117,2|0,1:2|0:0,0:0:0:0:
426,200,35736,2,0,P|425:157|389:135,1,78,2|8,1:2|0:0,0:0:0:0:
272,130,36039,2,0,P|241:100|249:59,1,78,2|0,1:2|0:0,0:0:0:0:
330,5,36342,1,2,1:2:0:0:
352,168,36493,2,0,P|360:124|371:82,1,78,10|10,0:0|0:0,0:0:0:0:
164,7,36796,6,0,B|127:-7|89:37|114:47|90:90|46:83,1,156,2|10,1:2|0:0,0:0:0:0:
0,195,37251,1,0,0:0:0:0:
0,195,37402,2,0,P|44:185|95:179,1,78,2|2,1:2|1:2,0:0:0:0:
155,121,37706,1,10,0:0:0:0:
165,284,37857,6,0,P|191:249|187:206,1,78,2|0,1:2|0:0,0:0:0:0:
64,146,38160,2,0,P|60:103|86:68,1,78,2|10,1:2|0:0,0:0:0:0:
212,0,38463,2,0,P|206:43|196:86,1,78,2|0,1:2|0:0,0:0:0:0:
260,155,38766,1,2,1:2:0:0:
368,43,38918,2,0,P|358:85|352:129,1,78,8|8,0:0|0:0,0:0:0:0:
418,259,39221,5,2,1:2:0:0:
284,49,39524,1,10,1:2:0:0:
223,287,39827,2,0,P|232:244|238:200,1,78,2|0,1:2|0:0,0:0:0:0:
181,127,40130,1,10,0:0:0:0:
149,316,40281,6,0,P|180:364|235:363,1,78,6|0,1:2|0:0,0:0:0:0:
358,248,40584,1,2,1:2:0:0:
237,282,40736,1,8,0:0:0:0:
429,323,40887,2,0,P|441:245|456:169,1,156,6|8,1:2|1:3,0:0:0:0:
417,88,41342,1,8,0:0:0:0:
496,41,41493,1,4,1:3:0:0:
324,132,41645,6,0,P|334:90|312:53,1,78,6|0,1:2|0:0,0:0:0:0:
164,150,41948,1,10,1:2:0:0:
164,150,42251,2,0,P|142:111|161:62,2,78,0|0|10,1:0|1:0|1:2,0:0:0:0:
252,205,42857,2,0,P|258:248|259:292,2,78,0|0|10,1:0|1:0|1:2,0:0:0:0:
91,224,43463,2,0,P|92:268|99:312,1,78,0|0,1:0|1:0,0:0:0:0:
185,357,43766,1,10,1:2:0:0:
185,357,43918,1,0,1:0:0:0:
287,239,44069,6,0,P|327:240|384:255,1,78,2|0,1:2|0:0,0:0:0:0:
497,180,44372,1,10,1:2:0:0:
497,180,44675,2,0,P|457:179|400:164,2,78,0|0|10,1:0|1:0|1:2,0:0:0:0:
447,264,45130,1,0,0:0:0:0:
447,264,45281,2,0,P|453:307|432:345,2,78,0|0|10,1:0|1:0|1:2,0:0:0:0:
349,202,45736,5,0,0:0:0:0:
349,202,45887,2,0,P|343:159|364:121,1,78,0|0,1:0|1:0,0:0:0:0:
425,40,46190,1,10,1:2:0:0:
318,30,46342,1,0,1:0:0:0:
318,30,46493,6,0,P|278:41|216:47,1,78,2|0,1:2|0:0,0:0:0:0:
77,4,46796,1,10,1:2:0:0:
77,4,47099,2,0,P|34:15|-9:20,2,78,0|0|10,1:0|1:0|1:2,0:0:0:0:
139,149,47705,5,0,1:0:0:0:
139,149,47857,1,0,1:0:0:0:
139,149,48009,2,0,P|119:209|201:258,1,117,10|0,1:2|0:0,0:0:0:0:
281,205,48312,1,8,1:3:0:0:
281,205,48387,1,8,1:3:0:0:
281,205,48463,1,8,1:3:0:0:
281,205,48539,1,8,1:3:0:0:
281,205,48615,2,0,P|321:253|301:312,1,117,8|0,0:0|0:0,0:0:0:0:
79,357,48918,6,0,P|135:344|222:336,1,117,14|0,0:0|0:0,0:0:0:0:
239,354,49221,2,0,P|265:327|262:267,1,78,14|0,0:0|0:0,0:0:0:0:
215,30,49524,6,0,P|157:38|70:39,1,117,14|0,0:0|0:0,0:0:0:0:
54,21,49827,2,0,P|25:45|24:105,1,78,14|0,0:0|0:0,0:0:0:0:
142,210,50130,6,0,P|163:207|185:202,1,39,10|0,0:0|0:0,0:0:0:0:
298,98,50281,2,0,P|234:114|168:123,1,117,10|0,0:0|0:0,0:0:0:0:
200,283,50584,2,0,P|263:266|329:257,1,117,14|0,0:0|0:0,0:0:0:0:
372,166,50887,2,0,P|350:170|328:173,1,39,2|2,1:2|1:2,0:0:0:0:
194,199,51039,1,4,0:0:0:0:
444,66,51342,6,0,B|406:107|445:153|461:141|507:183|475:234,1,187.19999428711,6|10,0:0|0:0,0:0:0:0:
410,300,51796,1,0,0:0:0:0:
290,196,51948,2,0,P|342:201|394:210,1,93.6000000000001,2|0,1:2|1:0,0:0:0:0:
246,314,52251,1,10,0:0:0:0:
403,340,52402,2,0,P|325:324|246:314,1,140.4,2|0,1:2|0:0,0:0:0:0:
224,321,52705,5,2,1:2:0:0:
77,242,52857,1,10,0:0:0:0:
205,349,53009,1,2,1:2:0:0:
152,164,53160,2,0,P|161:210|169:299,1,93.6000000000001,2|0,1:2|1:0,0:0:0:0:
317,307,53463,2,0,P|308:261|300:172,1,93.6000000000001,10|0,0:0|0:0,0:0:0:0:
175,31,53766,6,0,P|73:29|57:112,1,187.19999428711,2|10,1:2|0:0,0:0:0:0:
81,180,54221,1,0,0:0:0:0:
225,120,54372,2,0,P|173:109|121:101,1,93.6000000000001,2|0,1:2|1:0,0:0:0:0:
186,26,54675,1,10,0:0:0:0:
298,223,54827,2,0,P|310:144|327:67,1,140.4,2|0,1:2|0:0,0:0:0:0:
341,40,55130,5,2,1:2:0:0:
379,180,55281,1,10,0:0:0:0:
248,97,55433,1,2,1:2:0:0:
418,7,55584,2,0,P|471:2|490:55,1,93.6000000000001,0|10,1:0|0:0,0:0:0:0:
315,179,55887,2,0,B|290:203|262:181|262:181|296:182|311:162,1,93.6000000000001,0|10,1:0|0:0,0:0:0:0:
471,115,56190,6,0,P|377:118|284:129,1,187.19999428711,6|10,0:0|0:0,0:0:0:0:
225,189,56645,1,0,0:0:0:0:
180,0,56796,2,0,P|191:36|206:111,1,93.6000000000001,2|0,1:2|1:0,0:0:0:0:
221,197,57099,1,10,0:0:0:0:
53,334,57251,2,0,P|49:258|115:223,1,140.4,2|0,1:2|0:0,0:0:0:0:
141,233,57554,1,2,1:2:0:0:
342,365,57705,6,0,P|289:372|237:381,1,93.6000000000001,10|0,0:0|1:0,0:0:0:0:
130,310,58009,2,0,P|192:299|263:290,1,93.6000000000001,2|8,1:2|0:0,0:0:0:0:
393,197,58312,2,0,P|340:204|288:213,1,93.6000000000001,10|0,0:0|0:0,0:0:0:0:
95,118,58615,6,0,B|135:72|204:110|172:122|226:159|272:122,1,187.19999428711,2|10,1:2|0:0,0:0:0:0:
137,183,59069,1,0,0:0:0:0:
87,26,59221,1,2,1:2:0:0:
15,168,59372,2,0,P|20:218|24:275,1,93.6000000000001,2|10,1:2|0:0,0:0:0:0:
213,65,59675,6,0,P|223:142|227:224,1,140.4,6|0,1:2|0:0,0:0:0:0:
386,279,59978,2,0,P|376:202|372:120,1,140.4,4|0,1:0|0:0,0:0:0:0:
374,94,60281,1,4,1:2:0:0:
285,200,60433,1,10,0:0:0:0:
285,200,60509,1,0,1:0:0:0:
285,200,60584,1,8,1:3:0:0:
422,250,60736,2,0,B|451:232|437:199|437:199|429:232|406:241,1,93.6000000000001,8|4,1:3|1:3,0:0:0:0:
251,331,61039,6,0,B|294:287|340:326|328:342|370:388|423:343,1,187.19999428711,6|10,0:0|0:0,0:0:0:0:
512,372,61493,1,0,0:0:0:0:
494,184,61645,2,0,P|485:236|480:288,1,93.6000000000001,2|0,1:2|1:0,0:0:0:0:
324,333,61948,1,10,0:0:0:0:
348,177,62099,2,0,P|339:254|324:336,1,140.4,2|0,1:2|0:0,0:0:0:0:
302,348,62402,5,2,1:2:0:0:
422,241,62554,1,10,0:0:0:0:
384,384,62705,1,2,1:2:0:0:
258,273,62857,2,0,P|206:262|153:256,1,93.6000000000001,2|0,1:2|1:2,0:0:0:0:
18,336,63160,2,0,P|70:336|123:341,1,93.6000000000001,10|0,0:0|0:0,0:0:0:0:
30,87,63463,6,0,P|41:165|50:244,1,140.4,2|0,1:2|0:0,0:0:0:0:
75,262,63766,2,0,P|122:248|124:198,1,93.6000000000001,10|0,0:0|0:0,0:0:0:0:
257,0,64069,2,0,P|268:78|277:157,1,140.4,2|0,1:2|0:0,0:0:0:0:
270,192,64372,1,10,0:0:0:0:
357,73,64524,1,2,1:2:0:0:
153,192,64675,6,0,P|144:142|174:101,1,93.6000000000001,0|2,0:0|1:2,0:0:0:0:
356,62,64978,1,10,0:0:0:0:
241,166,65130,1,2,1:2:0:0:
422,127,65281,2,0,P|452:85|442:35,1,93.6000000000001,0|10,1:0|0:0,0:0:0:0:
305,227,65584,2,0,B|288:253|301:278|301:278|304:249|345:216,1,93.6000000000001,0|10,1:0|0:0,0:0:0:0:
497,177,65887,6,0,P|407:161|302:151,1,187.19999428711,6|10,0:0|0:0,0:0:0:0:
144,198,66342,1,0,0:0:0:0:
294,231,66493,1,2,1:2:0:0:
210,81,66645,2,0,P|139:106|144:178,1,140.399995715332,2|0,1:2|0:0,0:0:0:0:
213,271,66948,2,0,P|216:218|223:165,1,93.6000000000001,6|0,1:2|0:0,0:0:0:0:
290,97,67251,5,2,1:2:0:0:
403,176,67402,1,10,0:0:0:0:
512,44,67554,2,0,P|497:123|484:237,1,187.19999428711,6|2,1:2|1:2,0:0:0:0:
301,334,68009,2,0,P|303:282|310:229,1,93.6000000000001,10|0,0:0|0:0,0:0:0:0:
424,81,68312,5,6,1:2:0:0:
412,170,68463,1,0,1:0:0:0:
240,128,68615,1,4,1:0:0:0:
251,41,68766,1,0,1:0:0:0:
319,212,68918,2,0,P|328:155|334:106,1,93.6000000000001,6|0,1:2|1:0,0:0:0:0:
390,274,69221,5,10,0:0:0:0:
225,259,69372,2,0,P|173:280|167:335,1,93.6000000000001,6|0,1:2|0:0,0:0:0:0:
397,277,69675,2,0,P|439:306|445:361,1,93.6000000000001,10|0,0:0|0:0,0:0:0:0:
335,116,70130,6,0,P|341:63|349:11,1,93.6000000000001,2|2,0:0|0:0,0:0:0:0:
317,217,70433,1,4,1:0:0:0:
39,36,70736,6,0,B|67:-3|124:33|99:51|154:96|210:53,1,187.19999428711,6|10,0:0|0:0,0:0:0:0:
293,12,71190,1,0,0:0:0:0:
359,187,71342,2,0,P|373:138|340:99,1,93.6000000000001,2|0,1:2|1:0,0:0:0:0:
114,150,71645,1,10,0:0:0:0:
272,161,71796,2,0,P|192:153|113:151,1,140.4,2|0,1:2|0:0,0:0:0:0:
89,157,72099,5,2,1:2:0:0:
134,269,72251,1,10,0:0:0:0:
17,223,72402,1,2,1:2:0:0:
140,277,72554,2,0,P|131:329|125:381,1,93.6000000000001,2|0,1:2|1:0,0:0:0:0:
46,150,72857,2,0,P|54:97|60:45,1,93.6000000000001,10|0,0:0|0:0,0:0:0:0:
236,205,73160,6,0,P|313:202|329:89,1,187.19999428711,2|10,1:2|0:0,0:0:0:0:
280,24,73615,1,0,0:0:0:0:
149,107,73766,2,0,P|202:107|254:116,1,93.6000000000001,2|0,1:2|1:0,0:0:0:0:
326,244,74069,1,10,0:0:0:0:
353,89,74221,2,0,P|334:165|327:244,1,140.4,2|0,1:2|0:0,0:0:0:0:
344,263,74524,5,2,1:2:0:0:
417,384,74675,1,10,0:0:0:0:
444,245,74827,1,2,1:2:0:0:
405,377,74978,2,0,P|353:366|300:361,1,93.6000000000001,0|10,1:0|0:0,0:0:0:0:
106,333,75281,1,0,1:0:0:0:
165,229,75433,1,10,0:0:0:0:
26,273,75584,6,0,B|62:238|108:277|96:293|138:339|201:307,1,187.19999428711,6|10,0:0|0:0,0:0:0:0:
170,226,76039,1,0,0:0:0:0:
287,333,76190,2,0,P|292:280|298:228,1,93.6000000000001,2|0,1:2|1:0,0:0:0:0:
310,131,76493,1,10,0:0:0:0:
413,269,76645,2,0,P|442:224|418:164,1,93.6000000000001,0|0,1:2|0:0,0:0:0:0:
402,97,76948,1,2,1:2:0:0:
218,163,77099,2,0,P|206:112|234:70,1,93.6000000000001,8|0,1:2|1:0,0:0:0:0:
458,0,77402,6,0,P|405:5|352:9,1,93.6000000000001,2|0,0:0|1:0,0:0:0:0:
244,65,77630,1,0,1:0:0:0:
244,65,77706,2,0,P|269:69|295:76,1,46.8,10|0,0:0|0:0,0:0:0:0:
361,153,77857,2,0,P|335:157|309:164,1,46.8,0|0,1:0|0:0,0:0:0:0:
149,231,78009,6,0,B|128:269|157:305|174:292|202:339|170:372,2,156,4|0|0,0:0|0:0|1:0,0:0:0:0:
168,143,78766,1,8,1:3:0:0:
62,239,78918,1,4,1:3:0:0:
69,96,79069,6,0,P|78:53|84:9,1,78,2|0,1:2|0:0,0:0:0:0:
164,137,79372,2,0,P|170:93|179:50,1,78,2|10,1:2|0:0,0:0:0:0:
302,82,79675,2,0,P|311:124|317:168,1,78,2|0,1:2|0:0,0:0:0:0:
397,41,79978,1,0,1:2:0:0:
397,41,80130,2,0,P|403:84|412:127,1,78,8|0,0:0|1:0,0:0:0:0:
492,257,80433,6,0,P|425:240|338:232,1,156,2|10,1:2|0:0,0:0:0:0:
280,325,80887,1,0,0:0:0:0:
280,325,81039,2,0,P|253:291|259:249,1,78,2|2,1:2|1:2,0:0:0:0:
337,207,81342,1,10,0:0:0:0:
302,38,81493,6,0,P|282:115|250:203,1,117,2|0,1:2|0:0,0:0:0:0:
257,170,81796,2,0,P|205:173|189:229,1,78,2|8,1:2|0:0,0:0:0:0:
199,324,82099,1,2,1:2:0:0:
199,323,82251,2,0,P|201:279|208:235,1,78,0|2,1:0|1:2,0:0:0:0:
97,138,82554,2,0,P|94:181|87:225,1,78,10|8,0:0|0:0,0:0:0:0:
15,366,82857,6,0,P|98:367|105:293,1,156,2|8,1:2|0:0,0:0:0:0:
46,185,83312,1,0,0:0:0:0:
46,185,83463,2,0,P|68:216|129:215,1,78,0|0,1:2|1:2,0:0:0:0:
199,155,83766,1,10,0:0:0:0:
269,307,83918,6,0,P|228:293|212:253,1,78,2|0,1:2|0:0,0:0:0:0:
319,112,84221,2,0,P|327:153|300:187,1,78,2|8,1:2|0:0,0:0:0:0:
151,150,84524,2,0,P|192:137|236:132,1,78,2|0,1:2|1:0,0:0:0:0:
380,219,84827,1,2,1:2:0:0:
380,219,84978,2,0,P|338:206|279:202,1,78,8|0,0:0|0:0,0:0:0:0:
197,38,85281,5,2,1:2:0:0:
118,281,85584,1,10,1:2:0:0:
0,46,85887,2,0,P|59:54|76:96,1,78,2|0,1:2|0:0,0:0:0:0:
102,151,86190,1,10,0:0:0:0:
0,384,86342,6,0,P|8:327|24:247,1,117,2|0,1:2|0:0,0:0:0:0:
33,257,86645,2,0,P|92:249|109:207,1,78,2|10,1:2|0:0,0:0:0:0:
98,147,86948,5,2,1:2:0:0:
197,51,87099,2,0,P|193:96|182:148,1,78,8|0,0:0|1:0,0:0:0:0:
325,247,87402,1,8,0:0:0:0:
263,144,87554,1,0,1:0:0:0:
316,330,87705,6,0,P|378:318|477:307,1,156,2|10,1:2|0:0,0:0:0:0:
476,159,88160,1,0,0:0:0:0:
476,159,88312,2,0,P|510:193|491:259,1,78,2|2,1:2|1:2,0:0:0:0:
427,283,88615,1,8,0:0:0:0:
402,99,88766,6,0,P|397:145|388:192,1,78,2|0,1:2|0:0,0:0:0:0:
312,135,89069,2,0,P|279:156|271:218,1,78,2|8,1:2|0:0,0:0:0:0:
320,347,89372,2,0,P|325:301|334:254,1,78,2|0,1:2|1:0,0:0:0:0:
206,364,89675,1,2,1:2:0:0:
206,364,89827,2,0,P|213:320|218:276,1,78,8|0,0:0|0:0,0:0:0:0:
78,169,90130,6,0,P|15:174|1:255,1,156,2|10,1:2|0:0,0:0:0:0:
120,347,90584,1,0,0:0:0:0:
120,347,90736,2,0,P|76:338|33:332,1,78,2|2,1:2|1:2,0:0:0:0:
95,255,91039,1,10,0:0:0:0:
246,329,91190,6,0,P|310:344|379:355,1,117,2|0,1:2|0:0,0:0:0:0:
385,351,91493,2,0,P|416:322|397:260,1,78,2|10,1:2|0:0,0:0:0:0:
323,161,91796,2,0,P|286:183|281:225,1,78,2|0,1:2|1:0,0:0:0:0:
310,309,92099,1,2,1:2:0:0:
402,192,92251,2,0,P|406:148|413:104,1,78,10|8,0:0|0:0,0:0:0:0:
244,0,92554,6,0,P|234:87|222:162,1,156,2|8,1:2|0:0,0:0:0:0:
85,293,93009,1,0,0:0:0:0:
85,293,93160,2,0,P|127:287|148:251,1,78,0|0,1:2|1:2,0:0:0:0:
135,164,93463,1,10,0:0:0:0:
1,55,93615,6,0,P|39:60|100:62,1,78,2|0,1:2|0:0,0:0:0:0:
123,172,93918,2,0,P|80:171|54:137,1,78,2|8,1:2|0:0,0:0:0:0:
234,64,94221,2,0,P|208:30|165:29,1,78,2|0,1:2|0:0,0:0:0:0:
92,69,94524,1,2,1:2:0:0:
215,160,94675,2,0,P|253:155|314:153,1,78,8|8,0:0|0:0,0:0:0:0:
444,287,94978,5,2,1:2:0:0:
318,64,95281,1,10,1:2:0:0:
238,309,95584,2,0,P|286:293|296:247,1,78,2|0,1:2|0:0,0:0:0:0:
259,179,95887,1,10,0:0:0:0:
404,330,96039,6,0,P|395:289|387:244,1,78,6|0,1:2|0:0,0:0:0:0:
426,50,96342,1,2,1:2:0:0:
368,171,96493,1,8,0:0:0:0:
512,35,96645,2,0,P|498:105|485:216,1,156,6|8,1:2|1:3,0:0:0:0:
449,277,97099,1,8,0:0:0:0:
512,341,97251,1,4,1:3:0:0:
352,292,97402,6,0,P|314:311|303:357,1,78,6|0,1:2|0:0,0:0:0:0:
137,315,97705,1,10,1:2:0:0:
137,315,98009,2,0,P|178:325|198:368,2,78,0|0|10,1:0|1:0|1:2,0:0:0:0:
38,356,98615,2,0,P|45:312|49:268,2,78,0|0|10,1:0|1:0|1:2,0:0:0:0:
201,240,99221,2,0,P|193:196|189:152,1,78,0|0,1:0|1:0,0:0:0:0:
105,207,99524,1,10,1:2:0:0:
105,207,99675,1,0,1:0:0:0:
288,162,99827,6,0,P|332:155|381:140,1,78,2|0,1:2|0:0,0:0:0:0:
485,239,100130,1,10,1:2:0:0:
485,239,100433,2,0,P|441:232|392:217,2,78,0|0|10,1:0|1:0|1:2,0:0:0:0:
382,308,100887,1,0,0:0:0:0:
382,308,101039,2,0,P|356:339|377:405,2,78,0|0|10,1:0|1:0|1:2,0:0:0:0:
329,228,101493,5,0,0:0:0:0:
329,228,101645,2,0,P|289:235|242:183,1,78,0|0,1:0|1:0,0:0:0:0:
203,134,101948,1,10,1:2:0:0:
145,247,102099,1,0,1:0:0:0:
145,247,102251,6,0,P|148:292|153:336,1,78,2|0,1:2|0:0,0:0:0:0:
57,205,102554,1,10,1:2:0:0:
57,205,102857,2,0,P|54:161|49:117,2,78,0|0|10,1:0|1:0|1:2,0:0:0:0:
130,42,103463,5,0,1:0:0:0:
130,42,103615,1,0,1:0:0:0:
130,42,103766,2,0,P|202:40|219:118,1,117,10|0,1:2|0:0,0:0:0:0:
326,236,104069,1,8,1:3:0:0:
326,236,104145,1,8,1:3:0:0:
326,236,104221,1,8,1:3:0:0:
326,236,104296,1,8,1:3:0:0:
326,236,104372,2,0,P|320:181|312:91,1,117,8|0,0:0|0:0,0:0:0:0:
488,6,104675,6,0,P|425:9|400:67,1,117,14|0,0:0|0:0,0:0:0:0:
427,88,104978,2,0,P|454:123|446:169,1,78,14|0,0:0|0:0,0:0:0:0:
206,301,105281,2,0,P|268:297|293:239,1,117,14|0,0:0|0:0,0:0:0:0:
267,219,105584,2,0,P|240:184|248:138,1,78,14|0,0:0|0:0,0:0:0:0:
341,4,105887,6,0,P|337:26|333:47,1,39,10|0,0:0|0:0,0:0:0:0:
381,232,106039,2,0,P|393:167|407:102,1,117,10|0,0:0|0:0,0:0:0:0:
248,32,106342,2,0,P|235:96|221:161,1,117,14|0,0:0|0:0,0:0:0:0:
298,207,106645,2,0,P|300:185|306:163,1,39,2|2,1:2|1:2,0:0:0:0:
331,59,106796,1,4,0:0:0:0:
20,171,107099,6,0,B|62:142|105:191|85:205|128:256|197:218,1,187.19999428711,6|10,0:0|0:0,0:0:0:0:
253,168,107554,1,0,0:0:0:0:
176,42,107705,2,0,P|173:94|165:146,1,93.6000000000001,2|0,1:2|1:0,0:0:0:0:
326,186,108009,1,10,0:0:0:0:
342,29,108160,2,0,P|329:107|326:186,1,140.4,2|0,1:2|0:0,0:0:0:0:
336,211,108463,5,2,1:2:0:0:
223,149,108615,1,10,0:0:0:0:
340,231,108766,1,2,1:2:0:0:
229,338,108918,2,0,P|210:296|246:243,1,93.6000000000001,2|0,1:2|1:0,0:0:0:0:
424,231,109221,2,0,P|450:187|432:140,1,93.6000000000001,10|0,0:0|0:0,0:0:0:0:
489,337,109524,6,0,P|398:314|282:296,1,187.19999428711,2|10,1:2|0:0,0:0:0:0:
258,219,109978,1,0,0:0:0:0:
482,215,110130,2,0,P|429:207|378:193,1,93.6000000000001,2|0,1:2|1:0,0:0:0:0:
330,114,110433,1,10,0:0:0:0:
214,291,110584,2,0,P|159:238|184:168,1,140.4,2|0,1:2|0:0,0:0:0:0:
207,151,110887,5,2,1:2:0:0:
129,31,111039,1,10,0:0:0:0:
222,133,111190,1,2,1:2:0:0:
307,27,111342,2,0,P|256:43|203:52,1,93.6000000000001,0|10,1:0|0:0,0:0:0:0:
279,205,111645,2,0,B|253:228|274:257|274:257|275:223|295:209,1,93.6000000000001,0|10,1:0|0:0,0:0:0:0:
459,55,111948,6,0,B|419:24|370:81|395:92|354:146|291:115,1,187.19999428711,6|10,0:0|0:0,0:0:0:0:
305,34,112402,1,0,0:0:0:0:
204,183,112554,2,0,P|213:131|219:78,1,93.6000000000001,2|0,1:2|1:0,0:0:0:0:
155,11,112857,1,10,0:0:0:0:
13,167,113009,2,0,P|85:179|119:113,1,140.4,2|0,1:2|0:0,0:0:0:0:
121,85,113312,1,2,1:2:0:0:
219,240,113463,6,0,P|194:195|210:146,1,93.6000000000001,10|0,0:0|1:0,0:0:0:0:
292,44,113766,2,0,P|299:96|304:148,1,93.6000000000001,2|0,1:2|1:0,0:0:0:0:
409,215,114069,2,0,P|425:166|400:121,1,93.6000000000001,10|0,0:0|0:0,0:0:0:0:
491,309,114372,6,0,P|396:293|292:284,1,187.19999428711,2|10,1:2|0:0,0:0:0:0:
340,194,114827,1,0,0:0:0:0:
484,213,114978,1,2,1:2:0:0:
385,349,115130,2,0,P|397:297|406:245,1,93.6000000000001,2|10,1:2|0:0,0:0:0:0:
512,18,115433,6,0,P|533:89|474:134,1,140.4,6|0,1:2|0:0,0:0:0:0:
304,90,115736,2,0,P|244:135|266:206,1,140.4,4|0,1:0|0:0,0:0:0:0:
294,221,116039,1,4,1:2:0:0:
388,118,116190,1,10,0:0:0:0:
388,118,116266,1,8,1:3:0:0:
388,118,116342,1,8,1:3:0:0:
429,252,116493,2,0,B|440:219|409:202|409:202|424:233|411:255,1,93.6000000000001,8|4,1:3|1:3,0:0:0:0:
221,345,116796,6,0,B|188:312|129:347|158:372|105:407|50:365,1,187.19999428711,6|10,0:0|0:0,0:0:0:0:
0,304,117251,1,0,0:0:0:0:
109,185,117402,2,0,P|96:236|89:288,1,93.6000000000001,2|0,1:2|1:0,0:0:0:0:
3,297,117705,1,10,0:0:0:0:
81,106,117857,2,0,P|155:97|193:161,1,140.4,2|0,1:2|0:0,0:0:0:0:
193,192,118160,5,2,1:2:0:0:
329,227,118312,1,10,0:0:0:0:
157,269,118463,1,2,1:2:0:0:
296,313,118615,2,0,P|348:302|401:296,1,93.6000000000001,2|0,1:2|1:0,0:0:0:0:
224,243,118918,2,0,P|275:232|328:226,1,93.6000000000001,10|0,0:0|0:0,0:0:0:0:
512,0,119221,6,0,P|501:77|492:157,1,140.4,2|0,1:2|0:0,0:0:0:0:
465,187,119524,2,0,P|434:225|386:211,1,93.6000000000001,10|0,0:0|0:0,0:0:0:0:
236,27,119827,2,0,P|227:105|215:184,1,140.4,2|0,1:2|0:0,0:0:0:0:
209,214,120130,1,10,0:0:0:0:
317,126,120281,1,2,1:2:0:0:
321,316,120433,6,0,P|333:266|304:224,1,93.6000000000001,0|2,1:0|1:2,0:0:0:0:
123,209,120736,1,10,0:0:0:0:
249,159,120887,1,2,1:2:0:0:
56,269,121039,2,0,P|26:227|39:177,1,93.6000000000001,0|10,1:0|0:0,0:0:0:0:
206,71,121342,2,0,B|212:37|178:25|178:25|197:53|188:76,1,93.6000000000001,0|10,1:0|0:0,0:0:0:0:
148,308,121645,6,0,B|125:261|185:220|199:241|243:208|218:146,1,187.19999428711,6|10,0:0|0:0,0:0:0:0:
199,45,122099,1,0,0:0:0:0:
127,150,122251,1,2,1:2:0:0:
81,6,122402,2,0,P|11:35|5:110,1,140.4,2|0,1:2|0:0,0:0:0:0:
80,211,122705,2,0,P|79:157|90:105,1,93.6000000000001,6|0,1:2|0:0,0:0:0:0:
178,76,123009,5,2,1:2:0:0:
168,233,123160,1,10,0:0:0:0:
277,66,123312,2,0,P|264:153|262:259,1,187.19999428711,6|2,1:2|1:2,0:0:0:0:
76,384,123766,2,0,P|121:362|126:306,1,93.6000000000001,10|8,0:0|1:3,0:0:0:0:
11,165,124069,5,6,1:2:0:0:
0,252,124221,1,0,1:0:0:0:
155,235,124372,1,4,1:0:0:0:
167,146,124524,1,0,1:0:0:0:
302,297,124675,2,0,P|309:244|321:192,1,93.6000000000001,6|0,1:2|1:0,0:0:0:0:
483,99,124978,5,10,0:0:0:0:
213,48,125130,2,0,P|263:55|286:101,1,93.6000000000001,6|0,1:2|0:0,0:0:0:0:
477,92,125433,2,0,P|426:89|393:128,1,93.6000000000001,10|0,0:0|0:0,0:0:0:0:
297,280,125887,6,0,P|285:331|279:384,1,93.6000000000001,2|2,0:0|0:0,0:0:0:0:
322,189,126190,1,4,1:0:0:0:
104,24,126493,6,0,P|29:25|0:94,1,140.4,6|0,0:0|0:0,0:0:0:0:
33,107,126796,2,0,P|43:158|49:210,1,93.6000000000001,10|0,0:0|0:0,0:0:0:0:
167,298,127099,2,0,P|203:232|158:172,1,140.4,2|0,1:2|0:0,0:0:0:0:
134,185,127402,1,10,0:0:0:0:
61,334,127554,2,0,P|138:318|217:309,1,140.4,2|0,1:2|0:0,0:0:0:0:
241,316,127857,5,2,1:2:0:0:
313,215,128009,1,10,0:0:0:0:
357,384,128160,2,0,P|367:334|330:299,1,93.6000000000001,2|2,1:2|1:2,0:0:0:0:
302,212,128463,1,0,0:0:0:0:
183,278,128615,2,0,P|146:243|156:193,1,93.6000000000001,10|0,0:0|0:0,0:0:0:0:
337,76,128918,6,0,B|355:117|313:149|298:129|255:163|273:211,1,140.399995715332,2|0,1:2|0:0,0:0:0:0:
240,203,129221,2,0,P|187:194|135:192,1,93.6000000000001,10|0,0:0|0:0,0:0:0:0:
167,12,129524,2,0,P|219:20|271:22,1,93.6000000000001,2|0,1:2|1:0,0:0:0:0:
281,121,129827,1,10,0:0:0:0:
124,105,129978,2,0,P|203:107|281:120,1,140.4,2|0,1:2|0:0,0:0:0:0:
303,137,130281,5,2,1:2:0:0:
407,47,130433,1,10,0:0:0:0:
316,154,130584,1,2,1:2:0:0:
418,59,130736,2,0,P|458:76|453:157,1,93.6000000000001,0|10,1:0|0:0,0:0:0:0:
361,257,131039,1,0,1:0:0:0:
393,139,131190,1,10,0:0:0:0:
425,348,131342,6,0,P|370:335|299:327,1,93.6000000000001,6|0,0:0|0:0,0:0:0:0:
287,135,131645,2,0,P|303:189|331:254,1,93.6000000000001,10|0,0:0|0:0,0:0:0:0:
172,361,131948,2,0,P|210:319|253:262,1,93.6000000000001,2|0,1:2|1:0,0:0:0:0:
321,329,132251,1,10,0:0:0:0:
135,211,132402,6,0,B|113:228|80:187|107:170|73:129|0:143,1,140.399995715332,2|0,1:2|0:0,0:0:0:0:
3,144,132706,1,2,1:2:0:0:
140,43,132857,2,0,P|181:74|157:139,1,93.6000000000001,10|2,0:0|1:2,0:0:0:0:
275,232,133160,2,0,P|228:252|187:222,1,93.6000000000001,2|10,1:2|0:0,0:0:0:0:
44,255,133463,2,0,P|49:204|95:184,1,93.6000000000001,10|0,0:0|0:0,0:0:0:0:
232,355,133766,6,0,P|315:336|420:326,1,187.19999428711,2|10,1:2|0:0,0:0:0:0:
490,261,134221,1,0,0:0:0:0:
417,133,134372,1,2,1:2:0:0:
417,133,134524,2,0,P|408:187|403:243,1,93.6000000000001,2|10,1:2|0:0,0:0:0:0:
119,322,134827,6,0,P|132:242|139:159,1,140.4,2|0,1:2|0:0,0:0:0:0:
212,43,135130,2,0,P|207:68|205:95,1,46.8,2|0,1:2|0:0,0:0:0:0:
268,174,135281,6,0,P|262:199|260:226,3,46.8,10|0|2|0,0:0|0:0|1:2|0:0,0:0:0:0:
367,171,135584,2,0,P|368:144|373:118,3,46.8,10|0|8|8,0:0|0:0|1:3|1:3,0:0:0:0:
312,2,135887,2,0,P|307:27|305:54,1,46.8,10|0,0:0|0:0,0:0:0:0:
389,183,136039,2,0,P|390:156|395:130,1,46.8,2|0,1:2|0:0,0:0:0:0:
512,4,136190,6,0,P|456:-5|424:34,1,93.6000000000001,6|0,1:2|1:0,0:0:0:0:
483,168,136493,2,0,P|446:203|397:191,1,93.6000000000001,10|2,0:0|1:2,0:0:0:0:
279,48,136796,1,10,0:0:0:0:
323,226,136948,1,2,1:2:0:0:
438,83,137099,1,10,0:0:0:0:
310,210,137251,2,0,P|217:197|84:193,1,187.19999428711,2|2,1:2|1:2,0:0:0:0:
9,83,137706,2,0,P|-10:132|30:182,1,93.6000000000001,10|2,0:0|1:2,0:0:0:0:
187,279,138009,5,10,0:0:0:0:
88,122,138160,1,2,1:2:0:0:
40,299,138312,1,10,0:0:0:0:
172,155,138463,1,2,1:2:0:0:
172,155,138539,1,0,0:0:0:0:
172,155,138615,6,0,P|225:148|303:143,1,93.6000000000001,14|0,0:0|0:0,0:0:0:0:
133,257,138918,2,0,P|185:248|263:240,1,93.6000000000001,10|2,0:0|1:2,0:0:0:0:
372,90,139221,1,10,0:0:0:0:
335,219,139372,1,2,1:2:0:0:
335,219,139448,1,2,1:2:0:0:
335,219,139524,1,2,1:2:0:0:
465,116,139675,6,0,P|495:157|488:208,1,93.6000000000001,2|8,1:2|1:3,0:0:0:0:
396,310,139978,1,4,1:3:0:0:
237,180,140130,2,0,P|229:230|260:272,1,93.6000000000001,2|0,1:2|0:0,0:0:0:0:
413,178,140433,5,8,1:3:0:0:
314,205,140584,1,4,1:3:0:0:
441,98,140736,1,4,1:0:0:0:
380,260,140887,1,2,0:0:0:0:
237,140,141039,6,0,B|197:110|147:154|167:170|117:222|63:183,1,187.19999428711,6|10,1:2|0:0,0:0:0:0:
0,119,141493,1,2,0:0:0:0:
66,0,141645,1,0,1:0:0:0:
66,0,141796,2,0,P|81:55|88:115,1,93.6000000000001,2|10,1:2|0:0,0:0:0:0:
10,278,142099,6,0,P|86:264|102:185,1,140.4,2|0,1:2|0:0,0:0:0:0:
98,169,142402,1,2,1:2:0:0:
239,73,142554,1,10,0:0:0:0:
239,73,142706,2,0,P|194:76|169:130,1,93.6000000000001,2|2,1:2|1:2,0:0:0:0:
364,234,143009,5,2,1:2:0:0:
186,210,143160,1,10,0:0:0:0:
186,210,143312,1,2,1:2:0:0:
314,374,143463,6,0,P|401:352|506:342,1,187.19999428711,6|10,1:2|0:0,0:0:0:0:
462,174,143918,1,0,1:0:0:0:
462,174,144069,2,0,P|453:223|445:290,1,93.6000000000001,2|0,1:2|1:0,0:0:0:0:
318,124,144372,1,10,0:0:0:0:
483,99,144524,6,0,B|448:67|396:99|411:124|361:167|309:117,1,187.19999428711,2|2,1:2|1:2,0:0:0:0:
272,53,144978,1,10,0:0:0:0:
203,163,145130,2,0,P|199:112|177:46,1,93.6000000000001,2|0,1:2|1:0,0:0:0:0:
27,18,145433,5,10,0:0:0:0:
39,182,145584,1,10,0:0:0:0:
147,67,145736,1,10,0:0:0:0:
31,193,145887,6,0,B|77:171|113:225|89:240|123:292|182:282,1,187.19999428711,2|10,1:0|0:0,0:0:0:0:
27,352,146342,5,2,1:0:0:0:
27,352,146645,1,2,1:0:0:0:
1,133,146948,6,0,P|55:136|56:252,1,140.4,2|0,1:0|0:0,0:0:0:0:
73,256,147251,2,0,P|86:294|163:288,1,93.6000000000001,0|10,1:0|0:0,0:0:0:0:
241,166,147554,5,2,0:0:0:0:
241,166,147706,2,0,P|232:207|219:292,1,93.6000000000001,2|2,1:2|1:2,0:0:0:0:
162,138,148009,1,10,0:0:0:0:
162,138,148160,1,2,0:0:0:0:
335,246,148312,6,0,B|382:204|440:250|405:272|469:313|517:272,1,187.19999428711,2|10,1:0|0:0,0:0:0:0:
361,325,148766,1,2,1:0:0:0:
361,325,149069,1,2,1:0:0:0:
472,180,149372,6,0,P|455:264|444:369,1,187.19999428711,2|0,1:0|1:0,0:0:0:0:
300,197,149827,2,0,P|293:249|282:300,1,93.6000000000001,10|2,0:0|0:0,0:0:0:0:
104,170,150130,6,0,P|52:168|24:219,1,93.6000000000001,2|0,1:0|1:0,0:0:0:0:
89,335,150357,2,0,P|116:290|85:241,1,93.6000000000001,2|0,1:0|0:0,0:0:0:0:
19,288,150584,1,2,1:0:0:0:
233,304,150736,6,2,B|256:333|256:373|256:373|316:337|320:241|268:189|223:238|176:169|176:61|256:37|256:37|256:85|288:113,1,563.269593822768,6|4,1:0|0:0,1:0:0:0:
378,117,157402,6,0,P|373:82|405:32,1,63.9600000000001
466,17,157706,1,0,0:0:0:0:
466,17,157857,1,0,0:0:0:0:
398,195,158009,6,0,P|452:173|454:96,2,127.920001951904,0|8|0,1:0|0:0|0:0,0:0:0:0:
267,156,158918,2,0,P|227:166|196:179,1,63.9600000000001,8|0,0:0|0:0,0:0:0:0:
202,25,159221,6,0,P|148:47|143:120,2,127.920001951904,0|8|0,1:0|0:0|0:0,0:0:0:0:
311,53,160130,1,8,0:0:0:0:
311,53,160281,1,0,1:0:0:0:
260,230,160433,6,0,P|250:163|230:79,1,127.920001951904,0|8,1:0|0:0,0:0:0:0:
96,239,161039,2,0,P|92:203|82:168,1,63.9600000000001,0|0,1:0|0:0,0:0:0:0:
15,110,161342,1,8,0:0:0:0:
46,339,161493,6,0,P|110:323|175:313,1,117,6|0,0:0|0:0,0:0:0:0:
235,376,161796,2,0,P|266:347|264:304,1,78,4|0,1:0|0:0,0:0:0:0:
406,172,162099,1,6,1:2:0:0:
406,172,162175,1,0,0:0:0:0:
406,172,162251,2,0,P|402:150|396:129,2,39,8|8|8,0:0|0:0|0:0,0:0:0:0:
298,230,162554,2,0,B|272:202|300:166|300:166|298:207|329:233,1,117,8|2,0:0|0:0,0:0:0:0:
451,270,162857,6,0,P|472:273|495:279,1,37.44,2|0,0:0|0:0,0:0:0:0:
386,383,163160,6,0,P|357:339|366:289,1,93.6000000000001,4|0,1:0|0:0,0:0:0:0:
503,197,163463,2,0,P|511:146|483:103,1,93.6000000000001,2|0,1:2|1:0,0:0:0:0:
338,251,163766,1,10,0:0:0:0:
494,277,163918,2,0,P|416:260|338:250,1,140.4,2|0,1:2|0:0,0:0:0:0:
309,251,164221,5,2,1:2:0:0:
233,135,164372,1,10,0:0:0:0:
210,282,164524,1,2,1:2:0:0:
315,166,164675,2,0,P|320:113|334:62,1,93.6000000000001,2|0,1:2|1:0,0:0:0:0:
148,140,164978,2,0,P|161:88|167:36,1,93.6000000000001,10|0,0:0|0:0,0:0:0:0:
16,221,165281,6,0,B|52:173|112:203|83:235|163:269|211:195,1,187.19999428711,2|10,1:2|0:0,0:0:0:0:
245,135,165736,1,0,0:0:0:0:
279,319,165887,2,0,P|282:266|296:215,1,93.6000000000001,2|0,1:2|1:0,0:0:0:0:
238,126,166190,1,10,0:0:0:0:
408,238,166342,2,0,P|463:185|438:115,1,140.4,2|0,1:2|0:0,0:0:0:0:
414,99,166645,5,2,1:2:0:0:
274,135,166796,1,10,0:0:0:0:
374,21,166948,1,2,1:2:0:0:
220,65,167099,2,0,P|242:19|292:12,1,93.6000000000001,0|10,1:0|0:0,0:0:0:0:
442,118,167402,2,0,B|468:95|447:66|447:66|446:100|426:114,1,93.6000000000001,0|10,1:0|0:0,0:0:0:0:
259,278,167705,6,0,B|237:224|295:199|304:221|368:196|351:125,1,187.19999428711,6|10,0:0|0:0,0:0:0:0:
269,131,168160,1,0,0:0:0:0:
346,294,168312,2,0,P|398:285|450:281,1,93.6000000000001,2|0,1:2|1:0,0:0:0:0:
370,198,168615,1,10,0:0:0:0:
179,218,168766,2,0,P|96:227|15:243,1,140.4,2|0,1:2|0:0,0:0:0:0:
1,260,169069,1,2,1:2:0:0:
109,109,169221,6,0,P|68:140|66:191,1,93.6000000000001,10|0,0:0|1:0,0:0:0:0:
132,350,169524,2,0,P|137:297|144:245,1,93.6000000000001,2|0,1:2|1:0,0:0:0:0:
261,145,169827,2,0,P|272:194|241:234,1,93.6000000000001,10|0,0:0|0:0,0:0:0:0:
226,17,170130,6,0,B|273:-28|326:24|304:40|349:86|412:45,1,187.19999428711,2|10,1:2|0:0,0:0:0:0:
482,30,170584,1,0,0:0:0:0:
394,137,170736,1,2,1:2:0:0:
512,214,170887,2,0,P|519:163|486:123,1,93.6000000000001,2|10,1:2|0:0,0:0:0:0:
161,165,171190,6,0,P|240:177|355:192,1,140.4,6|0,1:2|0:0,0:0:0:0:
235,378,171493,2,0,P|156:366|41:351,1,140.4,4|0,1:0|0:0,0:0:0:0:
58,352,171796,1,4,1:2:0:0:
167,267,171948,1,10,0:0:0:0:
167,267,172024,1,8,1:3:0:0:
167,267,172099,1,8,1:3:0:0:
47,184,172251,2,0,B|36:151|67:134|67:134|52:165|65:187,1,93.6000000000001,8|4,1:3|1:3,0:0:0:0:
277,297,172554,6,0,B|322:261|377:302|346:323|395:364|454:333,1,187.19999428711,6|10,0:0|0:0,0:0:0:0:
470,235,173009,1,0,0:0:0:0:
345,362,173160,2,0,P|352:309|362:257,1,93.6000000000001,2|0,1:2|1:0,0:0:0:0:
477,226,173463,1,10,0:0:0:0:
416,12,173615,2,0,P|405:90|390:168,1,140.4,2|0,1:2|0:0,0:0:0:0:
364,181,173918,5,2,1:2:0:0:
263,101,174069,1,10,0:0:0:0:
327,253,174221,1,2,1:2:0:0:
196,158,174372,2,0,P|203:208|248:230,1,93.6000000000001,2|0,1:2|1:0,0:0:0:0:
347,93,174675,2,0,P|378:132|364:181,1,93.6000000000001,10|0,0:0|0:0,0:0:0:0:
265,312,174978,6,0,P|187:323|98:341,1,140.4,2|0,1:2|0:0,0:0:0:0:
102,369,175281,2,0,P|55:388|19:353,1,93.6000000000001,10|0,0:0|0:0,0:0:0:0:
205,123,175584,2,0,P|127:134|38:152,1,140.4,2|0,1:2|0:0,0:0:0:0:
34,181,175887,1,10,0:0:0:0:
185,88,176039,1,2,1:2:0:0:
22,6,176190,6,0,P|-9:47|1:98,1,93.6000000000001,0|2,1:0|1:2,0:0:0:0:
156,199,176493,1,10,0:0:0:0:
82,59,176645,1,2,1:2:0:0:
238,171,176796,2,0,P|247:221|217:263,1,93.6000000000001,0|10,1:0|0:0,0:0:0:0:
33,318,177099,2,0,B|9:343|31:371|31:371|30:337|50:323,1,93.6000000000001,0|10,1:0|0:0,0:0:0:0:
97,83,177402,6,0,P|110:167|118:273,1,187.19999428711,6|10,0:0|0:0,0:0:0:0:
203,379,177857,1,0,0:0:0:0:
60,326,178009,1,2,1:2:0:0:
225,292,178160,2,0,P|304:273|302:183,1,140.4,2|0,1:2|0:0,0:0:0:0:
221,111,178463,2,0,P|231:162|237:215,1,93.6000000000001,6|0,1:2|0:0,0:0:0:0:
425,245,178766,5,2,1:2:0:0:
317,162,178918,1,10,0:0:0:0:
486,44,179069,2,0,P|492:129|509:233,1,187.19999428711,6|2,1:2|1:2,0:0:0:0:
352,365,179524,2,0,P|307:343|302:287,1,93.6000000000001,10|0,0:0|1:0,0:0:0:0:
384,123,179827,5,6,1:2:0:0:
406,213,179978,1,0,1:0:0:0:
197,269,180130,1,4,1:0:0:0:
209,179,180281,1,0,1:0:0:0:
61,81,180433,2,0,P|17:113|42:184,1,93.6000000000001,6|0,1:2|1:0,0:0:0:0:
173,41,180736,5,10,0:0:0:0:
320,185,180887,2,0,P|309:129|304:74,1,93.6000000000001,6|0,1:2|0:0,0:0:0:0:
112,309,181190,2,0,P|106:256|96:204,1,93.6000000000001,10|0,0:0|0:0,0:0:0:0:
368,257,181645,6,0,P|367:307|324:336,1,93.6000000000001,2|2,0:0|0:0,0:0:0:0:
210,206,181948,1,4,1:0:0:0:
460,99,182251,6,0,B|422:69|368:118|398:139|357:192|294:158,1,187.19999428711,6|10,0:0|0:0,0:0:0:0:
313,78,182705,1,0,0:0:0:0:
458,179,182857,2,0,P|445:230|439:282,1,93.6000000000001,2|0,1:2|1:0,0:0:0:0:
299,357,183160,1,10,0:0:0:0:
455,384,183312,2,0,P|378:365|299:357,1,140.4,2|0,1:2|0:0,0:0:0:0:
273,359,183615,5,2,1:2:0:0:
325,238,183766,1,10,0:0:0:0:
212,294,183918,1,2,1:2:0:0:
329,219,184069,2,0,P|333:162|288:127,1,93.6000000000001,2|0,1:2|1:0,0:0:0:0:
194,279,184372,2,0,P|159:241|165:190,1,93.6000000000001,10|0,0:0|0:0,0:0:0:0:
153,38,184675,6,0,P|63:76|102:171,1,187.19999428711,2|10,1:2|0:0,0:0:0:0:
165,190,185130,1,0,0:0:0:0:
51,255,185281,2,0,P|103:262|155:272,1,93.6000000000001,2|0,1:2|1:0,0:0:0:0:
263,132,185584,1,10,0:0:0:0:
241,289,185736,2,0,P|250:210|264:132,1,140.4,2|0,1:2|0:0,0:0:0:0:
283,114,186039,5,2,1:2:0:0:
359,10,186190,1,10,0:0:0:0:
231,44,186342,1,2,1:2:0:0:
375,1,186493,2,0,P|427:5|456:83,1,93.6000000000001,0|10,1:0|0:0,0:0:0:0:
324,190,186796,1,0,1:0:0:0:
439,241,186948,1,10,0:0:0:0:
389,99,187099,6,0,B|425:143|390:193|362:169|321:227|369:288,1,187.19999428711,6|10,0:0|0:0,0:0:0:0:
436,327,187554,1,0,0:0:0:0:
267,283,187705,2,0,P|208:291|139:317,1,93.6000000000001,2|0,1:2|1:0,0:0:0:0:
206,201,188009,1,10,0:0:0:0:
90,333,188160,2,0,P|71:285|102:245,1,93.6000000000001,2|0,1:2|0:0,0:0:0:0:
211,185,188463,1,2,1:2:0:0:
328,344,188615,2,0,P|296:383|246:377,1,93.6000000000001,8|8,1:3|1:3,0:0:0:0:
230,105,188918,6,0,P|280:112|299:159,1,93.6000000000001,10|2,0:0|0:0,0:0:0:0:
355,255,189145,1,0,0:0:0:0:
355,255,189221,2,0,P|360:227|367:196,1,46.8,10|0,0:0|0:0,0:0:0:0:
264,288,189372,2,0,P|268:262|274:236,1,46.8,0|0,1:0|0:0,0:0:0:0:
464,88,189524,6,0,P|413:88|384:130,1,93.6000000000001,6|0,0:0|0:0,0:0:0:0:
438,290,189827,2,0,P|447:239|459:187,1,93.6000000000001,10|0,0:0|0:0,0:0:0:0:
316,18,190130,2,0,P|298:104|272:206,1,187.19999428711,0|8,1:0|0:0,0:0:0:0:
108,312,190584,2,0,P|47:269|69:199,1,140.4,4|0,1:2|0:0,0:0:0:0:
93,183,190887,5,0,1:0:0:0:
195,285,191039,2,0,P|185:233|181:180,1,93.6000000000001,12|0,0:0|0:0,0:0:0:0:
86,104,191342,2,0,P|82:51|72:0,1,93.6000000000001,0|0,1:0|1:0,0:0:0:0:
265,75,191645,1,8,0:0:0:0:
151,23,191796,1,0,1:0:0:0:
251,167,191948,6,0,P|300:147|368:131,1,93.6000000000001,6|0,1:2|0:0,0:0:0:0:
343,22,192251,2,0,P|383:50|370:99,1,93.6000000000001,8|0,0:0|0:0,0:0:0:0:
232,252,192554,2,0,P|210:309|322:360,1,187.19999428711,0|8,1:0|0:0,0:0:0:0:
433,269,193009,2,0,P|380:277|325:291,1,93.6000000000001,4|0,1:2|0:0,0:0:0:0:
240,235,193312,1,0,1:0:0:0:
450,162,193463,2,0,P|397:167|345:177,1,93.6000000000001,12|0,0:0|0:0,0:0:0:0:
214,249,193766,5,0,1:0:0:0:
214,249,193842,1,0,1:0:0:0:
214,249,193918,1,0,1:0:0:0:
247,94,194069,2,0,B|245:59|209:57|209:57|235:79|233:103,1,93.6000000000001,8|0,0:0|1:0,0:0:0:0:
59,249,194372,5,6,0:0:0:0:
180,167,194524,1,0,0:0:0:0:
60,71,194675,2,0,P|74:121|83:173,1,93.6000000000001,10|0,0:0|0:0,0:0:0:0:
14,312,194978,6,0,B|51:268|115:300|85:321|147:350|196:300,1,187.19999428711,0|8,1:0|0:0,0:0:0:0:
304,170,195433,2,0,P|285:246|273:325,1,140.4,4|0,1:2|0:0,0:0:0:0:
276,354,195736,5,0,1:0:0:0:
424,384,195887,2,0,P|470:365|475:315,1,93.6000000000001,12|0,0:0|0:0,0:0:0:0:
377,165,196190,1,0,1:0:0:0:
397,314,196342,1,0,1:0:0:0:
494,192,196493,1,8,0:0:0:0:
400,302,196645,1,0,1:0:0:0:
450,130,196796,6,0,P|460:78|476:28,1,93.6000000000001,6|0,1:2|1:0,0:0:0:0:
333,102,197099,2,0,P|349:51|359:0,1,93.6000000000001,4|2,1:0|1:2,0:0:0:0:
358,198,197402,2,0,P|274:206|172:233,1,187.19999428711,4|4,1:0|1:0,0:0:0:0:
62,155,197857,2,0,P|36:225|87:281,1,140.4,6|0,1:2|0:0,0:0:0:0:
114,287,198160,5,0,1:0:0:0:
132,94,198312,1,10,0:0:0:0:
239,263,198463,1,0,1:0:0:0:
127,71,198615,1,0,1:0:0:0:
127,71,198690,1,0,1:0:0:0:
127,71,198766,1,0,1:0:0:0:
145,186,198918,2,0,B|136:221|168:235|168:235|156:210|164:183,1,93.6000000000001,8|4,1:3|1:3,0:0:0:0:
256,39,199221,5,6,1:2:0:0:
315,113,199524,2,0,P|302:146|299:180,2,62.3999980957032,8|8|4,1:3|1:3|1:3,0:0:0:0:
399,63,199827,1,4,1:3:0:0:
493,180,200130,1,6,0:0:0:0:
256,192,200281,12,6,202857,0:0:0:0:
