osu file format v14

[General]
AudioFilename: audio.mp3
AudioLeadIn: 0
PreviewTime:51255
Countdown: 0
SampleSet: Normal
StackLeniency: 0.7
Mode: 0
LetterboxInBreaks: 0
WidescreenStoryboard: 1

[Editor]
Bookmarks: 1040,12555,22252,31949,41646,51342,70736,78009,87705,97402,107099,126494,141039,153161,163160,182251,189523
DistanceSpacing: 0.6
BeatDivisor: 4
GridSize: 4
TimelineZoom: 3.799998

[Metadata]
Title:Little * Treasure * Hunt
TitleUnicode:リトル*トレジャー*ハント
Artist:Maya (CV: Tokui Sora), Megu (CV: Murakawa Rie)
ArtistUnicode:マヤ (CV: 德井青空), メグ (CV: 村川梨衣)
Creator:Kyuuchie
Version:Kyuuteurre's Hard
Source:ご注文はうさぎですか??
Tags:gochiusa ごちうさ gochuumon wa usagi desu ka?? is the order a rabbit?? rabbit house Chimame march tai チマメ隊 Jouga Maya 條河 麻耶 Natsu Megumi 奈津 惠 Character Song album japanese anime Amateurre Tsukinyuni xidorn LeCandy projectrabbithouse
BeatmapID:2872163
BeatmapSetID:1387077

[Difficulty]
HPDrainRate:4
CircleSize:3.5
OverallDifficulty:6
ApproachRate:7.5
SliderMultiplier:1.4
SliderTickRate:1

[Events]
//Background and Video events
0,0,"gochiusa mayamegu.png",0,0
//Break Periods
2,153678,157184
//Storyboard Layer 0 (Background)
//Storyboard Layer 1 (Fail)
//Storyboard Layer 2 (Pass)
//Storyboard Layer 3 (Foreground)
//Storyboard Layer 4 (Overlay)
//Storyboard Sound Samples

[TimingPoints]
433,303.030303030303,4,2,1,45,1,0
1644,-166.666666666667,4,2,1,45,0,0
12250,-166.666666666667,4,2,1,40,0,0
12553,-166.666666666667,4,2,2,55,0,0
17099,-100,4,1,1,75,0,0
17401,-100,4,2,1,65,0,0
22251,-125,4,2,1,60,0,0
41644,-125,4,2,1,50,0,0
48613,-125,4,2,1,65,0,0
48916,-125,4,2,1,70,0,0
51038,-125,4,1,1,75,0,0
51341,-100,4,2,1,65,0,0
59674,-100,4,2,1,70,0,0
59977,-100,4,2,1,75,0,0
60128,-100,4,2,1,70,0,0
60583,-100,4,2,1,60,0,0
61038,-100,4,2,1,65,0,0
68310,-100,4,2,1,70,0,0
68613,-100,4,2,1,75,0,0
68916,-100,4,2,1,80,0,0
69219,-100,4,2,1,70,0,0
70128,-100,4,2,1,55,0,0
70431,-100,4,2,1,70,0,0
70734,-100,4,2,1,65,0,0
78007,-100,4,2,1,70,0,0
78614,-166.666666666667,4,2,1,55,0,0
79069,-125,4,2,1,60,0,0
97401,-125,4,2,1,50,0,0
104371,-125,4,2,1,65,0,0
104674,-125,4,2,1,70,0,0
106795,-125,4,1,1,75,0,0
107099,-100,4,2,1,65,0,0
115431,-100,4,2,1,70,0,0
115734,-100,4,2,1,75,0,0
115886,-100,4,2,1,70,0,0
116341,-100,4,2,1,60,0,0
116795,-100,4,2,1,65,0,0
124068,-100,4,2,1,70,0,0
124371,-100,4,2,1,75,0,0
124674,-100,4,2,1,80,0,0
124977,-100,4,2,1,70,0,0
125886,-100,4,2,1,55,0,0
126189,-100,4,2,1,70,0,0
126492,-100,4,2,1,65,0,0
133765,-100,4,2,1,60,0,0
136189,-100,4,2,1,70,0,0
139674,-100,4,2,1,55,0,0
140431,-100,4,2,1,65,0,0
141037,-100,4,2,1,60,0,0
150734,-100,4,2,1,65,0,0
153159,-100,4,2,1,50,0,0
158008,-142.857142857143,4,2,2,55,0,0
161493,-100,4,2,1,55,0,0
163160,-100,4,2,1,65,0,0
171189,-100,4,2,1,70,0,0
171492,-100,4,2,1,75,0,0
171644,-100,4,2,1,70,0,0
172098,-100,4,2,1,60,0,0
172553,-100,4,2,1,65,0,0
179825,-100,4,2,1,70,0,0
180128,-100,4,2,1,75,0,0
180431,-100,4,2,1,80,0,0
180734,-100,4,2,1,70,0,0
181644,-100,4,2,1,55,0,0
181947,-100,4,2,1,70,0,0
182250,-100,4,2,1,65,0,0
199522,-100,4,2,1,60,0,0
200128,-100,4,2,1,70,0,0
202704,-100,4,2,1,60,0,0
202856,-100,4,2,1,70,0,0

[Colours]
Combo1 : 186,117,255
Combo2 : 45,150,255
Combo3 : 245,112,115
Combo4 : 255,255,174

[HitObjects]
14,318,1645,6,0,P|61:276|121:298,1,125.999996154785,2|0,0:0|0:0,0:0:0:0:
175,345,2251,1,2,0:0:0:0:
271,294,2554,1,2,0:0:0:0:
373,329,2857,2,0,L|388:192,1,125.999996154785,2|0,0:0|0:0,0:0:0:0:
461,172,3463,5,2,0:0:0:0:
378,83,3766,1,2,0:0:0:0:
256,98,4069,2,0,L|84:82,2,167.999994873047,2|2|2,0:0|0:0|0:0,0:0:0:0:
256,98,5887,1,2,0:0:0:0:
383,41,6190,6,0,L|378:83,1,41.9999987182618,2|2,0:0|0:0,0:0:0:0:
444,146,6493,2,0,L|457:273,1,125.999996154785,2|2,0:0|0:0,0:0:0:0:
456,271,7402,1,2,0:0:0:0:
363,362,7705,2,0,P|316:333|243:348,1,125.999996154785,2|2,0:0|0:0,0:0:0:0:
247,342,8615,1,2,0:0:0:0:
99,384,8918,6,0,L|113:283,1,83.9999974365235,2|0,0:0|0:0,0:0:0:0:
11,193,9524,2,0,L|0:276,1,83.9999974365235,2|0,0:0|0:0,0:0:0:0:
203,318,10130,2,0,L|217:217,1,83.9999974365235,2|0,0:0|0:0,0:0:0:0:
115,127,10736,2,0,L|103:210,1,83.9999974365235,2|0,0:0|0:0,0:0:0:0:
34,362,11342,1,2,0:0:0:0:
34,362,12251,6,0,L|87:351,1,41.9999987182618,2|2,0:0|0:0,0:0:0:0:
131,293,12554,2,0,P|161:282|208:318,1,83.9999974365235,2|8,0:0|0:0,0:0:0:0:
405,352,13160,2,0,P|371:375|332:365,1,83.9999974365235,0|8,0:0|0:0,0:0:0:0:
294,284,13615,2,0,L|306:192,1,83.9999974365235
371,154,14069,1,8,0:0:0:0:
371,154,14221,2,0,L|364:100,1,41.9999987182618
346,28,14524,1,0,1:0:0:0:
263,17,14675,2,0,L|213:20,1,41.9999987182618,8|0,1:2|1:0,0:0:0:0:
138,5,14978,6,0,L|124:98,1,83.9999974365235,0|8,0:0|0:0,0:0:0:0:
12,211,15584,2,0,L|-2:118,1,83.9999974365235,0|8,0:0|0:0,0:0:0:0:
89,166,16039,2,0,L|179:178,1,83.9999974365235
253,143,16493,2,0,L|261:198,1,41.9999987182618,8|2,0:0|0:0,0:0:0:0:
212,274,16796,2,0,L|215:235,3,20.9999993591309,0|0|0|0,1:0|1:0|1:0|0:0,0:0:0:0:
229,284,17099,2,0,P|281:273|321:335,1,105,4|0,0:0|0:0,0:0:0:0:
335,326,17402,6,0,B|418:331|373:271|478:285,2,140,6|10|0,0:0|0:0|1:0,0:0:0:0:
252,371,18160,2,0,L|162:357,1,70,0|8,1:0|0:0,0:0:0:0:
91,384,18463,2,0,L|117:226,1,140,4|0,1:2|1:0,0:0:0:0:
56,177,18918,2,0,L|36:92,1,70,12|0,0:0|0:0,0:0:0:0:
81,37,19221,1,0,1:0:0:0:
155,73,19372,1,0,1:0:0:0:
225,33,19524,2,0,P|283:21|321:33,1,70,8|0,0:0|1:0,0:0:0:0:
386,107,19827,6,0,P|431:128|510:86,2,140,6|8|0,1:2|0:0|1:0,0:0:0:0:
293,110,20584,2,0,L|305:187,1,70,0|8,1:0|0:0,0:0:0:0:
254,262,20887,2,0,P|286:226|394:249,1,140,4|0,1:2|1:0,0:0:0:0:
467,213,21342,2,0,L|453:282,1,70,12|0,0:0|0:0,0:0:0:0:
375,354,21645,2,0,L|370:308,3,35,0|0|0|0,1:0|1:0|1:0|0:0,0:0:0:0:
366,367,21948,2,0,L|231:353,1,105,8|0,0:0|0:0,0:0:0:0:
238,375,22251,6,0,P|196:336|131:350,1,112,2|10,1:2|0:0,0:0:0:0:
13,224,22857,2,0,P|50:243|86:238,1,56,2|2,1:2|1:2,0:0:0:0:
129,187,23160,1,8,0:0:0:0:
129,187,23312,2,0,L|245:206,1,112,2|2,1:2|1:2,0:0:0:0:
313,158,23766,1,10,0:0:0:0:
313,158,23918,2,0,L|327:277,1,112,2|2,1:2|1:2,0:0:0:0:
378,335,24372,1,8,0:0:0:0:
498,271,24675,6,0,L|511:159,1,112,2|10,1:2|0:0,0:0:0:0:
403,11,25281,2,0,L|415:68,1,56,2|2,1:2|1:2,0:0:0:0:
359,132,25584,1,8,0:0:0:0:
359,132,25736,2,0,P|301:118|247:161,1,112,2|2,1:2|1:2,0:0:0:0:
200,199,26190,1,8,0:0:0:0:
200,199,26342,2,0,P|142:213|88:170,1,112,2|2,1:2|1:2,0:0:0:0:
10,213,26796,2,0,L|24:136,1,56,10|10,0:0|0:0,0:0:0:0:
0,58,27099,6,0,L|117:76,1,112,2|10,1:2|0:0,0:0:0:0:
198,101,27554,2,0,L|189:20,2,56,0|2|2,0:0|1:2|1:2,0:0:0:0:
277,57,28009,1,10,0:0:0:0:
341,114,28160,1,2,1:2:0:0:
512,31,28463,2,0,L|498:85,1,56,2|10,1:2|0:0,0:0:0:0:
443,152,28766,2,0,L|462:271,1,112,2|2,1:2|1:2,0:0:0:0:
494,346,29221,2,0,L|426:338,1,56,8|0,0:0|0:0,0:0:0:0:
373,280,29524,6,0,P|318:279|300:337,1,112,2|10,1:2|1:2,0:0:0:0:
138,384,30130,2,0,L|157:263,1,112,2|10,1:2|0:0,0:0:0:0:
231,243,30584,2,0,L|222:182,1,56,2|0,1:2|0:0,0:0:0:0:
173,114,30887,1,2,1:2:0:0:
173,114,31039,2,0,L|105:106,1,56,10|2,0:0|1:2,0:0:0:0:
24,82,31342,2,0,L|34:137,1,56,8|0,0:0|1:0,0:0:0:0:
104,187,31645,2,0,L|93:242,1,56,8|0,0:0|1:0,0:0:0:0:
0,351,31948,6,0,P|58:326|105:351,1,112,2|10,1:2|0:0,0:0:0:0:
221,307,32554,2,0,L|235:232,1,56,2|2,1:2|1:2,0:0:0:0:
303,200,32857,1,8,0:0:0:0:
303,200,33009,2,0,P|351:238|419:219,1,112,2|2,1:2|1:2,0:0:0:0:
476,202,33463,1,10,0:0:0:0:
476,202,33615,2,0,L|490:83,1,112,2|2,1:2|1:2,0:0:0:0:
445,25,34069,1,8,0:0:0:0:
326,96,34372,6,0,L|214:82,1,112,2|10,1:2|0:0,0:0:0:0:
8,25,34978,2,0,L|65:13,1,56,2|2,1:2|1:2,0:0:0:0:
133,70,35281,1,8,0:0:0:0:
133,70,35433,2,0,L|109:193,1,112,2|2,1:2|1:2,0:0:0:0:
200,218,35887,1,8,0:0:0:0:
200,218,36039,2,0,P|258:204|312:247,1,112,2|2,1:2|1:2,0:0:0:0:
370,182,36493,1,10,0:0:0:0:
454,220,36645,5,10,0:0:0:0:
454,220,36721,1,8,0:0:0:0:
454,220,36796,2,0,L|436:337,1,112,2|10,1:2|0:0,0:0:0:0:
362,384,37251,2,0,L|353:303,2,56,0|2|2,0:0|1:2|1:2,0:0:0:0:
278,343,37706,1,10,0:0:0:0:
201,382,37857,1,2,1:2:0:0:
220,230,38160,6,0,L|228:170,1,56,2|10,1:2|0:0,0:0:0:0:
179,105,38463,2,0,P|118:100|77:148,1,112,2|2,1:2|1:2,0:0:0:0:
6,95,38918,2,0,L|-2:163,1,56,8|8,0:0|0:0,0:0:0:0:
39,227,39221,6,0,P|94:226|112:284,1,112,2|10,1:2|1:2,0:0:0:0:
227,174,39827,2,0,L|348:193,1,112,2|10,1:2|0:0,0:0:0:0:
427,214,40281,2,0,L|418:153,1,56,6|0,1:2|0:0,0:0:0:0:
494,112,40584,1,2,1:2:0:0:
494,112,40736,2,0,L|502:44,1,56,8|6,0:0|1:2,0:0:0:0:
401,6,41039,2,0,L|411:61,1,56,0|8,0:0|1:3,0:0:0:0:
342,113,41342,2,0,L|331:168,1,56,8|4,0:0|1:3,0:0:0:0:
264,238,41645,5,6,1:2:0:0:
413,218,41948,1,10,1:2:0:0:
264,238,42251,2,0,L|209:227,1,56,0|0,1:0|1:0,0:0:0:0:
135,263,42554,1,10,1:2:0:0:
11,152,42857,2,0,L|66:141,1,56,0|0,1:0|1:0,0:0:0:0:
140,177,43160,1,10,1:2:0:0:
213,41,43463,2,0,L|268:52,1,56,0|0,1:0|1:0,0:0:0:0:
342,16,43766,2,0,L|358:121,1,84,10|0,1:2|0:0,0:0:0:0:
355,121,44069,5,2,1:2:0:0:
224,170,44372,1,10,1:2:0:0:
355,121,44675,2,0,P|395:123|422:142,1,56,0|0,1:0|1:0,0:0:0:0:
471,181,44978,1,10,1:2:0:0:
350,234,45281,2,0,P|310:236|283:255,1,56,0|0,1:0|1:0,0:0:0:0:
234,294,45584,1,10,1:2:0:0:
129,205,45887,2,0,L|139:128,1,56,0|0,1:0|1:0,0:0:0:0:
53,132,46190,2,0,L|45:187,1,56,10|0,1:2|1:0,0:0:0:0:
71,276,46493,5,2,1:2:0:0:
213,238,46796,1,10,1:2:0:0:
71,276,47099,2,0,L|82:331,1,56,0|0,1:0|1:0,0:0:0:0:
150,379,47402,1,10,1:2:0:0:
213,238,47705,2,0,L|224:183,1,56,0|0,1:0|1:0,0:0:0:0:
292,135,48009,1,10,1:2:0:0:
421,229,48312,2,0,L|473:223,3,28,8|8|8|8,1:3|1:3|1:3|1:3,0:0:0:0:
469,239,48615,2,0,L|478:174,1,56,8|0,0:0|0:0,0:0:0:0:
414,98,48918,6,0,P|470:88|496:37,2,112,14|14|14,0:0|0:0|0:0,0:0:0:0:
337,51,49675,1,0,0:0:0:0:
337,51,49827,2,0,L|270:54,1,56,14|0,0:0|0:0,0:0:0:0:
200,88,50130,1,10,0:0:0:0:
131,36,50281,1,10,0:0:0:0:
27,172,50584,6,0,P|55:153|137:169,1,112,14|2,0:0|1:2,0:0:0:0:
146,193,50963,1,2,1:2:0:0:
146,193,51039,2,0,L|134:269,1,56,4|0,0:0|0:0,0:0:0:0:
95,343,51342,6,0,L|177:328,1,70,6|0,0:0|0:0,0:0:0:0:
223,259,51645,2,0,L|308:275,1,70,10|0,0:0|0:0,0:0:0:0:
372,358,51948,2,0,L|387:208,1,140,2|10,1:2|0:0,0:0:0:0:
480,182,52402,2,0,L|469:103,1,70,2|0,1:2|0:0,0:0:0:0:
391,57,52705,1,2,1:2:0:0:
321,111,52857,2,0,L|249:104,1,70,10|2,0:0|1:2,0:0:0:0:
170,164,53160,2,0,L|160:72,1,70,2|0,1:2|1:0,0:0:0:0:
66,50,53463,2,0,L|73:119,1,70,10|0,0:0|0:0,0:0:0:0:
26,226,53766,6,0,L|93:204,1,70,2|0,1:2|0:0,0:0:0:0:
177,257,54069,2,0,L|244:279,1,70,10|0,0:0|0:0,0:0:0:0:
331,240,54372,2,0,P|350:184|315:110,1,140,2|10,1:2|0:0,0:0:0:0:
398,42,54827,2,0,P|443:39|473:122,1,140,2|2,1:2|1:2,0:0:0:0:
435,192,55281,2,0,L|447:266,1,70,10|2,0:0|1:2,0:0:0:0:
479,358,55584,2,0,L|393:329,1,70,0|10,1:0|0:0,0:0:0:0:
336,371,55887,1,0,1:0:0:0:
263,328,56039,1,10,0:0:0:0:
179,365,56190,6,0,P|140:361|109:317,1,70,6|0,0:0|0:0,0:0:0:0:
36,380,56493,2,0,P|19:344|42:295,1,70,10|0,0:0|0:0,0:0:0:0:
0,227,56796,2,0,L|23:83,1,140,2|10,1:2|0:0,0:0:0:0:
105,20,57251,2,0,L|115:101,1,70,2|0,1:2|0:0,0:0:0:0:
168,156,57554,1,2,1:2:0:0:
241,115,57705,2,0,P|298:127|311:157,1,70,10|0,0:0|1:0,0:0:0:0:
388,113,58009,2,0,L|383:188,1,70,2|8,1:2|0:0,0:0:0:0:
307,236,58312,2,0,L|302:305,1,70,10|0,0:0|0:0,0:0:0:0:
374,372,58615,6,0,P|440:376|477:320,1,140,2|10,1:2|0:0,0:0:0:0:
435,245,59069,1,0,0:0:0:0:
498,183,59221,1,2,1:2:0:0:
440,112,59372,2,0,L|428:20,1,70,2|10,1:2|0:0,0:0:0:0:
341,9,59675,6,0,L|334:91,1,70,6|0,1:2|0:0,0:0:0:0:
274,126,59978,2,0,L|279:201,1,70,4|10,1:0|0:0,0:0:0:0:
329,259,60281,1,4,1:2:0:0:
255,298,60433,1,10,0:0:0:0:
255,298,60509,1,0,1:0:0:0:
255,298,60584,1,8,1:3:0:0:
171,251,60736,2,0,P|119:254|92:282,1,70,8|4,1:3|1:3,0:0:0:0:
29,313,61039,6,0,L|14:239,1,70,6|0,0:0|0:0,0:0:0:0:
73,182,61342,2,0,L|88:108,1,70,10|0,0:0|0:0,0:0:0:0:
19,49,61645,2,0,P|79:20|152:54,1,140,2|10,1:2|0:0,0:0:0:0:
193,130,62099,2,0,L|267:117,1,70,2|0,1:2|0:0,0:0:0:0:
338,152,62402,1,2,1:2:0:0:
420,110,62554,2,0,P|454:109|485:126,1,70,10|2,0:0|1:2,0:0:0:0:
494,217,62857,2,0,L|481:297,1,70,2|0,1:2|1:2,0:0:0:0:
387,295,63160,2,0,L|398:225,1,70,10|0,0:0|0:0,0:0:0:0:
338,152,63463,6,0,L|332:72,1,70,2|0,1:2|0:0,0:0:0:0:
244,26,63766,2,0,L|238:106,1,70,10|0,0:0|0:0,0:0:0:0:
167,159,64069,2,0,P|108:122|31:153,1,140,2|10,1:2|0:0,0:0:0:0:
0,224,64524,2,0,P|24:253|28:297,1,70,2|0,1:2|0:0,0:0:0:0:
0,366,64827,1,2,1:2:0:0:
92,346,64978,2,0,L|162:341,1,70,10|2,0:0|1:2,0:0:0:0:
242,380,65281,1,0,1:0:0:0:
307,327,65433,1,10,0:0:0:0:
373,380,65584,2,0,L|456:374,1,70,0|10,1:0|0:0,0:0:0:0:
511,310,65887,6,0,L|485:168,1,140,6|10,0:0|0:0,0:0:0:0:
401,222,66342,1,0,0:0:0:0:
313,177,66493,1,2,1:2:0:0:
313,177,66645,2,0,P|257:173|237:191,1,70,2|10,1:2|0:0,0:0:0:0:
185,239,66948,2,0,P|111:249|71:192,1,140,6|2,1:2|1:2,0:0:0:0:
1,149,67402,1,10,0:0:0:0:
60,84,67554,2,0,L|145:93,1,70,6|0,1:2|0:0,0:0:0:0:
196,20,67857,1,2,1:2:0:0:
260,79,68009,2,0,L|345:70,1,70,10|0,0:0|0:0,0:0:0:0:
405,17,68312,6,0,L|416:94,1,70,6|0,1:2|1:0,0:0:0:0:
497,137,68615,2,0,L|486:214,1,70,4|0,1:0|1:0,0:0:0:0:
410,243,68918,1,6,1:2:0:0:
338,200,69069,1,0,1:0:0:0:
260,233,69221,1,10,0:0:0:0:
260,233,69372,2,0,L|169:242,1,70,6|0,1:2|0:0,0:0:0:0:
118,183,69675,2,0,L|34:171,1,70,10|0,0:0|0:0,0:0:0:0:
6,357,70130,6,0,L|94:341,1,70,2|2,0:0|0:0,0:0:0:0:
154,376,70433,2,0,P|184:343|248:357,1,105,4|0,1:0|0:0,0:0:0:0:
261,372,70736,6,0,L|338:368,1,70,6|0,0:0|0:0,0:0:0:0:
416,378,71039,2,0,L|425:296,1,70,10|0,0:0|0:0,0:0:0:0:
479,247,71342,2,0,P|417:219|358:253,1,140,2|10,1:2|0:0,0:0:0:0:
273,275,71796,2,0,L|298:121,1,140,2|2,1:2|1:2,0:0:0:0:
259,52,72251,2,0,L|176:63,1,70,10|2,0:0|1:2,0:0:0:0:
98,94,72554,2,0,L|112:15,1,70,2|0,1:2|1:0,0:0:0:0:
20,20,72857,2,0,L|7:88,1,70,10|0,0:0|0:0,0:0:0:0:
33,214,73160,6,0,L|110:206,1,70,2|0,1:2|0:0,0:0:0:0:
181,173,73463,2,0,L|258:181,1,70,10|0,0:0|0:0,0:0:0:0:
338,114,73766,2,0,L|356:275,1,140,2|10,1:2|0:0,0:0:0:0:
405,328,74221,2,0,P|328:284|273:314,1,140,2|2,1:2|1:2,0:0:0:0:
228,358,74675,2,0,L|148:345,1,70,10|2,0:0|1:2,0:0:0:0:
76,381,74978,2,0,L|70:302,1,70,0|10,1:0|0:0,0:0:0:0:
124,236,75281,1,0,1:0:0:0:
124,236,75433,1,10,0:0:0:0:
55,178,75584,6,0,L|38:101,1,70,6|0,0:0|0:0,0:0:0:0:
126,103,75887,2,0,L|203:120,1,70,10|0,0:0|0:0,0:0:0:0:
239,201,76190,2,0,L|377:173,1,140,2|10,1:2|0:0,0:0:0:0:
446,231,76645,1,0,1:2:0:0:
512,83,76948,5,2,1:2:0:0:
512,83,77099,2,0,P|462:71|437:93,1,70,8|0,1:2|1:0,0:0:0:0:
357,54,77402,2,0,L|354:12,3,35,2|0|0|0,0:0|0:0|1:0|1:0,0:0:0:0:
369,68,77706,2,0,L|376:178,1,105,10|0,0:0|0:0,0:0:0:0:
376,195,78009,1,4,0:0:0:0:
442,305,78615,6,0,L|455:262,2,41.9999987182618,0|8|4,1:0|1:3|1:3,0:0:0:0:
374,349,79069,6,0,P|336:298|270:310,1,112,2|2,1:2|1:2,0:0:0:0:
224,344,79524,1,10,0:0:0:0:
224,344,79675,2,0,P|210:241|208:210,1,112,2|0,1:2|1:2,0:0:0:0:
134,264,80130,2,0,P|99:244|73:239,1,56,8|0,0:0|1:0,0:0:0:0:
2,154,80433,6,0,L|111:120,1,112,2|10,1:2|0:0,0:0:0:0:
267,63,81039,2,0,L|206:44,1,56,2|2,1:2|1:2,0:0:0:0:
190,123,81342,1,10,0:0:0:0:
190,123,81493,2,0,P|208:205|209:246,1,112,2|2,1:2|1:2,0:0:0:0:
261,300,81948,1,8,0:0:0:0:
261,300,82099,2,0,P|323:243|358:222,1,112,2|2,1:2|1:2,0:0:0:0:
440,239,82554,2,0,L|430:176,1,56,10|8,0:0|0:0,0:0:0:0:
486,51,82857,6,0,B|428:38|447:83|378:74,1,112,2|8,1:2|0:0,0:0:0:0:
296,112,83312,1,0,0:0:0:0:
296,112,83463,2,0,L|284:46,2,56,0|0|10,1:2|1:2|0:0,0:0:0:0:
241,189,83918,6,0,P|212:142|145:134,1,112,2|2,1:2|1:2,0:0:0:0:
83,199,84372,1,8,0:0:0:0:
83,199,84524,2,0,P|105:292|106:313,1,112,2|2,1:2|1:2,0:0:0:0:
183,361,84978,2,0,L|246:346,1,56,8|0,0:0|0:0,0:0:0:0:
297,268,85281,6,0,P|240:231|195:258,2,112,2|10|2,1:2|1:2|1:2,0:0:0:0:
430,354,86190,1,10,0:0:0:0:
430,354,86342,2,0,L|448:219,1,112,2|2,1:2|1:2,0:0:0:0:
501,167,86796,1,10,0:0:0:0:
501,167,86948,1,2,1:2:0:0:
433,96,87099,2,0,L|423:41,1,56,8|0,0:0|1:0,0:0:0:0:
355,128,87402,2,0,L|345:183,1,56,8|0,0:0|1:0,0:0:0:0:
328,275,87705,6,0,P|271:238|226:265,1,112,2|10,1:2|0:0,0:0:0:0:
86,362,88312,2,0,L|75:301,1,56,2|2,1:2|1:2,0:0:0:0:
17,212,88615,1,8,0:0:0:0:
17,212,88766,2,0,P|86:217|119:186,1,112,2|2,1:2|1:2,0:0:0:0:
158,115,89221,1,8,0:0:0:0:
158,115,89372,2,0,P|227:110|260:141,1,112,2|2,1:2|1:2,0:0:0:0:
320,234,89827,2,0,P|327:193|337:172,1,56,8|0,0:0|0:0,0:0:0:0:
439,60,90130,6,0,B|412:118|459:118|433:177,1,112,2|10,1:2|0:0,0:0:0:0:
456,305,90736,2,0,P|413:280|398:281,1,56,2|2,1:2|1:2,0:0:0:0:
331,341,91039,1,10,0:0:0:0:
331,341,91190,2,0,L|206:320,1,112,2|2,1:2|1:2,0:0:0:0:
131,344,91645,1,10,0:0:0:0:
131,344,91796,2,0,B|127:297|127:297|115:278|115:278|106:223,1,112,2|2,1:2|1:2,0:0:0:0:
36,182,92251,1,10,0:0:0:0:
50,92,92402,5,8,0:0:0:0:
50,92,92478,1,8,0:0:0:0:
50,92,92554,2,0,P|93:135|140:124,1,112,2|8,1:2|0:0,0:0:0:0:
209,69,93009,2,0,L|219:5,2,56,0|0|0,0:0|1:2|1:2,0:0:0:0:
257,176,93463,1,10,0:0:0:0:
257,176,93615,2,0,P|311:130|362:141,1,112,2|2,1:2|1:2,0:0:0:0:
416,215,94069,1,8,0:0:0:0:
416,215,94221,2,0,L|436:94,1,112,2|2,1:2|1:2,0:0:0:0:
358,0,94675,2,0,L|364:71,1,56,8|8,0:0|0:0,0:0:0:0:
281,131,94978,6,0,B|214:122|262:94|176:84,2,112,2|10|2,1:2|1:2|1:2,0:0:0:0:
397,186,95887,1,10,0:0:0:0:
397,186,96039,2,0,P|355:203|346:271,1,112,6|2,1:2|1:2,0:0:0:0:
396,332,96493,1,8,0:0:0:0:
396,332,96645,2,0,P|291:302|266:302,1,112,6|8,1:2|1:3,0:0:0:0:
216,361,97099,2,0,L|197:293,1,56,8|4,0:0|1:3,0:0:0:0:
62,254,97402,5,6,1:2:0:0:
214,201,97705,1,10,1:2:0:0:
62,254,98009,2,0,L|42:182,1,56,0|0,1:0|1:0,0:0:0:0:
88,116,98312,1,10,1:2:0:0:
171,44,98615,2,0,L|191:116,1,56,0|0,1:0|1:0,0:0:0:0:
145,182,98918,1,10,1:2:0:0:
242,332,99221,2,0,P|276:315|298:313,1,56,0|0,1:0|1:0,0:0:0:0:
366,365,99524,2,0,L|383:266,1,84,10|0,1:2|0:0,0:0:0:0:
390,258,99827,5,2,1:2:0:0:
296,112,100130,1,10,1:2:0:0:
296,112,100433,2,0,P|334:93|364:100,1,56,0|0,1:0|1:0,0:0:0:0:
412,136,100736,1,10,1:2:0:0:
280,260,101039,2,0,P|252:257|229:241,1,56,0|0,1:0|1:0,0:0:0:0:
187,175,101342,1,10,1:2:0:0:
38,276,101645,6,0,L|42:348,1,56,0|0,1:0|1:0,0:0:0:0:
125,314,101948,2,0,L|121:258,1,56,10|0,1:2|1:0,0:0:0:0:
70,180,102251,5,2,1:2:0:0:
242,93,102554,1,10,1:2:0:0:
242,93,102857,2,0,L|236:170,1,56,0|0,1:0|1:0,0:0:0:0:
273,233,103160,1,10,1:2:0:0:
356,295,103463,2,0,L|362:218,1,56,0|0,1:0|1:0,0:0:0:0:
325,155,103766,1,10,1:2:0:0:
450,138,104069,6,0,L|486:132,3,28,8|8|8|8,1:3|1:3|1:3|1:3,0:0:0:0:
437,163,104372,2,0,L|453:230,1,56,8|0,0:0|0:0,0:0:0:0:
422,314,104675,6,0,P|456:268|514:293,2,112,14|14|14,0:0|0:0|0:0,0:0:0:0:
337,362,105433,1,0,0:0:0:0:
337,362,105584,2,0,L|280:352,1,56,14|0,0:0|0:0,0:0:0:0:
207,309,105887,1,10,0:0:0:0:
137,365,106039,1,10,0:0:0:0:
49,284,106342,6,0,L|26:156,1,112,14|2,0:0|1:2,0:0:0:0:
40,144,106721,1,2,1:2:0:0:
40,144,106796,2,0,L|104:137,1,56,4|0,0:0|0:0,0:0:0:0:
161,62,107099,6,0,P|211:40|242:50,1,70,6|0,0:0|0:0,0:0:0:0:
271,113,107402,2,0,P|299:132|334:132,1,70,10|0,0:0|0:0,0:0:0:0:
420,98,107705,2,0,P|400:224|398:250,1,140,2|10,1:2|0:0,0:0:0:0:
349,313,108160,2,0,P|316:286|283:281,1,70,2|0,1:2|0:0,0:0:0:0:
235,339,108463,1,2,1:2:0:0:
147,275,108615,2,0,L|158:356,1,70,10|2,0:0|1:2,0:0:0:0:
58,300,108918,2,0,L|67:230,1,70,2|0,1:2|1:0,0:0:0:0:
146,184,109221,2,0,L|219:204,1,70,10|0,0:0|0:0,0:0:0:0:
289,280,109524,6,0,P|297:223|326:197,1,70,2|0,1:2|0:0,0:0:0:0:
394,187,109827,2,0,L|380:87,1,70,10|0,0:0|0:0,0:0:0:0:
316,42,110130,2,0,P|284:67|192:35,1,140,2|10,1:2|0:0,0:0:0:0:
125,99,110584,2,0,P|143:154|145:237,1,140,2|2,1:2|1:2,0:0:0:0:
108,334,111039,2,0,P|143:315|181:320,1,70,10|2,0:0|1:2,0:0:0:0:
237,375,111342,2,0,L|256:299,1,70,0|10,1:0|0:0,0:0:0:0:
300,233,111645,1,0,1:0:0:0:
377,294,111796,1,10,0:0:0:0:
441,220,111948,6,0,P|430:174|431:141,1,70,6|0,0:0|0:0,0:0:0:0:
395,72,112251,2,0,P|349:96|330:96,1,70,10|0,0:0|0:0,0:0:0:0:
259,141,112554,2,0,P|199:95|138:110,1,140,2|10,1:2|0:0,0:0:0:0:
74,173,113009,2,0,P|97:241|101:270,1,70,2|0,1:2|0:0,0:0:0:0:
141,324,113312,1,2,1:2:0:0:
141,324,113463,2,0,P|188:270|211:252,1,70,10|0,0:0|1:0,0:0:0:0:
273,302,113766,2,0,P|322:288|359:286,1,70,2|0,1:2|1:0,0:0:0:0:
414,206,114069,2,0,P|365:192|328:190,1,70,10|0,0:0|0:0,0:0:0:0:
263,187,114372,6,0,L|240:26,1,140,2|10,1:2|0:0,0:0:0:0:
168,86,114827,1,0,0:0:0:0:
168,86,114978,2,0,P|132:63|97:59,1,70,2|2,1:2|1:2,0:0:0:0:
36,116,115281,1,10,0:0:0:0:
36,116,115433,6,0,P|74:146|71:183,1,70,6|0,1:2|0:0,0:0:0:0:
41,252,115736,2,0,L|127:238,1,70,4|10,1:0|0:0,0:0:0:0:
186,275,116039,1,4,1:2:0:0:
252,213,116190,1,10,0:0:0:0:
252,213,116266,1,8,1:3:0:0:
252,213,116342,1,8,1:3:0:0:
314,288,116493,2,0,P|369:273|391:271,1,70,8|4,1:3|1:3,0:0:0:0:
468,337,116796,6,0,L|493:177,1,140,6|10,0:0|0:0,0:0:0:0:
508,105,117251,1,0,0:0:0:0:
421,122,117402,2,0,P|386:100|353:102,1,70,2|0,1:2|1:0,0:0:0:0:
339,185,117705,1,10,0:0:0:0:
339,185,117857,2,0,L|199:151,1,140,2|2,1:2|1:2,0:0:0:0:
125,195,118312,2,0,P|146:236|147:268,1,70,10|2,0:0|1:2,0:0:0:0:
44,317,118615,2,0,P|49:282|66:252,1,70,2|0,1:2|1:0,0:0:0:0:
128,340,118918,2,0,L|210:326,1,70,10|0,0:0|0:0,0:0:0:0:
288,320,119221,6,0,L|308:242,1,70,2|0,1:2|0:0,0:0:0:0:
387,228,119524,2,0,L|367:150,1,70,10|0,0:0|0:0,0:0:0:0:
307,93,119827,2,0,B|219:76|252:137|171:129,1,140,2|10,1:2|0:0,0:0:0:0:
108,200,120281,2,0,P|155:203|179:288,1,140,2|2,1:2|1:2,0:0:0:0:
248,340,120736,2,0,L|320:324,1,70,10|2,0:0|1:2,0:0:0:0:
416,366,121039,6,0,L|435:288,1,70,0|10,1:0|0:0,0:0:0:0:
350,242,121342,2,0,L|331:164,1,70,0|10,1:0|0:0,0:0:0:0:
373,93,121645,2,0,P|315:68|249:124,1,140,6|10,0:0|0:0,0:0:0:0:
237,196,122099,1,0,0:0:0:0:
178,129,122251,2,0,L|106:114,1,70,2|2,1:2|1:2,0:0:0:0:
41,179,122554,1,10,0:0:0:0:
92,262,122705,6,0,L|242:280,1,140,6|2,1:2|1:2,0:0:0:0:
302,345,123160,1,10,0:0:0:0:
386,296,123312,2,0,L|400:218,1,70,6|0,1:2|0:0,0:0:0:0:
469,159,123615,1,2,1:2:0:0:
377,122,123766,2,0,L|363:44,1,70,10|8,0:0|1:3,0:0:0:0:
288,115,124069,6,0,P|249:124|205:112,1,70,6|0,1:2|1:0,0:0:0:0:
153,45,124372,2,0,P|114:36|70:48,1,70,4|0,1:0|1:0,0:0:0:0:
22,117,124675,1,6,1:2:0:0:
96,180,124827,1,0,1:0:0:0:
27,250,124978,1,10,0:0:0:0:
27,250,125130,2,0,P|66:266|82:301,1,70,6|0,1:2|0:0,0:0:0:0:
149,358,125433,2,0,L|227:340,1,70,10|0,0:0|0:0,0:0:0:0:
373,378,125887,6,0,L|384:304,1,70,2|2,0:0|0:0,0:0:0:0:
470,227,126190,2,0,P|412:231|384:173,1,105,4|0,1:0|0:0,0:0:0:0:
383,178,126493,6,0,L|300:170,1,70,6|0,0:0|0:0,0:0:0:0:
271,243,126796,2,0,L|188:251,1,70,10|0,0:0|0:0,0:0:0:0:
108,305,127099,2,0,L|132:151,1,140,2|10,1:2|0:0,0:0:0:0:
71,71,127554,2,0,P|108:117|187:107,1,140,2|2,1:2|1:2,0:0:0:0:
251,62,128009,2,0,L|334:75,1,70,10|2,0:0|1:2,0:0:0:0:
417,123,128312,2,0,L|398:32,1,70,2|0,1:2|0:0,0:0:0:0:
475,6,128615,1,10,0:0:0:0:
496,168,128918,6,0,L|479:246,1,70,2|0,1:2|0:0,0:0:0:0:
400,225,129221,2,0,L|417:303,1,70,10|0,0:0|0:0,0:0:0:0:
466,383,129524,2,0,P|429:337|350:347,1,140,2|10,1:2|0:0,0:0:0:0:
295,256,129978,2,0,P|258:302|179:292,1,140,2|2,1:2|1:2,0:0:0:0:
119,186,130433,2,0,L|108:264,1,70,10|2,0:0|1:2,0:0:0:0:
27,311,130736,2,0,L|15:228,1,70,0|10,1:0|0:0,0:0:0:0:
33,152,131039,1,0,1:0:0:0:
33,152,131190,1,10,0:0:0:0:
119,186,131342,6,0,L|196:176,1,70,6|0,0:0|0:0,0:0:0:0:
187,93,131645,2,0,L|264:103,1,70,10|0,0:0|0:0,0:0:0:0:
333,57,131948,2,0,P|382:49|396:130,1,140,2|10,1:2|0:0,0:0:0:0:
432,217,132402,2,0,L|284:192,1,140,2|2,1:2|1:2,0:0:0:0:
218,261,132857,2,0,L|205:177,1,70,10|2,0:0|1:2,0:0:0:0:
128,165,133160,2,0,L|141:81,1,70,2|10,1:2|0:0,0:0:0:0:
207,42,133463,2,0,P|155:9|127:19,1,70,10|0,0:0|0:0,0:0:0:0:
0,107,133766,6,0,L|141:96,1,140,2|10,1:2|0:0,0:0:0:0:
216,153,134221,1,0,0:0:0:0:
216,153,134372,1,2,1:2:0:0:
289,111,134524,2,0,P|332:112|353:152,1,70,2|10,1:2|0:0,0:0:0:0:
454,90,134827,6,0,L|430:232,1,140,2|2,1:2|1:2,0:0:0:0:
503,266,135281,2,0,L|510:345,1,70,10|2,0:0|1:2,0:0:0:0:
406,302,135584,1,10,0:0:0:0:
335,357,135736,1,8,1:3:0:0:
335,357,135812,1,8,1:3:0:0:
335,357,135887,2,0,L|258:345,1,70,10|2,0:0|1:2,0:0:0:0:
195,274,136190,6,0,L|123:292,1,70,6|0,1:2|1:0,0:0:0:0:
63,348,136493,2,0,L|88:206,1,140,10|10,0:0|0:0,0:0:0:0:
46,131,136948,1,2,1:2:0:0:
46,131,137099,1,10,0:0:0:0:
107,59,137251,6,0,P|159:57|171:142,1,140,2|2,1:2|1:2,0:0:0:0:
271,165,137706,2,0,L|253:240,1,70,10|2,0:0|1:2,0:0:0:0:
196,321,138009,2,0,L|271:311,1,70,10|2,0:0|1:2,0:0:0:0:
337,251,138312,2,0,L|412:261,1,70,10|2,0:0|1:2,0:0:0:0:
424,276,138539,5,0,0:0:0:0:
424,276,138615,2,0,L|421:188,1,70,14|0,0:0|0:0,0:0:0:0:
502,157,138918,2,0,P|513:99|441:61,1,140,10|10,0:0|0:0,0:0:0:0:
369,107,139372,1,2,1:2:0:0:
369,107,139448,1,2,1:2:0:0:
369,107,139524,1,2,1:2:0:0:
290,57,139675,2,0,L|205:43,1,70,2|8,1:2|1:3,0:0:0:0:
125,16,139978,1,4,1:3:0:0:
125,16,140130,2,0,L|129:98,1,70,2|0,1:2|0:0,0:0:0:0:
44,142,140433,6,0,P|26:179|34:205,1,70,8|4,1:3|1:3,0:0:0:0:
102,249,140736,2,0,P|153:235|182:244,1,70,4|2,1:0|0:0,0:0:0:0:
215,171,141039,6,0,L|195:309,1,140,6|10,1:2|0:0,0:0:0:0:
255,367,141493,2,0,L|333:353,1,70,2|0,0:0|1:0,0:0:0:0:
342,267,141796,2,0,L|420:281,1,70,2|10,1:2|0:0,0:0:0:0:
472,344,142099,2,0,L|452:206,1,140,2|2,1:2|1:2,0:0:0:0:
501,110,142554,1,10,0:0:0:0:
418,127,142706,2,0,L|272:107,1,140,2|2,1:2|1:2,0:0:0:0:
187,71,143160,2,0,L|197:166,1,70,10|2,0:0|1:2,0:0:0:0:
276,192,143463,6,0,P|287:223|258:277,1,70,6|0,1:2|0:0,0:0:0:0:
346,307,143766,2,0,P|324:332|263:333,1,70,10|0,0:0|1:0,0:0:0:0:
210,372,144069,2,0,P|160:325|92:329,1,140,2|10,1:2|0:0,0:0:0:0:
10,284,144524,2,0,L|20:205,1,70,2|0,1:2|0:0,0:0:0:0:
118,209,144827,2,0,L|108:130,1,70,2|10,1:2|0:0,0:0:0:0:
39,66,145130,2,0,P|107:100|172:68,1,140,2|10,1:2|0:0,0:0:0:0:
244,17,145584,2,0,L|254:96,1,70,10|10,0:0|0:0,0:0:0:0:
328,130,145887,5,2,1:0:0:0:
402,92,146039,1,2,0:0:0:0:
402,92,146115,1,2,0:0:0:0:
402,92,146190,1,10,0:0:0:0:
470,152,146342,2,0,L|460:268,1,105,2|0,1:0|0:0,0:0:0:0:
471,268,146645,2,0,L|367:289,1,105,2|0,1:0|0:0,0:0:0:0:
362,302,146948,6,0,P|320:262|245:280,1,140,2|0,1:0|1:0,0:0:0:0:
151,270,147402,2,0,L|159:178,1,70,10|2,0:0|0:0,0:0:0:0:
138,190,147630,1,2,0:0:0:0:
138,190,147706,2,0,L|46:198,1,70,2|2,1:2|1:2,0:0:0:0:
0,283,148009,2,0,L|69:276,1,70,10|2,0:0|0:0,0:0:0:0:
157,357,148312,6,0,L|249:365,1,70,2|0,1:0|0:0,0:0:0:0:
245,378,148539,1,2,0:0:0:0:
245,378,148615,1,10,0:0:0:0:
320,322,148766,2,0,L|336:203,1,105,2|0,1:0|0:0,0:0:0:0:
328,206,149069,2,0,L|317:94,1,105,2|0,1:0|0:0,0:0:0:0:
326,81,149372,6,0,P|271:118|188:92,1,140,2|0,1:0|1:0,0:0:0:0:
118,56,149827,1,10,0:0:0:0:
118,56,149978,1,2,0:0:0:0:
41,114,150130,2,0,L|54:200,1,70,2|0,1:0|1:0,0:0:0:0:
40,204,150357,1,2,1:0:0:0:
39,206,150433,1,8,0:0:0:0:
105,252,150584,1,2,1:0:0:0:
191,226,150736,1,6,1:0:0:0:
256,192,150812,12,4,153160,0:0:0:0:
63,263,158009,6,0,P|103:245|129:247,1,48.9999985046387,2|0,1:2|0:0,0:0:0:0:
145,318,158312,2,0,P|165:331|189:336,1,48.9999985046387,10|0,0:0|0:0,0:0:0:0:
283,309,158615,2,0,L|296:249,1,48.9999985046387,2|0,0:0|0:0,0:0:0:0:
375,236,158918,1,10,0:0:0:0:
375,236,159069,1,2,0:0:0:0:
436,278,159221,6,0,P|419:225|456:182,1,97.9999970092774,2|8,1:2|0:0,0:0:0:0:
506,58,159827,2,0,L|449:65,1,48.9999985046387,2|0,0:0|0:0,0:0:0:0:
390,110,160130,2,0,L|333:103,1,48.9999985046387,10|0,0:0|1:0,0:0:0:0:
272,42,160433,2,0,B|213:46|239:79|170:79,1,97.9999970092774,2|8,1:2|0:0,0:0:0:0:
62,204,161039,2,0,B|121:208|95:241|164:241,1,97.9999970092774,0|8,1:0|0:0,0:0:0:0:
244,300,161493,6,0,P|274:244|334:265,1,105,6|0,0:0|0:0,0:0:0:0:
332,266,161796,2,0,L|352:156,1,105,4|0,1:0|0:0,0:0:0:0:
368,139,162099,1,6,1:2:0:0:
282,65,162251,2,0,L|269:23,3,35,8|8|8|8,0:0|0:0|0:0|0:0,0:0:0:0:
273,92,162554,2,0,P|223:58|195:64,1,70,8|8,0:0|1:3,0:0:0:0:
149,98,162857,5,2,0:0:0:0:
22,183,163160,6,0,P|73:169|101:187,1,70,4|0,1:0|0:0,0:0:0:0:
113,255,163463,2,0,P|164:269|192:251,1,70,2|0,1:2|1:0,0:0:0:0:
256,219,163766,1,10,0:0:0:0:
303,290,163918,2,0,L|332:148,1,140,2|2,1:2|1:2,0:0:0:0:
396,65,164372,2,0,L|415:135,1,70,10|2,0:0|1:2,0:0:0:0:
488,207,164675,2,0,P|439:209|413:225,1,70,2|0,1:2|1:0,0:0:0:0:
391,298,164978,2,0,P|440:300|466:316,1,70,10|0,0:0|0:0,0:0:0:0:
372,384,165281,6,0,P|268:354|239:365,1,140,2|10,1:2|0:0,0:0:0:0:
176,300,165736,1,0,0:0:0:0:
104,358,165887,2,0,L|83:277,1,70,2|0,1:2|1:0,0:0:0:0:
16,235,166190,1,10,0:0:0:0:
53,155,166342,2,0,P|96:137|154:197,1,140,2|2,1:2|1:2,0:0:0:0:
223,235,166796,2,0,L|293:216,1,70,10|2,0:0|1:2,0:0:0:0:
367,279,167099,6,0,L|396:192,1,70,0|10,1:0|0:0,0:0:0:0:
466,154,167402,1,0,1:0:0:0:
402,93,167554,1,10,0:0:0:0:
325,143,167705,6,0,P|285:136|260:112,1,70,6|0,0:0|0:0,0:0:0:0:
212,44,168009,2,0,P|172:51|147:75,1,70,10|0,0:0|0:0,0:0:0:0:
88,137,168312,2,0,P|115:193|114:274,1,140,2|10,1:2|0:0,0:0:0:0:
169,352,168766,2,0,P|201:319|236:313,1,70,2|0,1:2|0:0,0:0:0:0:
298,343,169069,1,2,1:2:0:0:
366,295,169221,2,0,L|367:217,1,70,10|0,0:0|1:0,0:0:0:0:
455,220,169524,6,0,L|454:142,1,70,2|0,1:2|1:0,0:0:0:0:
431,68,169827,2,0,P|396:48|354:64,1,70,10|0,0:0|0:0,0:0:0:0:
325,124,170130,2,0,L|179:85,1,140,2|10,1:2|0:0,0:0:0:0:
119,40,170584,1,0,0:0:0:0:
64,104,170736,2,0,L|84:174,1,70,2|2,1:2|1:2,0:0:0:0:
142,237,171039,1,10,0:0:0:0:
100,324,171190,6,0,L|232:298,1,105,6|0,1:2|0:0,0:0:0:0:
212,293,171493,2,0,L|344:319,1,105,4|0,1:0|0:0,0:0:0:0:
339,338,171796,1,4,1:2:0:0:
461,263,171948,2,0,P|418:251|378:286,1,70,10|8,0:0|1:3,0:0:0:0:
386,255,172175,1,8,1:3:0:0:
386,255,172251,2,0,L|372:169,1,70,8|4,1:3|1:3,0:0:0:0:
435,91,172554,6,0,P|393:71|342:81,1,70,6|0,0:0|0:0,0:0:0:0:
307,133,172857,2,0,L|219:116,1,70,10|0,0:0|0:0,0:0:0:0:
141,51,173160,2,0,L|156:136,1,70,2|0,1:2|1:0,0:0:0:0:
127,196,173463,1,10,0:0:0:0:
45,171,173615,2,0,L|56:254,1,70,2|0,1:2|0:0,0:0:0:0:
102,319,173918,1,2,1:2:0:0:
182,272,174069,2,0,P|236:263|274:278,1,70,10|2,0:0|1:2,0:0:0:0:
324,339,174372,2,0,L|352:192,1,140,2|10,1:2|0:0,0:0:0:0:
436,57,174978,6,0,L|447:134,1,70,2|0,1:2|0:0,0:0:0:0:
512,170,175281,2,0,L|501:247,1,70,10|0,0:0|0:0,0:0:0:0:
457,314,175584,2,0,B|381:294|395:349|317:338,1,140,2|10,1:2|0:0,0:0:0:0:
266,265,176039,2,0,P|199:244|147:307,1,140,2|2,1:2|1:2,0:0:0:0:
85,352,176493,2,0,P|72:293|59:266,1,70,10|2,0:0|1:2,0:0:0:0:
1,212,176796,1,0,1:0:0:0:
81,155,176948,1,10,0:0:0:0:
7,90,177099,2,0,P|48:55|93:55,1,70,0|10,1:0|0:0,0:0:0:0:
149,96,177402,6,0,L|293:74,1,140,6|10,0:0|0:0,0:0:0:0:
401,82,177857,1,0,0:0:0:0:
401,82,178009,2,0,P|374:129|375:169,1,70,2|2,1:2|1:2,0:0:0:0:
398,228,178312,1,10,0:0:0:0:
398,228,178463,2,0,L|254:206,1,140,6|2,1:2|1:2,0:0:0:0:
196,286,178918,1,10,0:0:0:0:
196,286,179069,2,0,L|52:308,1,140,6|2,1:2|1:2,0:0:0:0:
71,198,179524,6,0,L|55:153,3,35,10|0|0|0,0:0|1:0|1:0|1:0,0:0:0:0:
88,218,179827,2,0,P|135:212|165:185,1,70,6|0,1:2|1:0,0:0:0:0:
201,121,180130,2,0,P|248:127|278:154,1,70,4|0,1:0|1:0,0:0:0:0:
315,207,180433,1,6,1:2:0:0:
389,167,180584,1,0,1:0:0:0:
459,212,180736,1,10,0:0:0:0:
459,212,180887,2,0,L|452:295,1,70,6|0,1:2|0:0,0:0:0:0:
394,343,181190,2,0,L|324:337,1,70,10|0,0:0|0:0,0:0:0:0:
97,288,181645,6,0,P|143:271|174:292,1,70,2|2,0:0|0:0,0:0:0:0:
237,318,181948,2,0,L|254:195,1,105,4|0,1:0|0:0,0:0:0:0:
276,189,182251,6,0,P|229:182|205:160,1,70,6|0,0:0|0:0,0:0:0:0:
164,85,182554,2,0,P|117:92|93:114,1,70,10|0,0:0|0:0,0:0:0:0:
31,167,182857,2,0,P|54:222|46:303,1,140,2|10,1:2|0:0,0:0:0:0:
116,371,183312,2,0,P|182:314|230:342,1,140,2|2,1:2|1:2,0:0:0:0:
309,357,183766,2,0,P|311:311|321:277,1,70,10|2,0:0|1:2,0:0:0:0:
399,272,184069,2,0,P|398:234|380:191,1,70,2|0,1:2|1:0,0:0:0:0:
340,135,184372,2,0,P|298:115|266:116,1,70,10|0,0:0|0:0,0:0:0:0:
235,195,184675,6,0,P|195:183|159:178,1,70,2|0,1:2|0:0,0:0:0:0:
153,260,184978,2,0,P|119:270|85:276,1,70,10|0,0:0|0:0,0:0:0:0:
11,222,185281,2,0,L|-2:71,1,140,2|10,1:2|0:0,0:0:0:0:
50,18,185736,2,0,P|96:2|151:69,1,140,2|2,1:2|1:2,0:0:0:0:
219,115,186190,2,0,P|265:106|293:107,1,70,10|2,0:0|1:2,0:0:0:0:
320,191,186493,2,0,P|366:200|394:199,1,70,0|10,1:0|0:0,0:0:0:0:
452,125,186796,1,0,1:0:0:0:
452,125,186948,1,10,0:0:0:0:
493,210,187099,6,0,L|483:282,1,70,6|0,0:0|0:0,0:0:0:0:
397,291,187402,2,0,L|407:363,1,70,10|0,0:0|0:0,0:0:0:0:
326,336,187705,2,0,P|288:296|211:327,1,140,2|10,1:2|0:0,0:0:0:0:
161,380,188160,1,2,1:2:0:0:
105,265,188463,5,2,1:2:0:0:
105,265,188615,2,0,L|97:202,3,35,8|8|8|8,1:3|1:3|1:3|1:3,0:0:0:0:
125,286,188918,2,0,P|156:235|185:226,1,70,10|2,0:0|0:0,0:0:0:0:
251,221,189221,2,0,L|257:131,1,70,10|0,0:0|1:0,0:0:0:0:
321,94,189524,6,0,B|408:96|360:46|455:44,2,140,6|10|0,0:0|0:0|1:0,0:0:0:0:
249,38,190281,2,0,P|215:19|176:21,1,70,0|8,1:0|0:0,0:0:0:0:
98,43,190584,2,0,L|127:184,1,140,4|0,1:2|1:0,0:0:0:0:
162,249,191039,2,0,P|202:250|231:271,1,70,12|0,0:0|0:0,0:0:0:0:
283,327,191342,1,0,1:0:0:0:
347,272,191493,1,0,1:0:0:0:
413,322,191645,2,0,L|441:237,1,70,8|0,0:0|1:0,0:0:0:0:
497,180,191948,6,0,L|471:33,2,140,6|8|0,1:2|0:0|1:0,0:0:0:0:
415,175,192705,2,0,P|375:153|336:153,1,70,0|8,1:0|0:0,0:0:0:0:
291,225,193009,2,0,B|204:214|242:271|155:272,1,140,4|0,1:2|1:0,0:0:0:0:
88,343,193463,2,0,P|77:286|63:257,1,70,12|0,0:0|0:0,0:0:0:0:
9,193,193766,2,0,L|-6:139,3,35,0|0|0|0,1:0|1:0|1:0|1:0,0:0:0:0:
18,200,194069,2,0,L|3:254,2,35,8|0|0,0:0|0:0|1:0,0:0:0:0:
114,185,194372,6,0,P|155:148|237:180,2,140,6|10|0,0:0|0:0|1:0,0:0:0:0:
157,266,195130,2,0,L|166:345,1,70,0|8,1:0|0:0,0:0:0:0:
239,372,195433,2,0,P|294:320|361:339,1,140,4|0,1:2|1:0,0:0:0:0:
438,303,195887,2,0,L|419:231,1,70,12|0,0:0|0:0,0:0:0:0:
386,150,196190,1,0,1:0:0:0:
330,215,196342,1,0,1:0:0:0:
291,134,196493,2,0,L|310:62,1,70,8|0,0:0|1:0,0:0:0:0:
239,18,196796,6,0,L|166:6,1,70,6|0,1:2|1:0,0:0:0:0:
169,90,197099,2,0,L|96:102,1,70,4|2,1:0|1:2,0:0:0:0:
41,161,197402,2,0,P|94:190|86:271,1,140,4|4,1:0|1:0,0:0:0:0:
44,332,197857,2,0,P|166:293|206:293,1,140,6|0,1:2|1:0,0:0:0:0:
237,350,198312,2,0,P|259:288|260:268,1,70,10|0,0:0|1:0,0:0:0:0:
345,262,198615,2,0,L|330:209,3,35,0|0|0|0,1:0|1:0|1:0|0:0,0:0:0:0:
363,295,198918,1,8,1:3:0:0:
431,245,199069,1,4,1:3:0:0:
489,305,199221,1,6,1:2:0:0:
500,172,199524,6,0,L|488:118,3,46.6666666666667,8|8|4|4,1:3|1:3|1:3|1:3,0:0:0:0:
405,53,200130,1,6,0:0:0:0:
256,192,200281,12,6,202857,0:0:0:0:
