osu file format v14

[General]
AudioFilename: audio.mp3
AudioLeadIn: 0
PreviewTime:51255
Countdown: 0
SampleSet: Soft
StackLeniency: 0.7
Mode: 0
LetterboxInBreaks: 0
WidescreenStoryboard: 1

[Editor]
Bookmarks: 12555,22252,31949,41646,51343,70736,87706,107100,126494,141039,153161,153236,153312,153388,153464,153539,153615,153691,153767,153843,153918,153994,154070,154146,154221,154297,154373,154449,154524,154600,154676,154752,154827,154903,154979,155055,155130,155206,155282,155358,155433,155509,155585,155661,155736,155812,155888,155964,156039,156115,156191,156267,156343,156418,156494,156570,156646,156721,156797,156873,156949,157024,157100,157176,157252,157327,157403,157479,157555,157630,157706,157782,157858,157933,158009,172555,182252,189524
DistanceSpacing: 0.6
BeatDivisor: 4
GridSize: 4
TimelineZoom: 3.399998

[Metadata]
Title:Little * Treasure * Hunt
TitleUnicode:リトル*トレジャー*ハント
Artist:Maya (CV: Tokui Sora), Megu (CV: Murakawa Rie)
ArtistUnicode:マヤ (CV: 德井青空), メグ (CV: 村川梨衣)
Creator:Kyuuchie
Version:Kyuuchinyuni's Extra
Source:ご注文はうさぎですか??
Tags:gochiusa ごちうさ gochuumon wa usagi desu ka?? is the order a rabbit?? rabbit house Chimame march tai チマメ隊 Jouga Maya 條河 麻耶 Natsu Megumi 奈津 惠 Character Song album japanese anime Amateurre Tsukinyuni xidorn LeCandy projectrabbithouse
BeatmapID:2870522
BeatmapSetID:1387077

[Difficulty]
HPDrainRate:5
CircleSize:3.8
OverallDifficulty:9
ApproachRate:9.3
SliderMultiplier:1.83
SliderTickRate:1

[Events]
//Background and Video events
0,0,"gochiusa mayamegu.png",0,0
//Break Periods
2,153360,157455
//Storyboard Layer 0 (Background)
//Storyboard Layer 1 (Fail)
//Storyboard Layer 2 (Pass)
//Storyboard Layer 3 (Foreground)
//Storyboard Layer 4 (Overlay)
//Storyboard Sound Samples

[TimingPoints]
433,303.030303030303,4,2,1,45,1,0
1039,-125,4,2,1,45,0,0
1645,-142.857142857143,4,2,1,45,0,0
8917,-166.666666666667,4,2,1,45,0,0
12251,-166.666666666667,4,2,1,40,0,0
12554,-166.666666666667,4,2,2,55,0,0
17099,-100,4,1,1,75,0,0
17402,-90.9090909090909,4,2,1,65,0,0
17705,-90.9090909090909,4,2,1,65,0,0
22251,-100,4,2,1,60,0,0
41645,-125,4,2,1,50,0,0
48614,-125,4,2,1,65,0,0
48917,-83.3333333333333,4,2,1,70,0,0
51039,-83.3333333333333,4,1,1,75,0,0
51342,-86.9565217391304,4,2,1,65,0,0
54372,-108.695652173913,4,2,1,65,0,0
56190,-90.9090909090909,4,2,1,65,0,0
59675,-90.9090909090909,4,2,1,70,0,0
59978,-90.9090909090909,4,2,1,75,0,0
60129,-90.9090909090909,4,2,1,70,0,0
60584,-90.9090909090909,4,2,1,60,0,0
61039,-90.9090909090909,4,2,1,65,0,0
68311,-90.9090909090909,4,2,1,70,0,0
68614,-90.9090909090909,4,2,1,75,0,0
68917,-90.9090909090909,4,2,1,80,0,0
69220,-90.9090909090909,4,2,1,70,0,0
70129,-90.9090909090909,4,2,1,55,0,0
70432,-90.9090909090909,4,2,1,70,0,0
70735,-86.9565217391304,4,2,1,65,0,0
78008,-86.9565217391304,4,2,1,70,0,0
78614,-181.818181818182,4,2,1,55,0,0
79069,-100,4,2,1,60,0,0
97402,-125,4,2,1,50,0,0
104372,-100,4,2,1,65,0,0
104675,-83.3333333333333,4,2,1,70,0,0
106796,-83.3333333333333,4,1,1,75,0,0
107099,-86.9565217391304,4,2,1,65,0,0
111948,-90.9090909090909,4,2,1,65,0,0
115432,-90.9090909090909,4,2,1,70,0,0
115735,-90.9090909090909,4,2,1,75,0,0
115887,-90.9090909090909,4,2,1,70,0,0
116342,-90.9090909090909,4,2,1,60,0,0
116796,-86.9565217391304,4,2,1,65,0,0
124069,-86.9565217391304,4,2,1,70,0,0
124372,-86.9565217391304,4,2,1,75,0,0
124675,-86.9565217391304,4,2,1,80,0,0
124978,-86.9565217391304,4,2,1,70,0,0
125887,-86.9565217391304,4,2,1,55,0,0
126190,-86.9565217391304,4,2,1,70,0,0
126493,-111.111111111111,4,2,1,65,0,0
133766,-111.111111111111,4,2,1,60,0,0
136190,-100,4,2,1,70,0,0
139675,-100,4,2,1,55,0,0
140432,-100,4,2,1,65,0,0
141038,-100,4,2,1,60,0,0
150735,-181.818181818182,4,2,1,65,0,0
153160,-181.818181818182,4,2,1,50,0,0
158008,-133.333333333333,4,2,2,55,0,0
161493,-133.333333333333,4,2,1,55,0,0
162554,-83.3333333333333,4,2,1,55,0,0
162857,-133.333333333333,4,2,1,55,0,0
163160,-90.9090909090909,4,2,1,65,0,0
165887,-111.111111111111,4,2,1,65,0,0
171190,-90.9090909090909,4,2,1,70,0,0
171493,-90.9090909090909,4,2,1,75,0,0
171645,-90.9090909090909,4,2,1,70,0,0
172099,-90.9090909090909,4,2,1,60,0,0
172554,-90.9090909090909,4,2,1,65,0,0
179826,-90.9090909090909,4,2,1,70,0,0
180129,-90.9090909090909,4,2,1,75,0,0
180432,-90.9090909090909,4,2,1,80,0,0
180735,-90.9090909090909,4,2,1,70,0,0
181645,-90.9090909090909,4,2,1,55,0,0
181948,-90.9090909090909,4,2,1,70,0,0
182251,-90.9090909090909,4,2,1,65,0,0
189523,-90.9090909090909,4,2,1,65,0,0
199523,-90.9090909090909,4,2,1,60,0,0
200129,-90.9090909090909,4,2,1,70,0,0
202705,-90.9090909090909,4,2,1,60,0,0
202857,-90.9090909090909,4,2,1,70,0,0

[Colours]
Combo1 : 186,117,255
Combo2 : 45,150,255
Combo3 : 245,112,115
Combo4 : 255,255,174

[HitObjects]
473,49,1039,6,0,P|434:68|396:78,1,73.2,2|0,0:0|0:0,0:0:0:0:
325,137,1342,2,0,P|359:147|392:164,1,73.2,2|0,0:0|0:0,0:0:0:0:
307,257,1645,2,0,P|275:135|245:77,1,192.149994136048,2|0,0:0|0:0,0:0:0:0:
74,41,2251,6,0,P|89:77|90:108,1,64.0499980453492,2|0,0:0|0:0,0:0:0:0:
168,142,2554,2,0,P|153:178|152:209,1,64.0499980453492,2|0,0:0|0:0,0:0:0:0:
49,266,2857,2,0,P|101:229|156:332,1,192.149994136048,2|0,0:0|0:0,0:0:0:0:
258,366,3463,6,0,P|285:318|310:307,1,64.0499980453492,2|0,0:0|0:0,0:0:0:0:
392,232,3766,2,0,P|336:232|314:216,1,64.0499980453492,2|0,0:0|0:0,0:0:0:0:
213,168,4069,2,0,B|313:182|258:86|392:109,1,192.149994136048,2|0,0:0|0:0,0:0:0:0:
499,45,4675,2,0,P|477:206|475:237,1,192.149994136048,2|0,0:0|0:0,0:0:0:0:
405,327,5281,2,0,B|329:310|329:310|304:323|304:323|214:305,1,192.149994136048,2|0,0:0|0:0,0:0:0:0:
118,257,5887,1,2,0:0:0:0:
118,257,6190,5,2,0:0:0:0:
118,257,6342,1,2,0:0:0:0:
57,187,6493,2,0,P|122:158|178:201,1,128.099996090698,2|0,0:0|0:0,0:0:0:0:
239,232,6948,2,0,P|255:158|281:101,1,128.099996090698,2|0,0:0|0:0,0:0:0:0:
319,38,7402,1,2,0:0:0:0:
319,38,7554,1,0,0:0:0:0:
201,67,7705,6,0,P|141:42|79:30,1,128.099996090698,2|0,0:0|0:0,0:0:0:0:
6,109,8160,2,0,P|23:154|30:249,1,128.099996090698,2|0,0:0|0:0,0:0:0:0:
96,315,8615,1,2,0:0:0:0:
96,315,8766,1,0,0:0:0:0:
191,257,8918,6,0,B|326:232|249:330|395:321,2,219.59999329834,2|2|2,0:0|0:0|0:0,0:0:0:0:
87,337,10736,2,0,P|82:258|49:171,1,164.699994973755,2|0,0:0|0:0,0:0:0:0:
116,97,11342,1,2,0:0:0:0:
256,192,11418,12,2,12251,0:0:0:0:
332,332,12554,6,0,P|352:336|384:348,1,54.899998324585,2|0,0:0|0:0,0:0:0:0:
324,220,12857,2,0,P|310:235|284:257,1,54.899998324585,8|0,0:0|0:0,0:0:0:0:
424,269,13160,2,0,P|417:249|411:215,1,54.899998324585
364,141,13463,5,8,0:0:0:0:
364,141,13615,2,0,P|370:121|376:87,1,54.899998324585
460,36,13918,2,0,P|468:62|472:89,1,54.899998324585,0|8,0:0|0:0,0:0:0:0:
372,148,14221,2,0,P|378:128|384:94,1,54.899998324585
316,24,14524,2,0,P|292:36|264:40,2,54.899998324585,0|8|0,1:0|1:2|1:0,0:0:0:0:
216,112,14978,6,0,P|190:101|163:95,1,54.899998324585
92,36,15281,2,0,P|86:62|75:88,1,54.899998324585,8|0,0:0|0:0,0:0:0:0:
16,160,15584,2,0,P|42:165|68:176,1,54.899998324585
172,235,15887,5,8,0:0:0:0:
172,235,16039,2,0,P|161:209|156:183,1,54.899998324585
80,277,16342,2,0,P|74:303|63:329,1,54.899998324585,0|8,0:0|0:0,0:0:0:0:
199,377,16645,1,2,0:0:0:0:
299,258,16796,5,0,1:0:0:0:
299,258,16872,1,0,1:0:0:0:
299,258,16948,2,0,L|328:264,1,27.4499991622925,0|0,1:0|0:0,0:0:0:0:
439,323,17099,2,0,L|419:187,1,137.25,4|0,0:0|0:0,0:0:0:0:
378,118,17402,6,0,B|348:123|327:103|327:103|307:82|277:88,1,100.650003071594,6|0,0:0|0:0,0:0:0:0:
112,119,17706,2,0,P|85:77|96:29,1,100.650003071594,10|0,0:0|0:0,0:0:0:0:
204,168,18009,2,0,P|192:208|180:267,1,100.650003071594,0|0,1:0|1:0,0:0:0:0:
42,348,18312,5,8,0:0:0:0:
42,348,18463,2,0,P|32:298|18:250,1,100.650003071594,4|0,1:2|0:0,0:0:0:0:
180,164,18766,1,0,1:0:0:0:
180,164,18918,2,0,P|168:204|156:263,1,100.650003071594,12|0,0:0|0:0,0:0:0:0:
243,375,19221,2,0,P|292:376|327:343,1,100.650003071594,0|0,1:0|1:0,0:0:0:0:
412,236,19524,2,0,P|376:202|327:204,1,100.650003071594,8|0,0:0|1:0,0:0:0:0:
471,361,19827,6,0,P|480:311|494:263,1,100.650003071594,6|0,1:2|0:0,0:0:0:0:
332,172,20130,2,0,P|346:220|355:269,1,100.650003071594,8|0,0:0|0:0,0:0:0:0:
504,136,20433,2,0,P|472:104|420:104,1,100.650003071594,0|0,1:0|1:0,0:0:0:0:
222,158,20736,5,8,0:0:0:0:
222,158,20887,2,0,P|195:116|206:68,1,100.650003071594,4|0,1:2|0:0,0:0:0:0:
342,209,21190,1,0,1:0:0:0:
342,209,21342,2,0,P|327:257|318:306,1,100.650003071594,12|0,0:0|0:0,0:0:0:0:
194,375,21645,2,0,P|179:326|170:277,1,100.650003071594,0|0,1:0|1:0,0:0:0:0:
316,108,21948,2,0,P|365:106|400:139,1,100.650003071594,8|0,0:0|1:0,0:0:0:0:
170,277,22251,6,0,P|122:262|73:253,1,91.5,2|0,1:2|0:0,0:0:0:0:
57,113,22554,2,0,P|101:104|145:90,1,91.5,10|0,0:0|0:0,0:0:0:0:
223,148,22857,1,2,1:2:0:0:
223,148,23009,1,2,1:2:0:0:
64,237,23160,1,8,0:0:0:0:
64,237,23312,6,0,P|83:292|88:334,1,91.5,2|0,1:2|0:0,0:0:0:0:
272,325,23615,2,0,P|226:332|184:348,1,91.5,2|10,1:2|0:0,0:0:0:0:
230,210,23918,2,0,P|272:226|317:233,1,91.5,2|0,1:2|0:0,0:0:0:0:
431,117,24221,1,2,1:2:0:0:
431,117,24372,2,0,P|385:124|343:140,1,91.5,8|0,0:0|0:0,0:0:0:0:
391,294,24675,6,0,L|416:172,1,91.5,2|0,1:2|0:0,0:0:0:0:
243,44,24978,2,0,L|261:133,1,91.5,10|0,0:0|0:0,0:0:0:0:
317,233,25281,1,2,1:2:0:0:
343,140,25433,1,2,1:2:0:0:
196,238,25584,1,8,0:0:0:0:
196,238,25736,6,0,P|178:309|177:327,1,91.5,2|0,1:2|0:0,0:0:0:0:
75,167,26039,2,0,P|145:147|161:138,1,91.5,2|8,1:2|0:0,0:0:0:0:
75,308,26342,2,0,P|22:256|6:247,1,91.5,2|0,1:2|0:0,0:0:0:0:
128,229,26645,1,2,1:2:0:0:
55,93,26796,1,10,0:0:0:0:
136,254,26948,1,10,0:0:0:0:
256,171,27099,6,0,P|299:128|390:138,1,137.25,2|0,1:2|0:0,0:0:0:0:
422,208,27402,2,0,P|408:255|402:302,1,91.5,10|0,0:0|0:0,0:0:0:0:
319,352,27705,1,2,1:2:0:0:
319,352,27857,2,0,P|272:338|225:332,1,91.5,2|10,1:2|0:0,0:0:0:0:
90,316,28160,6,0,P|140:275|141:224,1,91.5,2|0,1:2|0:0,0:0:0:0:
32,137,28463,2,0,P|42:200|86:227,1,91.5,2|10,1:2|0:0,0:0:0:0:
216,176,28766,2,0,P|155:153|110:177,1,91.5,2|0,1:2|1:0,0:0:0:0:
237,260,29069,1,2,1:2:0:0:
237,260,29221,2,0,P|300:247|338:242,1,91.5,8|0,0:0|0:0,0:0:0:0:
489,159,29524,6,0,P|417:146|389:127,1,91.5,2|0,1:2|0:0,0:0:0:0:
278,66,29827,2,0,P|319:47|364:44,1,91.5,10|0,1:2|0:0,0:0:0:0:
489,176,30130,2,0,P|417:163|389:144,1,91.5,2|0,1:2|0:0,0:0:0:0:
307,155,30433,5,10,0:0:0:0:
307,155,30584,2,0,P|331:223|329:257,1,91.5,2|0,1:2|0:0,0:0:0:0:
257,341,30887,1,2,1:2:0:0:
257,341,31039,1,10,0:0:0:0:
156,297,31190,2,0,P|160:251|180:210,1,91.5,2|8,1:2|0:0,0:0:0:0:
175,113,31493,1,0,1:0:0:0:
87,210,31645,1,8,0:0:0:0:
30,62,31796,1,0,1:0:0:0:
96,228,31948,6,0,P|128:256|176:260,1,91.5,2|0,1:2|0:0,0:0:0:0:
308,144,32251,2,0,P|294:191|288:238,1,91.5,10|0,0:0|0:0,0:0:0:0:
384,360,32554,1,2,1:2:0:0:
472,236,32706,1,2,1:2:0:0:
308,336,32857,1,8,0:0:0:0:
487,231,33009,6,0,P|501:278|507:325,1,91.5,2|0,1:2|0:0,0:0:0:0:
330,261,33312,2,0,P|287:243|243:233,1,91.5,2|10,1:2|0:0,0:0:0:0:
388,115,33615,2,0,P|432:104|474:87,1,91.5,2|0,1:2|0:0,0:0:0:0:
304,64,33918,1,2,1:2:0:0:
401,204,34069,1,8,0:0:0:0:
292,48,34221,1,0,0:0:0:0:
240,252,34372,6,0,P|273:280|321:280,1,91.5,2|0,1:2|0:0,0:0:0:0:
201,138,34675,2,0,P|156:137|121:166,1,91.5,10|0,0:0|0:0,0:0:0:0:
153,318,34978,1,2,1:2:0:0:
41,194,35130,1,2,1:2:0:0:
84,380,35281,1,8,0:0:0:0:
188,220,35433,6,0,P|230:237|274:247,1,91.5,2|0,1:2|0:0,0:0:0:0:
402,334,35736,2,0,P|357:344|315:361,1,91.5,2|8,1:2|0:0,0:0:0:0:
352,164,36039,2,0,P|380:200|376:244,1,91.5,2|0,1:2|0:0,0:0:0:0:
188,332,36342,1,2,1:2:0:0:
252,136,36493,1,10,0:0:0:0:
346,320,36645,2,0,P|322:328|294:344,1,45.75,10|8,0:0|0:0,0:0:0:0:
143,209,36796,6,0,L|180:28,1,183,2|10,1:2|0:0,0:0:0:0:
316,151,37251,2,0,B|367:173|409:133|392:128|434:89|483:113,1,183,0|2,0:0|1:2,0:0:0:0:
510,273,37706,1,10,0:0:0:0:
510,273,37857,6,0,P|464:255|420:244,1,91.5,2|0,1:2|0:0,0:0:0:0:
316,372,38160,2,0,P|358:355|402:343,1,91.5,2|10,1:2|0:0,0:0:0:0:
259,216,38463,2,0,P|192:256|196:308,1,137.25,2|0,1:2|0:0,0:0:0:0:
208,336,38766,1,2,1:2:0:0:
373,166,38918,1,8,0:0:0:0:
216,356,39069,1,8,0:0:0:0:
126,182,39221,6,0,P|83:199|39:211,1,91.5,2|0,1:2|0:0,0:0:0:0:
138,33,39524,2,0,P|180:50|224:62,1,91.5,10|0,1:2|0:0,0:0:0:0:
373,166,39827,2,0,P|377:124|345:88,1,91.5,2|0,1:2|0:0,0:0:0:0:
204,240,40130,5,10,0:0:0:0:
204,240,40281,2,0,P|248:251|290:269,1,91.5,6|0,1:2|0:0,0:0:0:0:
436,369,40584,1,2,1:2:0:0:
359,197,40736,1,8,0:0:0:0:
260,355,40887,2,0,P|217:337|173:325,1,91.5,6|0,1:2|0:0,0:0:0:0:
286,151,41190,1,8,1:3:0:0:
345,321,41342,1,8,0:0:0:0:
445,153,41493,1,4,1:3:0:0:
240,250,41645,5,6,1:2:0:0:
240,250,41948,1,10,1:2:0:0:
240,250,42251,5,0,1:0:0:0:
216,167,42402,1,0,1:0:0:0:
192,84,42554,1,10,1:2:0:0:
73,209,42857,5,0,1:0:0:0:
18,145,43009,1,0,1:0:0:0:
85,225,43160,2,0,P|70:270|28:299,1,73.2,10|0,1:2|0:0,0:0:0:0:
109,365,43463,1,0,1:0:0:0:
109,365,43615,1,0,1:0:0:0:
276,193,43766,6,0,P|211:244|232:279,1,109.8,10|0,1:2|0:0,0:0:0:0:
276,321,44069,1,2,1:2:0:0:
276,321,44372,1,10,1:2:0:0:
276,321,44675,5,0,1:0:0:0:
371,366,44827,1,0,1:0:0:0:
441,298,44978,2,0,P|454:243|444:221,1,73.2,10|0,1:2|0:0,0:0:0:0:
340,178,45281,2,0,P|333:213|347:246,1,73.2,0|0,1:0|1:0,0:0:0:0:
403,107,45584,6,0,P|335:90|312:80,1,73.2,10|0,1:2|0:0,0:0:0:0:
261,160,45887,1,0,1:0:0:0:
174,50,46039,1,0,1:0:0:0:
174,50,46190,2,0,P|197:104|192:137,1,73.2,10|0,1:2|1:0,0:0:0:0:
89,189,46493,5,2,1:2:0:0:
89,189,46796,1,10,1:2:0:0:
89,189,47099,5,0,1:0:0:0:
158,241,47251,1,0,1:0:0:0:
227,293,47402,1,10,1:2:0:0:
227,293,47705,6,0,P|275:255|308:257,1,73.2,0|0,1:0|1:0,0:0:0:0:
393,370,48009,2,0,P|358:358|335:330,1,73.2,10|0,1:2|0:0,0:0:0:0:
420,214,48312,2,0,L|409:263,2,36.6,8|8|8,1:3|1:3|1:3,0:0:0:0:
479,153,48615,6,0,P|415:159|376:99,1,109.8,8|0,0:0|0:0,0:0:0:0:
280,55,48918,6,0,P|227:26|148:91,1,164.699994973755,14|0,0:0|0:0,0:0:0:0:
90,185,49221,2,0,P|80:112|37:23,1,164.699994973755,14|0,0:0|0:0,0:0:0:0:
228,125,49524,2,0,P|192:198|179:279,1,164.699994973755,14|0,0:0|0:0,0:0:0:0:
272,365,49827,2,0,B|374:364|298:297|442:306,1,164.699994973755,14|0,0:0|0:0,0:0:0:0:
444,312,50130,5,10,0:0:0:0:
423,61,50281,1,10,0:0:0:0:
423,61,50584,6,0,B|360:33|322:92|334:99|287:149|216:121,1,219.59999329834,14|2,0:0|1:2,0:0:0:0:
66,210,50963,1,2,1:2:0:0:
66,210,51039,2,0,B|101:198|120:178|120:178|164:220|141:269,1,164.699994973755,4|0,0:0|0:0,0:0:0:0:
112,344,51342,6,0,P|164:348|208:312,1,105.225002007008,6|0,0:0|0:0,0:0:0:0:
361,228,51645,2,0,P|345:276|337:332,1,105.225002007008,10|0,0:0|0:0,0:0:0:0:
170,194,51948,2,0,P|118:190|74:226,1,105.225002007008,2|0,1:2|1:0,0:0:0:0:
261,122,52251,1,10,0:0:0:0:
309,314,52402,2,0,P|350:344|401:340,1,105.225002007008,2|0,1:2|0:0,0:0:0:0:
333,213,52705,5,2,1:2:0:0:
216,372,52857,1,10,0:0:0:0:
268,144,53009,1,2,1:2:0:0:
401,340,53160,2,0,P|452:352|500:372,1,105.225002007008,2|0,1:2|1:0,0:0:0:0:
241,237,53463,2,0,P|192:257|141:269,1,105.225002007008,10|0,0:0|0:0,0:0:0:0:
450,268,53766,6,0,P|482:228|478:176,1,105.225002007008,2|0,1:2|0:0,0:0:0:0:
307,137,54069,2,0,P|325:184|372:207,1,105.225002007008,10|0,0:0|0:0,0:0:0:0:
428,13,54372,2,0,P|419:54|405:93,1,84.1799971741334,2|0,1:2|1:0,0:0:0:0:
220,160,54675,1,10,0:0:0:0:
220,160,54827,2,0,P|211:118|197:79,1,84.1799971741334,2|0,1:2|0:0,0:0:0:0:
308,201,55130,5,2,1:2:0:0:
338,20,55281,1,10,0:0:0:0:
304,224,55433,1,2,1:2:0:0:
188,64,55584,5,0,1:0:0:0:
244,288,55736,1,10,0:0:0:0:
376,104,55887,1,0,1:0:0:0:
180,228,56039,1,10,0:0:0:0:
432,328,56190,6,0,P|440:280|456:228,1,100.650003071594,6|0,0:0|0:0,0:0:0:0:
280,126,56493,2,0,P|294:174|303:223,1,100.650003071594,10|0,0:0|0:0,0:0:0:0:
232,364,56796,2,0,P|180:367|140:335,1,100.650003071594,2|0,1:2|1:0,0:0:0:0:
41,205,57099,1,10,0:0:0:0:
41,205,57251,2,0,P|81:172|132:176,1,100.650003071594,2|0,1:2|0:0,0:0:0:0:
287,222,57554,5,2,1:2:0:0:
287,222,57705,2,0,L|189:245,1,100.650003071594,10|0,0:0|1:0,0:0:0:0:
415,361,58009,2,0,L|512:384,1,100.650003071594,2|8,1:2|0:0,0:0:0:0:
295,198,58312,2,0,L|197:221,1,100.650003071594,10|0,0:0|0:0,0:0:0:0:
496,263,58615,2,0,P|524:203|432:131,1,201.300006143189,2|10,1:2|0:0,0:0:0:0:
387,316,59069,5,0,0:0:0:0:
246,155,59221,1,2,1:2:0:0:
284,349,59372,2,0,P|296:288|308:249,1,100.650003071594,2|10,1:2|0:0,0:0:0:0:
192,84,59675,2,0,P|161:117|158:171,1,100.650003071594,6|0,1:2|0:0,0:0:0:0:
396,240,59978,2,0,P|382:196|337:167,1,100.650003071594,4|10,1:0|0:0,0:0:0:0:
126,253,60281,5,4,1:2:0:0:
337,167,60433,1,10,0:0:0:0:
104,240,60584,1,8,1:3:0:0:
284,349,60736,1,8,1:3:0:0:
180,144,60887,1,4,1:3:0:0:
92,352,61039,6,0,P|130:382|179:379,1,100.650003071594,6|0,0:0|0:0,0:0:0:0:
303,224,61342,2,0,P|253:221|215:251,1,100.650003071594,10|0,0:0|0:0,0:0:0:0:
406,384,61645,2,0,P|418:332|434:288,1,100.650003071594,2|0,1:2|1:0,0:0:0:0:
386,148,61948,1,10,0:0:0:0:
215,250,62099,2,0,P|199:176|175:104,1,150.975004607391,2|0,1:2|0:0,0:0:0:0:
163,76,62402,5,2,1:2:0:0:
289,211,62554,1,10,0:0:0:0:
227,19,62705,1,2,1:2:0:0:
68,172,62857,2,0,P|40:132|48:84,1,100.650003071594,2|0,1:2|1:2,0:0:0:0:
269,122,63160,2,0,P|297:162|289:210,1,100.650003071594,10|0,0:0|0:0,0:0:0:0:
119,305,63463,6,0,P|69:314|22:331,1,100.650003071594,2|0,1:2|0:0,0:0:0:0:
215,211,63766,2,0,P|265:221|312:238,1,100.650003071594,10|0,0:0|0:0,0:0:0:0:
111,328,64069,2,0,P|59:338|15:354,1,100.650003071594,2|0,1:2|1:0,0:0:0:0:
84,180,64372,1,10,0:0:0:0:
84,180,64524,2,0,L|60:28,1,150.975004607391,2|0,1:2|0:0,0:0:0:0:
56,8,64827,5,2,1:2:0:0:
0,228,64978,1,10,0:0:0:0:
144,48,65130,1,2,1:2:0:0:
180,272,65281,1,0,1:0:0:0:
65,104,65433,1,10,0:0:0:0:
9,324,65584,2,0,P|56:336|104:360,1,100.650003071594,0|10,1:0|0:0,0:0:0:0:
259,216,65887,6,0,B|316:199|354:249|334:251|372:302|431:288,1,201.300006143189,6|10,0:0|0:0,0:0:0:0:
304,340,66342,1,0,0:0:0:0:
304,340,66493,1,2,1:2:0:0:
436,204,66645,2,0,L|456:104,1,100.650003071594,2|10,1:2|0:0,0:0:0:0:
242,34,66948,6,0,L|261:132,1,100.650003071594,6|0,1:2|0:0,0:0:0:0:
476,16,67251,1,2,1:2:0:0:
412,220,67402,1,10,0:0:0:0:
262,24,67554,2,0,L|281:122,1,100.650003071594,6|0,1:2|0:0,0:0:0:0:
306,305,67857,1,2,1:2:0:0:
152,136,68009,2,0,L|132:234,1,100.650003071594,10|0,0:0|0:0,0:0:0:0:
296,104,68312,5,6,1:2:0:0:
340,280,68463,1,0,1:0:0:0:
288,84,68615,5,4,1:0:0:0:
208,340,68766,1,0,1:0:0:0:
356,160,68918,5,6,1:2:0:0:
415,377,69069,1,0,1:0:0:0:
364,140,69221,5,10,0:0:0:0:
196,372,69372,1,6,1:2:0:0:
288,84,69675,1,10,0:0:0:0:
491,307,70130,5,2,0:0:0:0:
408,280,70281,1,2,0:0:0:0:
325,254,70433,1,4,1:0:0:0:
325,254,70736,6,0,P|275:250|238:300,1,105.225002007008,6|0,0:0|0:0,0:0:0:0:
122,355,71039,2,0,P|150:313|125:256,1,105.225002007008,10|0,0:0|0:0,0:0:0:0:
136,119,71342,2,0,P|157:164|219:171,1,105.225002007008,2|0,1:2|1:0,0:0:0:0:
289,120,71645,1,10,0:0:0:0:
55,283,71796,6,0,L|15:93,1,157.837503010511,2|0,1:2|0:0,0:0:0:0:
31,49,72099,1,2,1:2:0:0:
136,119,72251,1,10,0:0:0:0:
18,40,72402,1,2,1:2:0:0:
149,133,72554,6,0,P|208:133|231:181,1,105.225002007008,2|0,1:2|1:0,0:0:0:0:
199,359,72857,2,0,P|169:307|199:263,1,105.225002007008,10|0,0:0|0:0,0:0:0:0:
338,130,73160,2,0,P|316:205|312:284,1,157.837503010511,2|0,1:2|0:0,0:0:0:0:
356,349,73463,1,10,0:0:0:0:
435,208,73615,1,0,0:0:0:0:
207,65,73766,2,0,P|224:123|231:183,1,105.225002007008,2|0,1:2|1:0,0:0:0:0:
170,237,74069,1,10,0:0:0:0:
301,61,74221,6,0,P|374:57|400:159,1,157.837503010511,2|0,1:2|0:0,0:0:0:0:
411,147,74524,1,2,1:2:0:0:
248,264,74675,1,10,0:0:0:0:
325,139,74827,1,2,1:2:0:0:
297,334,74978,5,0,1:0:0:0:
185,100,75130,1,10,0:0:0:0:
124,360,75281,1,0,1:0:0:0:
233,175,75433,1,10,0:0:0:0:
75,299,75584,6,0,P|126:277|182:312,1,105.225002007008,6|0,0:0|0:0,0:0:0:0:
322,341,75887,2,0,P|329:254|341:217,1,105.225002007008,10|0,0:0|0:0,0:0:0:0:
185,100,76190,2,0,P|195:151|196:203,1,105.225002007008,2|0,1:2|1:0,0:0:0:0:
75,299,76493,1,10,0:0:0:0:
0,195,76645,6,0,P|49:164|95:171,1,105.225002007008,0|0,1:2|0:0,0:0:0:0:
178,278,76948,1,2,1:2:0:0:
178,278,77099,2,0,P|220:307|271:302,1,105.225002007008,8|0,1:2|1:0,0:0:0:0:
420,158,77402,2,0,P|368:153|326:182,1,105.225002007008,2|0,0:0|1:0,0:0:0:0:
417,370,77706,2,0,P|432:290|445:256,1,105.225002007008,10|0,0:0|1:0,0:0:0:0:
264,109,78009,1,4,0:0:0:0:
264,109,78615,6,0,L|282:52,2,50.3250015357972,0|8|4,1:0|1:3|1:3,0:0:0:0:
242,207,79069,6,0,P|175:199|155:177,1,91.5,2|0,1:2|0:0,0:0:0:0:
0,106,79372,2,0,P|37:80|82:83,1,91.5,2|10,1:2|0:0,0:0:0:0:
79,263,79675,2,0,P|66:183|51:153,1,91.5,2|0,1:2|0:0,0:0:0:0:
173,104,79978,1,0,1:2:0:0:
62,173,80130,1,8,0:0:0:0:
137,18,80281,1,0,1:0:0:0:
234,176,80433,6,0,P|280:144|323:150,1,91.5,2|0,1:2|0:0,0:0:0:0:
447,258,80736,2,0,P|402:256|367:228,1,91.5,10|0,0:0|0:0,0:0:0:0:
397,138,81039,1,2,1:2:0:0:
292,258,81190,1,2,1:2:0:0:
410,115,81342,1,10,0:0:0:0:
275,283,81493,6,0,P|212:258|151:262,1,91.5,2|0,1:2|0:0,0:0:0:0:
50,363,81796,2,0,P|103:320|130:266,1,91.5,2|8,1:2|0:0,0:0:0:0:
94,128,82099,2,0,P|103:195|137:245,1,91.5,2|0,1:2|1:0,0:0:0:0:
197,342,82402,1,2,1:2:0:0:
28,262,82554,1,10,0:0:0:0:
205,154,82705,1,8,0:0:0:0:
28,262,82857,6,0,P|21:173|-21:102,1,137.25,2|0,1:2|0:0,0:0:0:0:
37,46,83160,2,0,P|86:12|143:35,1,91.5,8|0,0:0|0:0,0:0:0:0:
205,154,83463,1,0,1:2:0:0:
104,127,83615,1,0,1:2:0:0:
234,43,83766,1,10,0:0:0:0:
116,216,83918,6,0,P|114:150|89:104,1,91.5,2|0,1:2|0:0,0:0:0:0:
181,279,84221,2,0,P|234:276|272:238,1,91.5,2|8,1:2|0:0,0:0:0:0:
408,174,84524,2,0,P|371:148|326:148,1,91.5,2|0,1:2|1:0,0:0:0:0:
338,330,84827,1,2,1:2:0:0:
338,330,84978,2,0,P|354:239|358:224,1,91.5,8|0,0:0|0:0,0:0:0:0:
220,80,85281,6,0,P|237:130|250:178,1,91.5,2|0,1:2|0:0,0:0:0:0:
392,52,85584,2,0,P|323:46|292:78,1,91.5,10|0,1:2|0:0,0:0:0:0:
204,236,85887,2,0,P|245:253|288:240,1,91.5,2|0,1:2|0:0,0:0:0:0:
220,80,86190,1,10,0:0:0:0:
93,152,86342,2,0,P|128:245|133:298,1,137.25,2|0,1:2|0:0,0:0:0:0:
45,384,86645,1,2,1:2:0:0:
45,384,86796,2,0,P|12:323|37:282,1,91.5,10|2,0:0|1:2,0:0:0:0:
184,379,87099,5,8,0:0:0:0:
288,177,87251,1,0,1:0:0:0:
329,340,87402,1,8,0:0:0:0:
211,230,87554,1,0,1:0:0:0:
108,352,87705,6,0,L|88:260,1,91.5,2|0,1:2|0:0,0:0:0:0:
24,120,88009,2,0,L|4:209,1,91.5,10|0,0:0|0:0,0:0:0:0:
148,108,88312,1,2,1:2:0:0:
0,36,88463,1,2,1:2:0:0:
120,184,88615,5,8,0:0:0:0:
168,0,88766,2,0,P|220:16|256:20,1,91.5,2|0,1:2|0:0,0:0:0:0:
372,120,89069,2,0,P|326:125|283:140,1,91.5,2|8,1:2|0:0,0:0:0:0:
156,8,89372,2,0,P|208:24|244:28,1,91.5,2|0,1:2|1:0,0:0:0:0:
380,132,89675,5,2,1:2:0:0:
236,220,89827,1,8,0:0:0:0:
340,48,89978,1,0,0:0:0:0:
392,240,90130,6,0,P|432:268|472:264,1,91.5,2|0,1:2|0:0,0:0:0:0:
348,128,90433,2,0,P|303:124|267:151,1,91.5,10|0,0:0|0:0,0:0:0:0:
444,172,90736,1,2,1:2:0:0:
328,312,90887,1,2,1:2:0:0:
456,160,91039,1,10,0:0:0:0:
440,348,91190,6,0,P|428:304|420:256,1,91.5,2|0,1:2|0:0,0:0:0:0:
280,144,91493,2,0,B|289:189|289:189|265:229,1,91.5,2|10,1:2|0:0,0:0:0:0:
141,301,91796,2,0,P|185:312|230:329,1,91.5,2|0,1:2|1:0,0:0:0:0:
113,201,92099,1,2,1:2:0:0:
61,369,92251,1,10,0:0:0:0:
121,177,92402,1,8,0:0:0:0:
232,352,92554,6,0,B|252:332|284:316|284:316|256:264|256:200,1,183,2|8,1:2|0:0,0:0:0:0:
148,92,93009,2,0,P|68:104|32:192,1,183,0|0,0:0|1:2,0:0:0:0:
120,296,93463,1,10,0:0:0:0:
120,296,93615,2,0,P|132:244|144:208,1,91.5,2|0,1:2|0:0,0:0:0:0:
263,96,93918,2,0,P|275:148|287:184,1,91.5,2|8,1:2|0:0,0:0:0:0:
412,292,94221,2,0,P|380:264|332:268,1,91.5,2|0,1:2|0:0,0:0:0:0:
248,340,94524,1,2,1:2:0:0:
144,207,94675,2,0,P|129:251|120:296,1,91.5,8|8,0:0|0:0,0:0:0:0:
287,184,94978,6,0,P|272:140|262:95,1,91.5,2|0,1:2|0:0,0:0:0:0:
116,24,95281,2,0,P|88:56|92:104,1,91.5,10|0,1:2|0:0,0:0:0:0:
152,240,95584,2,0,P|161:195|176:151,1,91.5,2|0,1:2|0:0,0:0:0:0:
264,64,95887,1,10,0:0:0:0:
356,232,96039,2,0,P|327:266|282:270,1,91.5,6|0,1:2|0:0,0:0:0:0:
352,104,96342,5,2,1:2:0:0:
280,292,96493,1,8,0:0:0:0:
168,128,96645,2,0,P|158:172|143:216,1,91.5,6|0,1:2|0:0,0:0:0:0:
248,52,96948,1,8,1:3:0:0:
340,220,97099,1,8,0:0:0:0:
240,40,97251,1,4,1:3:0:0:
192,248,97402,5,6,1:2:0:0:
192,248,97705,1,10,1:2:0:0:
192,248,98009,5,0,1:0:0:0:
272,276,98160,1,0,1:0:0:0:
352,304,98312,1,10,1:2:0:0:
481,194,98615,5,0,1:0:0:0:
448,286,98766,1,0,1:0:0:0:
488,176,98918,2,0,P|476:136|472:104,1,73.2,10|0,1:2|0:0,0:0:0:0:
388,48,99221,2,0,P|382:84|372:119,1,73.2,0|0,1:0|1:0,0:0:0:0:
284,180,99524,6,0,P|228:160|224:116,1,109.8,10|0,1:2|0:0,0:0:0:0:
248,44,99827,1,2,1:2:0:0:
248,44,100130,1,10,1:2:0:0:
248,44,100433,5,0,1:0:0:0:
164,58,100584,1,0,1:0:0:0:
81,72,100736,2,0,P|64:100|68:140,1,73.2,10|0,1:2|0:0,0:0:0:0:
144,220,101039,6,0,P|149:183|159:148,1,73.2,0|0,1:0|1:0,0:0:0:0:
40,248,101342,2,0,P|50:283|56:320,1,73.2,10|0,1:2|0:0,0:0:0:0:
180,352,101645,2,0,B|221:365|252:331|238:328|269:294|309:310,1,146.4,0|10,1:0|1:2,0:0:0:0:
224,236,102099,1,0,1:0:0:0:
344,190,102251,5,2,1:2:0:0:
344,190,102554,1,10,1:2:0:0:
344,190,102857,1,0,1:0:0:0:
323,108,103009,1,0,1:0:0:0:
303,26,103160,1,10,1:2:0:0:
480,128,103463,5,0,1:0:0:0:
512,40,103615,1,0,1:0:0:0:
474,144,103766,2,0,L|402:128,1,73.2,10|0,1:2|0:0,0:0:0:0:
263,168,104069,1,8,1:3:0:0:
260,180,104145,1,8,1:3:0:0:
257,192,104221,2,0,P|264:212|269:232,1,36.6,8|8,1:3|1:3,0:0:0:0:
360,336,104372,2,0,P|388:304|384:256,1,91.5,8|0,0:0|0:0,0:0:0:0:
208,108,104675,6,0,P|224:152|252:268,1,164.699994973755,14|0,0:0|0:0,0:0:0:0:
184,344,104978,2,0,P|100:320|86:253,1,164.699994973755,14|0,0:0|0:0,0:0:0:0:
188,132,105281,2,0,B|228:120|244:84|244:84|292:76|328:108,1,164.699994973755,14|0,0:0|0:0,0:0:0:0:
432,180,105584,2,0,B|448:160|475:144|475:144|446:100|441:43,1,164.699994973755,14|0,0:0|0:0,0:0:0:0:
440,16,105887,5,10,0:0:0:0:
380,248,106039,1,10,0:0:0:0:
379,247,106342,6,0,B|318:223|272:274|293:278|247:330|184:310,1,219.59999329834,14|2,0:0|1:2,0:0:0:0:
36,248,106721,1,2,1:2:0:0:
40,228,106796,2,0,L|72:64,1,164.699994973755,4|0,0:0|0:0,0:0:0:0:
245,64,107099,6,0,P|178:70|158:122,1,105.225002007008,6|0,0:0|0:0,0:0:0:0:
360,181,107402,2,0,P|371:124|396:66,1,105.225002007008,10|0,0:0|0:0,0:0:0:0:
262,275,107705,2,0,P|252:223|235:174,1,105.225002007008,2|0,1:2|1:0,0:0:0:0:
300,359,108009,1,10,0:0:0:0:
161,93,108160,6,0,P|141:144|131:198,1,105.225002007008,2|0,1:2|0:0,0:0:0:0:
163,296,108463,1,2,1:2:0:0:
31,190,108615,1,10,0:0:0:0:
108,370,108766,1,2,1:2:0:0:
224,176,108918,2,0,P|155:171|124:208,1,105.225002007008,2|0,1:2|1:0,0:0:0:0:
312,301,109221,2,0,P|358:327|409:314,1,105.225002007008,10|0,0:0|0:0,0:0:0:0:
455,122,109524,6,0,P|410:146|396:195,1,105.225002007008,2|0,1:2|0:0,0:0:0:0:
312,301,109827,2,0,P|251:278|205:282,1,105.225002007008,10|0,0:0|0:0,0:0:0:0:
37,210,110130,2,0,P|89:207|137:186,1,105.225002007008,2|0,1:2|1:0,0:0:0:0:
240,45,110433,1,10,0:0:0:0:
240,45,110584,2,0,P|226:134|227:157,1,105.225002007008,2|0,1:2|0:0,0:0:0:0:
192,270,110887,5,2,1:2:0:0:
114,101,111039,1,10,0:0:0:0:
205,294,111190,1,2,1:2:0:0:
329,146,111342,5,0,1:0:0:0:
113,230,111493,1,10,0:0:0:0:
312,166,111645,1,0,1:0:0:0:
120,71,111796,1,10,0:0:0:0:
291,292,111948,6,0,P|370:270|408:301,1,100.650003071594,6|0,0:0|0:0,0:0:0:0:
512,159,112251,2,0,P|463:167|420:142,1,100.650003071594,10|0,0:0|0:0,0:0:0:0:
297,28,112554,2,0,P|306:97|298:163,1,100.650003071594,2|0,1:2|1:0,0:0:0:0:
216,259,112857,1,10,0:0:0:0:
137,101,113009,2,0,P|199:64|230:81,1,100.650003071594,2|0,1:2|0:0,0:0:0:0:
99,242,113312,1,2,1:2:0:0:
99,242,113463,2,0,P|50:247|16:213,1,100.650003071594,10|0,0:0|1:0,0:0:0:0:
197,166,113766,6,0,P|222:213|195:285,1,100.650003071594,2|0,1:2|1:0,0:0:0:0:
296,375,114069,2,0,P|324:329|400:317,1,100.650003071594,10|0,0:0|0:0,0:0:0:0:
508,216,114372,2,0,L|468:11,1,201.300006143189,2|10,1:2|0:0,0:0:0:0:
382,141,114827,1,0,0:0:0:0:
475,3,114978,1,2,1:2:0:0:
374,161,115130,2,0,P|326:146|268:157,1,100.650003071594,2|10,1:2|0:0,0:0:0:0:
190,333,115433,6,0,P|172:236|154:200,1,100.650003071594,6|0,1:2|0:0,0:0:0:0:
69,78,115736,2,0,P|54:126|50:176,1,100.650003071594,4|10,1:0|0:0,0:0:0:0:
78,276,116039,1,4,1:2:0:0:
280,53,116190,6,0,P|275:91|275:133,1,50.3250015357972,10|8,0:0|1:3,0:0:0:0:
171,234,116342,2,0,P|169:208|165:184,1,50.3250015357972,8|8,1:3|1:3,0:0:0:0:
193,37,116493,1,8,1:3:0:0:
326,254,116645,1,4,1:3:0:0:
494,68,116796,6,0,P|453:34|381:57,1,105.225002007008,6|0,0:0|0:0,0:0:0:0:
249,174,117099,2,0,P|300:177|339:144,1,105.225002007008,10|0,0:0|0:0,0:0:0:0:
512,59,117402,2,0,P|471:25|399:48,1,105.225002007008,2|0,1:2|1:0,0:0:0:0:
455,258,117705,1,10,0:0:0:0:
455,258,117857,2,0,P|457:199|476:134,1,105.225002007008,2|0,1:2|0:0,0:0:0:0:
321,10,118160,5,2,1:2:0:0:
244,221,118312,1,10,0:0:0:0:
361,82,118463,1,2,1:2:0:0:
453,257,118615,2,0,P|396:260|351:231,1,105.225002007008,2|0,1:2|1:0,0:0:0:0:
201,120,118918,1,10,0:0:0:0:
201,120,119221,6,0,P|269:139|313:143,1,105.225002007008,2|0,1:2|0:0,0:0:0:0:
110,252,119524,2,0,P|57:259|7:274,1,105.225002007008,10|0,0:0|0:0,0:0:0:0:
197,142,119827,2,0,P|265:161|309:165,1,105.225002007008,2|0,1:2|1:0,0:0:0:0:
393,104,120130,1,10,0:0:0:0:
254,345,120281,2,0,P|246:276|224:222,1,105.225002007008,2|0,1:2|1:0,0:0:0:0:
96,99,120584,1,2,1:2:0:0:
138,238,120736,1,10,0:0:0:0:
214,55,120887,1,2,1:2:0:0:
73,298,121039,5,0,1:0:0:0:
9,93,121190,1,10,0:0:0:0:
155,257,121342,1,0,1:0:0:0:
226,39,121493,1,10,0:0:0:0:
65,325,121645,6,0,P|46:241|-14:162,1,157.837503010511,6|0,0:0|0:0,0:0:0:0:
9,93,121948,2,0,P|57:61|115:83,1,105.225002007008,10|0,0:0|0:0,0:0:0:0:
261,187,122251,1,2,1:2:0:0:
261,187,122402,2,0,P|210:195|169:164,1,105.225002007008,2|10,1:2|0:0,0:0:0:0:
351,31,122705,6,0,P|377:223|377:243,1,210.450004014015,6|2,1:2|1:2,0:0:0:0:
310,360,123160,1,10,0:0:0:0:
488,137,123312,2,0,P|470:193|469:265,1,105.225002007008,6|0,1:2|0:0,0:0:0:0:
399,324,123615,1,2,1:2:0:0:
264,86,123766,2,0,P|282:142|283:214,1,105.225002007008,10|8,0:0|1:3,0:0:0:0:
77,325,124069,5,6,1:2:0:0:
159,131,124221,1,0,1:0:0:0:
188,317,124372,5,4,1:0:0:0:
86,87,124524,1,0,1:0:0:0:
73,358,124675,5,6,1:2:0:0:
174,99,124827,1,0,1:0:0:0:
215,361,124978,5,10,0:0:0:0:
96,67,125130,1,6,1:2:0:0:
0,315,125433,1,10,0:0:0:0:
0,315,125887,5,2,0:0:0:0:
83,288,126039,1,2,0:0:0:0:
170,266,126190,1,4,1:0:0:0:
170,266,126493,6,0,P|204:292|232:320,1,82.3499974868775,6|0,0:0|0:0,0:0:0:0:
244,152,126796,2,0,P|204:168|166:178,1,82.3499974868775,10|0,0:0|0:0,0:0:0:0:
305,273,127099,2,0,P|310:230|320:192,1,82.3499974868775,2|0,1:2|1:0,0:0:0:0:
400,60,127402,5,10,0:0:0:0:
400,60,127554,2,0,P|456:88|464:144,1,123.524996230316,2|0,1:2|0:0,0:0:0:0:
408,200,127857,1,2,1:2:0:0:
300,40,128009,5,10,0:0:0:0:
264,236,128160,1,2,1:2:0:0:
308,20,128312,2,0,P|316:72|324:100,1,82.3499974868775,2|0,1:2|0:0,0:0:0:0:
136,160,128615,2,0,P|146:120|152:79,1,82.3499974868775,10|0,0:0|0:0,0:0:0:0:
280,224,128918,6,0,P|304:260|300:300,1,82.3499974868775,2|0,1:2|0:0,0:0:0:0:
148,340,129221,2,0,P|167:301|203:284,1,82.3499974868775,10|0,0:0|0:0,0:0:0:0:
328,380,129524,1,2,1:2:0:0:
328,380,129675,1,0,1:0:0:0:
272,204,129827,1,10,0:0:0:0:
408,336,129978,6,0,P|416:284|436:216,1,123.524996230316,2|0,1:2|0:0,0:0:0:0:
420,136,130281,1,2,1:2:0:0:
340,260,130433,1,10,0:0:0:0:
497,164,130584,1,2,1:2:0:0:
288,76,130736,5,0,1:0:0:0:
512,56,130887,1,10,0:0:0:0:
291,177,131039,1,0,1:0:0:0:
424,8,131190,1,10,0:0:0:0:
432,228,131342,6,0,P|476:240|512:256,1,82.3499974868775,6|0,0:0|0:0,0:0:0:0:
360,136,131645,2,0,P|316:148|280:164,1,82.3499974868775,10|0,0:0|0:0,0:0:0:0:
428,248,131948,2,0,P|472:260|508:276,1,82.3499974868775,2|0,1:2|1:0,0:0:0:0:
312,324,132251,5,10,0:0:0:0:
312,324,132402,2,0,L|296:244,1,82.3499974868775,2|0,1:2|0:0,0:0:0:0:
204,144,132706,1,2,1:2:0:0:
204,144,132857,2,0,L|188:224,1,82.3499974868775,10|2,0:0|1:2,0:0:0:0:
41,305,133160,2,0,P|13:273|13:233,1,82.3499974868775,2|10,1:2|0:0,0:0:0:0:
75,101,133463,2,0,L|91:181,1,82.3499974868775,10|0,0:0|0:0,0:0:0:0:
188,320,133766,6,0,B|235:335|269:296|254:293|288:254|334:272,1,164.699994973755,2|10,1:2|0:0,0:0:0:0:
446,343,134221,1,0,0:0:0:0:
360,188,134372,1,2,1:2:0:0:
458,366,134524,2,0,P|470:322|482:286,1,82.3499974868775,2|10,1:2|0:0,0:0:0:0:
476,144,134827,1,2,1:2:0:0:
476,144,135130,5,2,1:2:0:0:
396,108,135281,1,10,0:0:0:0:
316,72,135433,1,2,1:2:0:0:
232,188,135584,1,10,0:0:0:0:
234,199,135660,1,0,0:0:0:0:
236,210,135736,2,0,P|256:214|276:222,1,41.1749987434388,8|8,1:3|1:3,0:0:0:0:
188,56,135887,2,0,P|128:72|68:84,1,123.524996230316,10|0,0:0|0:0,0:0:0:0:
0,48,136190,5,6,1:2:0:0:
94,245,136342,1,0,1:0:0:0:
192,68,136493,2,0,P|240:80|264:112,1,91.5,10|2,0:0|1:2,0:0:0:0:
108,104,136796,1,10,0:0:0:0:
316,40,136948,1,2,1:2:0:0:
84,112,137099,1,10,0:0:0:0:
289,217,137251,6,0,P|334:200|378:192,1,91.5,2|10,1:2|0:0,0:0:0:0:
149,303,137554,1,2,1:2:0:0:
264,112,137705,1,10,0:0:0:0:
134,328,137857,1,0,1:0:0:0:
377,225,138009,6,0,P|429:245|425:317,1,137.25,10|0,0:0|0:0,0:0:0:0:
406,333,138312,1,10,0:0:0:0:
468,176,138463,1,2,1:2:0:0:
266,279,138615,6,0,P|258:231|243:189,1,91.5,14|0,0:0|1:0,0:0:0:0:
425,38,138918,2,0,P|409:81|402:126,1,91.5,10|2,0:0|1:2,0:0:0:0:
300,280,139221,1,10,0:0:0:0:
224,104,139372,1,2,1:2:0:0:
224,104,139448,1,2,1:2:0:0:
224,104,139524,1,2,1:2:0:0:
92,248,139675,6,0,L|0:268,1,91.5,2|8,1:2|1:3,0:0:0:0:
152,344,139978,1,4,1:3:0:0:
152,344,140130,2,0,L|244:364,1,91.5,2|0,1:2|0:0,0:0:0:0:
104,232,140433,5,8,1:3:0:0:
268,184,140584,1,4,1:3:0:0:
64,124,140736,1,4,1:0:0:0:
252,180,140887,1,2,0:0:0:0:
128,28,141039,6,0,P|151:111|158:174,1,137.25,6|0,1:2|0:0,0:0:0:0:
58,271,141342,1,10,0:0:0:0:
58,271,141493,2,0,P|106:244|162:263,1,91.5,2|0,0:0|1:0,0:0:0:0:
209,337,141796,2,0,P|257:364|313:345,1,91.5,2|10,1:2|0:0,0:0:0:0:
437,176,142099,6,0,B|322:168|387:248|262:237,1,183,2|2,1:2|1:2,0:0:0:0:
180,178,142554,1,10,0:0:0:0:
402,298,142706,2,0,P|428:188|468:102,1,183,2|2,1:2|1:2,0:0:0:0:
456,31,143160,1,10,0:0:0:0:
329,122,143312,1,2,1:2:0:0:
257,52,143463,6,0,P|208:24|156:43,1,91.5,6|0,1:2|0:0,0:0:0:0:
41,177,143766,2,0,P|85:180|122:154,1,91.5,10|0,0:0|1:0,0:0:0:0:
268,45,144069,2,0,P|219:17|167:36,1,91.5,2|0,1:2|1:0,0:0:0:0:
65,92,144372,1,10,0:0:0:0:
250,265,144524,6,0,P|260:201|281:154,1,91.5,2|0,1:2|0:0,0:0:0:0:
105,337,144827,2,0,P|100:292|86:249,1,91.5,2|10,1:2|0:0,0:0:0:0:
255,154,145130,2,0,P|241:197|236:243,1,91.5,2|0,1:2|1:0,0:0:0:0:
332,93,145433,1,10,0:0:0:0:
411,195,145584,1,10,0:0:0:0:
501,58,145736,1,10,0:0:0:0:
415,227,145887,6,0,B|297:223|372:160|235:152,1,183,2|10,1:0|0:0,0:0:0:0:
176,96,146342,1,2,1:0:0:0:
99,54,146645,1,2,1:0:0:0:
99,54,146948,6,0,L|122:261,1,183,2|0,1:0|1:0,0:0:0:0:
199,334,147402,1,10,0:0:0:0:
271,230,147554,1,2,0:0:0:0:
312,336,147706,5,2,1:2:0:0:
182,178,147857,1,2,1:2:0:0:
224,358,148009,1,10,0:0:0:0:
356,134,148160,1,2,0:0:0:0:
324,358,148312,6,0,P|350:273|441:323,1,183,2|10,1:0|0:0,0:0:0:0:
463,360,148766,1,2,1:0:0:0:
507,241,149069,1,2,1:0:0:0:
507,241,149372,6,0,L|470:40,1,183,2|0,1:0|1:0,0:0:0:0:
396,13,149827,1,10,0:0:0:0:
368,161,149978,1,2,0:0:0:0:
240,20,150130,6,0,P|253:94|251:117,1,91.5,2|0,1:0|1:0,0:0:0:0:
283,126,150357,2,0,P|270:200|272:223,1,91.5,2|0,1:0|0:0,0:0:0:0:
216,288,150584,1,2,1:0:0:0:
80,112,150736,6,2,B|52:76|3:82|3:82|50:47|120:41|179:82|197:135|173:147|192:200|220:236|280:260|340:244|400:192|404:140|380:68|336:40|280:40|280:40|248:84|284:128,1,805.200024572755,6|4,1:0|0:0,1:0:0:0:
12,356,158009,6,0,P|8:324|0:288,1,68.6250026178361,0|0,1:0|0:0,0:0:0:0:
107,244,158312,2,0,P|100:277|96:312,1,68.6250026178361,8|0,0:0|0:0,0:0:0:0:
172,356,158615,2,0,P|208:360|236:344,1,68.6250026178361
296,244,158918,1,8,0:0:0:0:
296,244,159069,2,0,B|332:252|348:284|348:284|376:260|412:268,1,137.250005235672
512,296,159524,6,0,P|504:260|500:228,1,68.6250026178361,8|0,0:0|0:0,0:0:0:0:
440,112,159827,2,0,L|428:180,1,68.6250026178361
296,244,160130,2,0,L|284:176,1,68.6250026178361,8|0,0:0|1:0,0:0:0:0:
228,56,160433,6,0,P|140:56|120:156,1,205.875007853508,0|0,1:0|0:0,0:0:0:0:
236,292,161039,2,0,B|280:284|296:244|296:244|344:232|380:264,1,171.56250654459,0|0,1:0|0:0,0:0:0:0:
396,280,161493,1,6,0:0:0:0:
116,244,161796,1,4,1:0:0:0:
287,19,162099,6,0,P|303:111|323:187,1,171.56250654459,6|8,1:2|0:0,0:0:0:0:
272,264,162554,2,0,B|210:290|160:242|180:236|130:189|71:218,1,219.59999329834,10|2,0:0|0:0,0:0:0:0:
56,224,162933,1,2,0:0:0:0:
44,228,163009,2,0,P|40:252|36:264,1,34.3125013089181,2|0,0:0|0:0,0:0:0:0:
160,136,163160,6,0,P|168:88|136:52,1,100.650003071594,4|0,1:0|0:0,0:0:0:0:
240,184,163463,2,0,P|280:168|336:160,1,100.650003071594,2|0,1:2|1:0,0:0:0:0:
456,180,163766,1,10,0:0:0:0:
292,60,163918,2,0,P|332:76|388:84,1,100.650003071594,2|0,1:2|0:0,0:0:0:0:
256,200,164221,5,2,1:2:0:0:
468,160,164372,1,10,0:0:0:0:
328,276,164524,1,2,1:2:0:0:
388,84,164675,2,0,P|372:132|364:184,1,100.650003071594,2|0,1:2|1:0,0:0:0:0:
231,300,164978,2,0,P|223:250|207:202,1,100.650003071594,10|0,0:0|0:0,0:0:0:0:
136,44,165281,6,0,P|112:86|125:134,1,100.650003071594,2|0,1:2|0:0,0:0:0:0:
279,147,165584,2,0,P|253:105|206:92,1,100.650003071594,10|0,0:0|0:0,0:0:0:0:
44,180,165887,2,0,P|36:224|24:260,1,82.3499974868775,2|0,1:2|1:0,0:0:0:0:
160,348,166190,1,10,0:0:0:0:
160,348,166342,2,0,P|147:308|140:268,1,82.3499974868775,2|0,1:2|0:0,0:0:0:0:
104,116,166645,5,2,1:2:0:0:
24,259,166796,1,10,0:0:0:0:
116,92,166948,1,2,1:2:0:0:
168,304,167099,5,0,1:0:0:0:
24,164,167251,1,10,0:0:0:0:
76,376,167402,1,0,1:0:0:0:
181,157,167554,1,10,0:0:0:0:
376,367,167705,6,0,P|383:326|395:287,1,82.3499974868775,6|0,0:0|0:0,0:0:0:0:
188,143,168009,2,0,P|200:182|207:222,1,82.3499974868775,10|0,0:0|0:0,0:0:0:0:
359,356,168312,2,0,P|366:315|378:276,1,82.3499974868775,2|0,1:2|1:0,0:0:0:0:
491,161,168615,5,10,0:0:0:0:
491,161,168766,2,0,P|455:185|415:181,1,82.3499974868775,2|0,1:2|0:0,0:0:0:0:
280,72,169069,1,2,1:2:0:0:
280,72,169221,2,0,P|320:69|353:93,1,82.3499974868775,10|0,0:0|1:0,0:0:0:0:
232,236,169524,2,0,P|224:195|212:156,1,82.3499974868775,2|0,1:2|1:0,0:0:0:0:
57,50,169827,2,0,P|49:90|37:129,1,82.3499974868775,10|0,0:0|0:0,0:0:0:0:
168,312,170130,6,0,P|244:332|304:280,1,164.699994973755,2|10,1:2|0:0,0:0:0:0:
392,180,170584,1,0,0:0:0:0:
392,180,170736,1,2,1:2:0:0:
464,336,170887,2,0,P|472:292|484:256,1,82.3499974868775,2|10,1:2|0:0,0:0:0:0:
416,96,171190,6,0,P|360:92|328:120,1,100.650003071594,6|0,1:2|0:0,0:0:0:0:
256,284,171493,2,0,P|287:237|279:195,1,100.650003071594,4|10,1:0|0:0,0:0:0:0:
173,51,171796,5,4,1:2:0:0:
392,180,171948,1,10,0:0:0:0:
140,264,172099,5,8,1:3:0:0:
328,119,172251,1,8,1:3:0:0:
86,61,172402,1,4,1:3:0:0:
225,201,172554,6,0,P|235:127|256:74,1,100.650003071594,6|0,0:0|0:0,0:0:0:0:
24,22,172857,2,0,P|37:70|42:120,1,100.650003071594,10|0,0:0|0:0,0:0:0:0:
246,217,173160,2,0,P|256:143|277:90,1,100.650003071594,2|0,1:2|1:0,0:0:0:0:
178,3,173463,1,10,0:0:0:0:
8,229,173615,2,0,P|65:210|115:217,1,100.650003071594,2|0,1:2|0:0,0:0:0:0:
176,309,173918,1,2,1:2:0:0:
383,242,174069,1,10,0:0:0:0:
184,113,174221,1,2,1:2:0:0:
327,361,174372,6,0,L|357:139,1,201.300006143189,2|10,1:2|0:0,0:0:0:0:
309,77,174978,6,0,P|251:64|201:41,1,100.650003071594,2|0,1:2|0:0,0:0:0:0:
386,241,175281,2,0,P|432:221|481:211,1,100.650003071594,10|0,0:0|0:0,0:0:0:0:
301,65,175584,2,0,P|243:52|193:29,1,100.650003071594,2|0,1:2|1:0,0:0:0:0:
402,17,175887,1,10,0:0:0:0:
274,239,176039,2,0,P|255:172|238:129,1,100.650003071594,2|0,1:2|1:0,0:0:0:0:
50,66,176342,1,2,1:2:0:0:
184,234,176493,1,10,0:0:0:0:
0,181,176645,1,2,1:2:0:0:
136,66,176796,5,0,1:0:0:0:
71,304,176948,1,10,0:0:0:0:
196,139,177099,1,0,1:0:0:0:
276,308,177251,1,10,0:0:0:0:
379,80,177402,6,0,P|365:213|367:243,1,150.975004607391,6|0,0:0|0:0,0:0:0:0:
261,373,177705,2,0,P|245:310|223:273,1,100.650003071594,10|0,0:0|0:0,0:0:0:0:
101,150,178009,1,2,1:2:0:0:
35,335,178160,2,0,P|94:318|154:316,1,100.650003071594,2|10,1:2|0:0,0:0:0:0:
150,83,178463,6,0,P|81:70|31:189,1,201.300006143189,6|2,1:2|1:2,0:0:0:0:
180,233,178918,1,10,0:0:0:0:
180,233,179069,2,0,P|232:210|282:210,1,100.650003071594,6|0,1:2|0:0,0:0:0:0:
372,321,179372,1,2,1:2:0:0:
483,125,179524,2,0,L|382:94,1,100.650003071594,10|0,0:0|1:0,0:0:0:0:
236,307,179827,5,6,1:2:0:0:
164,102,179978,1,0,1:0:0:0:
217,335,180130,5,4,1:0:0:0:
307,63,180281,1,0,1:0:0:0:
325,351,180433,5,6,1:2:0:0:
255,134,180584,1,0,1:0:0:0:
306,379,180736,5,10,0:0:0:0:
398,92,180887,1,6,1:2:0:0:
133,361,181190,1,10,0:0:0:0:
133,361,181645,5,2,0:0:0:0:
117,281,181796,1,2,0:0:0:0:
105,205,181948,1,4,1:0:0:0:
105,205,182251,6,0,P|120:160|128:108,1,100.650003071594,6|0,0:0|0:0,0:0:0:0:
274,18,182554,2,0,P|281:67|297:115,1,100.650003071594,10|0,0:0|0:0,0:0:0:0:
120,216,182857,2,0,P|135:171|143:119,1,100.650003071594,2|0,1:2|1:0,0:0:0:0:
362,46,183160,1,10,0:0:0:0:
362,46,183312,2,0,P|434:66|442:134,1,150.975004607391,2|0,1:2|0:0,0:0:0:0:
351,164,183615,5,2,1:2:0:0:
512,25,183766,1,10,0:0:0:0:
424,216,183918,1,2,1:2:0:0:
320,28,184069,5,2,1:2:0:0:
417,239,184221,1,0,1:0:0:0:
476,92,184372,1,10,0:0:0:0:
476,92,184675,6,0,L|496:192,1,100.650003071594,2|0,1:2|0:0,0:0:0:0:
320,272,184978,2,0,L|339:173,1,100.650003071594,10|0,0:0|0:0,0:0:0:0:
488,80,185281,2,0,L|508:180,1,100.650003071594,2|0,1:2|1:0,0:0:0:0:
388,344,185584,1,10,0:0:0:0:
388,344,185736,2,0,P|346:370|261:332,1,150.975004607391,2|0,1:2|0:0,0:0:0:0:
300,256,186039,5,2,1:2:0:0:
132,380,186190,1,10,0:0:0:0:
316,244,186342,1,2,1:2:0:0:
72,186,186493,1,0,1:0:0:0:
260,331,186645,5,10,0:0:0:0:
136,136,186796,1,0,1:0:0:0:
88,364,186948,1,10,0:0:0:0:
156,120,187099,6,0,P|208:116|244:144,1,100.650003071594,6|0,0:0|0:0,0:0:0:0:
196,300,187402,2,0,P|166:256|172:211,1,100.650003071594,10|0,0:0|0:0,0:0:0:0:
332,176,187705,2,0,P|309:223|267:240,1,100.650003071594,2|0,1:2|1:0,0:0:0:0:
156,120,188009,5,10,0:0:0:0:
280,332,188160,1,2,1:2:0:0:
280,332,188463,5,2,1:2:0:0:
312,88,188615,2,0,L|320:32,2,50.3250015357972,8|8|8,1:3|1:3|1:3,0:0:0:0:
356,228,188918,6,0,L|456:256,1,100.650003071594,10|2,0:0|0:0,0:0:0:0:
304,100,189221,2,0,L|204:128,1,100.650003071594,10|0,0:0|1:0,0:0:0:0:
40,177,189524,6,0,B|68:169|91:189|91:189|112:204|159:192,1,100.650003071594,6|0,0:0|0:0,0:0:0:0:
229,271,189827,2,0,P|274:208|265:179,1,100.650003071594,10|0,0:0|0:0,0:0:0:0:
109,285,190130,2,0,P|123:337|127:389,1,100.650003071594,0|0,1:0|1:0,0:0:0:0:
327,289,190433,1,8,0:0:0:0:
327,289,190584,2,0,P|275:275|223:271,1,100.650003071594,4|0,1:2|0:0,0:0:0:0:
350,172,190887,1,0,1:0:0:0:
350,172,191039,2,0,P|400:167|448:153,1,100.650003071594,12|0,0:0|0:0,0:0:0:0:
508,39,191342,6,0,P|461:2|409:19,1,100.650003071594,0|0,1:0|1:0,0:0:0:0:
248,104,191645,2,0,P|296:107|332:73,1,100.650003071594,8|0,0:0|1:0,0:0:0:0:
144,25,191948,2,0,P|165:89|164:140,1,100.650003071594,6|0,1:2|0:0,0:0:0:0:
84,220,192251,1,8,0:0:0:0:
9,114,192402,1,0,0:0:0:0:
80,243,192554,6,0,P|139:218|196:249,1,100.650003071594,0|0,1:0|1:0,0:0:0:0:
251,335,192857,1,8,0:0:0:0:
251,335,193009,2,0,P|269:260|259:220,1,100.650003071594,4|0,1:2|0:0,0:0:0:0:
287,127,193312,1,0,1:0:0:0:
287,127,193463,2,0,P|342:180|382:191,1,100.650003071594,12|0,0:0|0:0,0:0:0:0:
480,263,193766,5,0,1:0:0:0:
497,107,193918,1,0,1:0:0:0:
497,107,193993,1,0,1:0:0:0:
497,107,194069,2,0,L|422:89,1,50.3250015357972,8|0,0:0|0:0,0:0:0:0:
370,207,194221,2,0,L|418:195,1,50.3250015357972,0|0,1:0|0:0,0:0:0:0:
444,21,194372,6,0,P|388:39|389:102,1,100.650003071594,6|0,0:0|0:0,0:0:0:0:
287,127,194675,2,0,P|236:104|186:112,1,100.650003071594,10|0,0:0|0:0,0:0:0:0:
110,183,194978,2,0,P|124:235|125:293,1,100.650003071594,0|0,1:0|1:0,0:0:0:0:
245,354,195281,1,8,0:0:0:0:
245,354,195433,2,0,P|247:303|260:255,1,100.650003071594,4|0,1:2|0:0,0:0:0:0:
92,168,195736,1,0,1:0:0:0:
92,168,195887,2,0,P|106:220|107:278,1,100.650003071594,12|0,0:0|0:0,0:0:0:0:
237,364,196190,6,0,P|302:376|331:346,1,100.650003071594,0|0,1:0|1:0,0:0:0:0:
474,211,196493,2,0,P|431:186|385:203,1,100.650003071594,8|0,0:0|1:0,0:0:0:0:
416,384,196796,2,0,P|420:323|439:266,1,100.650003071594,6|0,1:2|0:0,0:0:0:0:
277,92,197099,5,4,1:0:0:0:
329,298,197251,1,0,1:0:0:0:
261,57,197402,5,4,1:0:0:0:
175,309,197554,1,0,1:0:0:0:
161,31,197705,5,4,1:0:0:0:
250,273,197857,2,0,P|267:211|293:160,1,100.650003071594,6|0,1:2|0:0,0:0:0:0:
381,44,198160,1,0,1:0:0:0:
465,229,198312,2,0,P|408:237|376:205,1,100.650003071594,10|0,0:0|1:0,0:0:0:0:
224,119,198615,2,0,P|262:89|310:100,1,100.650003071594,0|0,1:0|1:0,0:0:0:0:
331,300,198918,5,8,1:3:0:0:
405,90,199069,1,4,1:3:0:0:
328,315,199221,1,6,1:2:0:0:
115,121,199524,5,8,1:3:0:0:
123,194,199624,1,8,1:3:0:0:
132,268,199725,1,4,1:3:0:0:
141,343,199827,1,4,1:3:0:0:
384,82,200130,1,6,0:0:0:0:
256,192,200205,12,6,202857,0:0:0:0:
