osu file format v14

[General]
AudioFilename: audio.mp3
AudioLeadIn: 0
PreviewTime: 58019
Countdown: 0
SampleSet: Soft
StackLeniency: 0.7
Mode: 0
LetterboxInBreaks: 0
WidescreenStoryboard: 0

[Editor]
Bookmarks: 66250,71173
DistanceSpacing: 0.8
BeatDivisor: 4
GridSize: 4
TimelineZoom: 2.1

[Metadata]
Title:graphite/diamond (TV Size)
TitleUnicode:graphite/diamond (TV Size)
Artist:May'n
ArtistUnicode:May'n
Creator:Ujimatsu Chiya
Version:Normal
Source:アズールレーン
Tags:アズレン Azurlane azur lane anime Japanese rock OP opening eINess
BeatmapID:2187431
BeatmapSetID:1046368

[Difficulty]
HPDrainRate:3
CircleSize:3.5
OverallDifficulty:4
ApproachRate:5.2
SliderMultiplier:1.23
SliderTickRate:1

[Events]
//Background and Video events
0,0,"002.jpg",0,0
//Break Periods
2,2328,4158
//Storyboard Layer 0 (Background)
//Storyboard Layer 1 (Fail)
//Storyboard Layer 2 (Pass)
//Storyboard Layer 3 (Foreground)
//Storyboard Layer 4 (Overlay)
//Storyboard Sound Samples

[TimingPoints]
559,307.692307692308,4,2,1,50,1,0
1789,-100,4,2,1,20,0,0
5328,-100,4,2,1,65,0,0
7020,-100,4,2,2,45,0,0
8251,-100,4,2,1,40,0,0
8559,-100,4,2,1,60,0,0
8866,-100,4,2,1,50,0,0
9174,-100,4,2,1,55,0,0
9328,-100,4,2,2,55,0,0
10251,-100,4,2,1,55,0,0
10559,-100,4,2,2,55,0,0
11635,-100,4,2,1,55,0,0
11789,-100,4,2,2,55,0,0
12559,363.636363636364,4,2,1,55,1,0
12740,250,4,2,1,55,1,0
12866,307.692307692308,4,2,1,55,1,0
13173,301.507537688442,4,2,1,55,1,0
13474,-100,4,2,1,55,0,0
13776,-100,4,2,1,55,0,0
14712,307.692307692308,4,2,1,65,1,0
18250,-100,4,2,1,70,0,0
19173,-100,4,2,1,50,0,0
19327,-100,4,2,1,55,0,0
19635,-100,4,2,1,65,0,0
21788,-100,4,2,1,50,0,0
22096,-100,4,2,1,65,0,0
23173,-100,4,2,1,70,0,0
23942,-100,4,2,1,50,0,0
24250,-100,4,2,2,60,0,0
24558,-100,4,2,2,45,0,0
33019,-100,4,2,1,40,0,0
33173,-100,4,2,1,55,0,0
34096,-100,4,2,1,55,0,0
34404,-100,4,2,1,60,0,0
44250,-100,4,2,1,55,0,0
45173,-100,4,2,2,55,0,0
45327,-100,4,2,1,55,0,0
46404,-100,4,2,2,55,0,0
46558,-100,4,2,1,55,0,0
47019,-100,4,2,2,55,0,0
47096,-100,4,2,1,55,0,0
48096,-100,4,2,2,55,0,0
48173,-100,4,2,1,55,0,0
54096,-100,4,2,1,60,0,0
59019,-100,4,2,1,75,0,1
62712,-100,4,2,2,75,0,1
63327,-100,4,2,1,75,0,1
67942,-100,4,2,1,55,0,1
68250,-100,4,2,1,75,0,1
72712,-100,4,2,2,75,0,1
72788,-100,4,2,1,75,0,1
78712,-100,4,2,1,75,0,0
83635,-100,4,2,1,60,0,0
86096,-100,4,2,1,70,0,0

[Colours]
Combo1 : 147,129,2
Combo2 : 255,128,128
Combo3 : 186,164,112
Combo4 : 144,144,144
Combo5 : 250,253,140
Combo6 : 233,134,44

[HitObjects]
256,192,559,12,0,1789,0:0:0:0:
457,94,5328,6,0,P|416:48|358:68,1,123,6|2,0:0|0:0,0:0:0:0:
326,95,5789,2,0,L|313:168,1,61.5,8|2,0:0|0:0,0:0:0:0:
273,183,6097,2,0,L|260:256,1,61.5,8|2,0:0|0:0,0:0:0:0:
217,264,6405,2,0,L|204:337,1,61.5,8|2,0:0|0:0,0:0:0:0:
165,351,6712,1,8,0:0:0:0:
88,288,7020,6,0,L|75:217,1,61.5,2|0,0:0|0:0,0:0:0:0:
39,194,7328,2,0,P|92:187|122:118,1,123,2|0,0:0|0:0,0:0:0:0:
108,82,7789,2,0,L|247:100,1,123,2|0,0:0|0:0,0:0:0:0:
271,70,8251,1,2,0:0:0:0:
362,107,8559,2,0,L|374:36,2,61.5,8|2|2,0:0|0:0|0:0,0:0:0:0:
371,155,9020,1,2,0:0:0:0:
387,201,9174,6,0,L|210:176,2,123,12|2|2,0:0|0:0|0:0,0:0:0:0:
447,279,10097,2,0,P|445:314|429:359,1,61.5,2|2,0:0|0:0,0:0:0:0:
396,366,10405,2,0,L|219:341,1,123,12|2,0:0|0:0,0:0:0:0:
186,303,11020,2,0,P|134:336|64:320,1,123,2|2,0:0|0:0,0:0:0:0:
115,237,11635,6,0,L|140:86,2,123,12|2|2,0:0|0:0|0:0,0:0:0:0:
209,208,12559,2,0,L|224:128,1,61.5,2|2,0:0|0:0,0:0:0:0:
255,112,12866,2,0,P|303:64|374:84,1,123,12|2,0:0|0:0,0:0:0:0:
447,98,13474,1,8,0:0:0:0:
439,196,13776,1,8,0:0:0:0:
181,338,14712,6,0,B|223:345|223:345|254:341|254:341|333:358,1,123,6|8,0:0|0:0,0:0:0:0:
400,361,15327,2,0,P|437:302|375:233,1,123,2|8,0:0|0:0,0:0:0:0:
384,222,15788,2,0,B|342:229|342:229|311:225|311:225|262:235,1,123,6|2,0:0|0:0,0:0:0:0:
214,235,16250,2,0,P|197:186|203:157,1,61.5,8|2,0:0|0:0,0:0:0:0:
215,131,16558,2,0,L|295:141,2,61.5,2|2|8,0:0|0:0|0:0,0:0:0:0:
131,78,17173,6,0,L|142:12,2,61.5,2|0|8,0:0|0:0|0:0,0:0:0:0:
111,123,17635,1,0,0:0:0:0:
91,167,17788,2,0,L|102:241,1,61.5,2|2,0:0|0:0,0:0:0:0:
110,276,18096,1,8,0:0:0:0:
120,324,18250,2,0,P|53:345|7:290,2,123,6|6|6,0:0|0:0|0:0,0:0:0:0:
214,296,19173,1,8,0:0:0:0:
214,296,19327,2,0,L|317:310,1,61.5,2|2,0:0|0:0,0:0:0:0:
314,331,19635,6,0,P|303:273|335:222,1,123,6|10,0:0|0:0,0:0:0:0:
428,256,20250,2,0,L|445:326,2,61.5,2|2|8,0:0|0:0|0:0,0:0:0:0:
454,218,20712,2,0,L|473:65,1,123,6|2,0:0|0:0,0:0:0:0:
477,47,21173,1,8,0:0:0:0:
381,23,21481,2,0,L|306:32,1,61.5,2|2,0:0|0:0,0:0:0:0:
271,38,21788,1,8,0:0:0:0:
182,80,22096,6,0,P|202:118|204:149,1,61.5,6|2,0:0|0:0,0:0:0:0:
169,171,22404,2,0,P|126:169|98:155,1,61.5,8|2,0:0|0:0,0:0:0:0:
63,144,22712,2,0,L|80:68,2,61.5,2|2|8,0:0|0:0|0:0,0:0:0:0:
17,163,23173,2,0,L|35:303,1,123,6|6,0:0|0:0,0:0:0:0:
100,356,23788,1,6,0:0:0:0:
100,356,23942,2,0,P|174:358|229:313,1,123,6|2,0:0|0:0,0:0:0:0:
307,303,24558,6,0,L|458:333,1,123,2|2,0:0|0:0,0:0:0:0:
475,338,25019,1,2,0:0:0:0:
511,246,25327,2,0,P|500:209|473:172,1,61.5,2|2,0:0|0:0,0:0:0:0:
455,152,25635,2,0,P|399:141|331:185,1,123,2|0,0:0|0:0,0:0:0:0:
316,212,26096,1,2,0:0:0:0:
230,163,26404,2,0,B|242:117|242:117|236:86|236:86|251:25,1,123,2|2,0:0|0:0,0:0:0:0:
148,46,27019,6,0,B|137:88|137:88|143:119|143:119|131:165,1,123,2|2,0:0|0:0,0:0:0:0:
121,214,27481,1,2,0:0:0:0:
65,295,27788,2,0,P|27:285|-5:281,2,61.5,2|2|2,0:0|0:0|0:0,0:0:0:0:
96,333,28250,2,0,P|157:329|237:319,1,123,2|2,0:0|0:0,0:0:0:0:
252,289,28712,2,0,P|314:295|397:311,1,123,2|2,0:0|0:0,0:0:0:0:
414,332,29173,1,2,0:0:0:0:
502,288,29481,6,0,L|482:123,1,123,2|2,0:0|0:0,0:0:0:0:
481,116,29942,1,2,0:0:0:0:
413,44,30250,1,2,0:0:0:0:
352,121,30558,2,0,P|293:135|241:106,1,123,2|0,0:0|0:0,0:0:0:0:
205,73,31019,2,0,P|152:43|94:58,1,123,2|2,0:0|0:0,0:0:0:0:
28,132,31635,1,2,0:0:0:0:
65,222,31942,6,0,L|200:205,1,123,2|0,0:0|0:0,0:0:0:0:
267,263,32558,2,0,L|389:278,1,123,2|0,0:0|0:0,0:0:0:0:
433,257,33019,1,2,0:0:0:0:
476,234,33173,2,0,L|492:158,1,61.5,8|2,0:0|0:0,0:0:0:0:
458,134,33481,2,0,L|442:58,1,61.5,8|2,0:0|0:0,0:0:0:0:
433,25,33788,1,8,0:0:0:0:
337,49,34096,1,8,0:0:0:0:
243,80,34404,6,0,L|222:250,1,123,6|8,0:0|0:0,0:0:0:0:
197,241,34865,2,0,P|255:226|307:256,1,123,2|2,0:0|0:0,0:0:0:0:
319,304,35327,1,8,0:0:0:0:
301,349,35481,2,0,P|248:378|190:364,1,123,2|2,0:0|0:0,0:0:0:0:
150,335,35942,1,8,0:0:0:0:
76,268,36250,2,0,L|1:280,2,61.5,2|2|8,0:0|0:0|0:0,0:0:0:0:
134,188,36865,6,0,B|66:176|66:176|26:139,1,123,2|8,0:0|0:0,0:0:0:0:
12,91,37327,1,0,0:0:0:0:
87,27,37635,1,2,0:0:0:0:
87,27,37788,2,0,L|170:41,1,61.5,8|2,0:0|0:0,0:0:0:0:
190,61,38096,6,0,P|262:29|306:52,1,123,0|8,0:0|0:0,0:0:0:0:
354,126,38712,1,2,0:0:0:0:
401,113,38865,2,0,L|415:36,2,61.5,2|8|2,0:0|0:0|0:0,0:0:0:0:
447,129,39327,6,0,L|462:217,1,61.5,6|0,0:0|0:0,0:0:0:0:
434,233,39635,2,0,L|423:293,1,61.5,8|0,0:0|0:0,0:0:0:0:
415,342,39942,2,0,P|346:310|288:324,1,123,2|8,0:0|0:0,0:0:0:0:
261,345,40404,1,2,0:0:0:0:
167,314,40712,2,0,L|145:244,1,61.5,2|8,0:0|0:0,0:0:0:0:
130,209,41019,1,0,0:0:0:0:
119,112,41327,2,0,P|150:110|178:123,2,61.5,2|8|0,0:0|0:0|0:0,0:0:0:0:
73,129,41788,6,0,L|46:6,1,123,6|8,0:0|0:0,0:0:0:0:
141,34,42404,2,0,P|209:52|251:94,1,123,8|8,0:0|0:0,0:0:0:0:
287,176,43019,1,6,0:0:0:0:
263,219,43173,2,0,L|182:201,2,61.5,0|8|2,0:0|0:0|0:0,0:0:0:0:
273,267,43635,2,0,P|265:322|209:359,1,123,8|2,0:0|0:0,0:0:0:0:
122,321,44250,6,0,L|99:177,1,123,6|0,0:0|0:0,0:0:0:0:
59,110,44865,1,8,0:0:0:0:
148,69,45173,2,0,P|181:67|210:90,1,61.5,2|0,0:0|0:0,0:0:0:0:
244,112,45481,2,0,P|253:64|268:3,2,92.25,2|2|2,0:0|0:0|0:0,0:0:0:0:
245,161,46096,1,8,0:0:0:0:
341,141,46404,1,2,0:0:0:0:
433,173,46712,6,0,P|440:140|450:92,2,61.5,6|8|2,0:0|0:0|0:0,0:0:0:0:
449,219,47173,1,2,0:0:0:0:
473,261,47327,2,0,P|407:250|334:240,1,123,12|0,0:0|0:0,0:0:0:0:
256,217,47942,2,0,L|271:293,1,61.5,6|2,0:0|0:0,0:0:0:0:
255,325,48250,2,0,P|214:312|169:307,1,61.5,0|2,0:0|0:0,0:0:0:0:
149,291,48558,2,0,P|118:297|89:307,2,61.5,8|8|2,0:0|0:0|0:0,0:0:0:0:
119,196,49173,5,6,0:0:0:0:
175,114,49481,2,0,L|241:126,1,61.5,0|2,0:0|0:0,0:0:0:0:
279,106,49788,2,0,P|327:69|387:74,1,123,8|2,0:0|0:0,0:0:0:0:
430,99,50250,1,2,0:0:0:0:
478,91,50404,2,0,L|493:6,2,61.5,2|8|0,0:0|0:0|0:0,0:0:0:0:
444,183,51019,6,0,L|458:242,1,61.5,8|8,0:0|0:0,0:0:0:0:
470,290,51327,1,2,0:0:0:0:
396,355,51635,2,0,L|362:211,1,123,6|2,0:0|0:0,0:0:0:0:
313,153,52250,2,0,P|259:123|266:45,1,123,12|2,0:0|0:0,0:0:0:0:
159,34,52865,2,0,B|93:20|112:79|46:66,1,123,6|0,0:0|0:0,0:0:0:0:
27,162,53481,2,0,L|48:222,1,61.5,8|2,0:0|0:0,0:0:0:0:
90,243,53788,2,0,P|143:222|174:221,1,61.5,8|0,0:0|0:0,0:0:0:0:
196,216,54096,6,0,L|179:358,1,123,6|8,0:0|0:0,0:0:0:0:
276,310,54712,2,0,L|290:187,1,123,2|8,0:0|0:0,0:0:0:0:
318,147,55173,2,0,P|380:139|423:201,1,123,6|2,0:0|0:0,0:0:0:0:
431,227,55635,1,8,0:0:0:0:
398,319,55942,2,0,L|460:333,2,61.5,8|2|8,0:0|0:0|0:0,0:0:0:0:
352,339,56404,6,0,B|282:363|232:327|232:327|234:278|191:245|191:245|138:246|101:286|101:286|74:231|97:189|97:189|88:150|28:132,1,492,8|8,0:0|0:0,0:0:0:0:
347,61,59019,6,0,L|328:197,1,123,6|8,0:0|0:0,0:0:0:0:
404,247,59635,1,2,0:0:0:0:
404,247,59788,2,0,L|414:322,1,61.5,2|8,0:0|0:0,0:0:0:0:
388,351,60096,2,0,P|323:318|260:337,1,123,2|2,0:0|0:0,0:0:0:0:
234,353,60558,1,8,0:0:0:0:
151,300,60865,1,2,0:0:0:0:
135,253,61019,2,0,L|60:269,2,61.5,2|8|0,0:0|0:0|0:0,0:0:0:0:
163,212,61481,6,0,P|177:153|132:111,1,123,6|8,0:0|0:0,0:0:0:0:
40,135,62096,2,0,P|34:105|43:75,1,61.5,2|2,0:0|0:0,0:0:0:0:
72,35,62404,2,0,P|96:16|126:11,1,61.5,8|2,0:0|0:0,0:0:0:0:
172,28,62712,6,0,P|233:39|309:49,1,123,2|2,0:0|1:2,0:0:0:0:
381,90,63327,2,0,L|376:17,2,61.5,2|2|8,0:0|0:0|0:0,0:0:0:0:
423,115,63788,1,8,0:0:0:0:
464,140,63942,2,0,L|449:269,1,123,6|8,0:0|0:0,0:0:0:0:
362,308,64558,2,0,P|371:346|371:370,2,61.5,2|2|8,0:0|0:0|0:0,0:0:0:0:
327,272,65019,6,0,B|257:265|272:318|174:280,1,123,2|2,0:0|0:0,0:0:0:0:
162,270,65481,1,8,0:0:0:0:
132,363,65788,2,0,P|81:326|63:268,1,123,2|8,0:0|0:0,0:0:0:0:
78,224,66250,2,0,B|66:175|66:175|50:154|50:154|32:84,1,123,2|0,0:0|0:0,0:0:0:0:
24,61,66712,1,8,0:0:0:0:
118,87,67019,2,0,B|125:120|125:120|150:151,2,61.5,8|2|8,0:0|0:0|0:0,0:0:0:0:
138,41,67481,6,0,P|195:31|293:29,1,123,2|2,0:0|0:0,0:0:0:0:
304,48,67942,1,2,0:0:0:0:
396,15,68250,2,0,P|395:86|322:140,1,123,8|8,0:0|0:0,0:0:0:0:
344,170,68712,2,0,P|419:154|514:155,1,123,2|0,0:0|0:0,0:0:0:0:
503,182,69173,1,8,0:0:0:0:
459,270,69481,1,2,0:0:0:0:
459,270,69635,2,0,L|475:351,1,61.5,2|8,0:0|0:0,0:0:0:0:
435,364,69942,6,0,P|356:334|268:341,1,123,2|0,0:0|0:0,0:0:0:0:
269,342,70404,1,8,0:0:0:0:
203,268,70712,1,2,0:0:0:0:
203,268,70865,2,0,P|236:247|278:243,1,61.5,2|8,0:0|0:0,0:0:0:0:
305,231,71173,2,0,P|242:213|224:141,1,123,2|0,0:0|0:0,0:0:0:0:
239,118,71635,1,8,0:0:0:0:
209,24,71942,2,0,L|148:33,1,61.5,2|2,0:0|0:0,0:0:0:0:
115,71,72250,2,0,L|54:61,1,61.5,8|0,0:0|0:0,0:0:0:0:
15,91,72558,5,4,0:0:0:0:
15,91,72712,2,0,L|28:227,1,123,2|2,0:0|0:0,0:0:0:0:
33,262,73173,1,2,0:0:0:0:
102,331,73481,2,0,L|187:322,1,61.5,8|0,0:0|0:0,0:0:0:0:
195,287,73788,6,0,P|268:263|322:289,1,123,6|8,0:0|0:0,0:0:0:0:
402,309,74404,2,0,L|392:371,2,61.5,2|2|8,0:0|0:0|0:0,0:0:0:0:
443,282,74865,2,0,P|465:210|414:175,1,123,2|0,0:0|0:0,0:0:0:0:
392,166,75327,1,8,0:0:0:0:
311,109,75635,2,0,B|261:119|261:119|242:144|242:144|166:166,1,123,2|8,0:0|0:0,0:0:0:0:
166,188,76096,1,2,0:0:0:0:
85,244,76404,6,0,P|93:273|95:304,2,61.5,0|8|0,0:0|0:0|0:0,0:0:0:0:
43,217,76865,2,0,L|57:129,1,61.5,2|0,0:0|0:0,0:0:0:0:
90,124,77173,2,0,L|76:36,1,61.5,8|0,0:0|0:0,0:0:0:0:
115,28,77481,2,0,P|166:25|267:42,1,123,6|8,0:0|0:0,0:0:0:0:
322,86,78096,2,0,L|335:26,2,61.5,8|8|8,0:0|0:0|0:0,0:0:0:0:
311,134,78558,1,2,0:0:0:0:
311,134,78712,6,0,P|405:113|444:147,1,123,6|8,0:0|0:0,0:0:0:0:
510,79,79327,2,0,P|498:157|491:237,1,123,8|2,0:0|0:0,0:0:0:0:
500,249,79788,2,0,P|423:234|330:224,1,123,6|8,0:0|0:0,0:0:0:0:
335,251,80250,1,0,0:0:0:0:
243,288,80558,2,0,L|260:364,2,61.5,8|2|8,0:0|0:0|0:0,0:0:0:0:
228,240,81019,1,2,0:0:0:0:
216,191,81173,6,0,P|237:118|163:35,2,184.5,6|6|6,0:0|0:0|0:0,0:0:0:0:
136,133,82404,1,8,0:0:0:0:
30,353,83635,6,0,L|178:334,1,123,6|2,0:0|0:0,0:0:0:0:
238,289,84250,2,0,L|359:304,1,123,8|2,0:0|0:0,0:0:0:0:
396,337,84712,1,2,0:0:0:0:
396,337,84865,2,0,P|383:260|395:202,1,123,6|0,0:0|0:0,0:0:0:0:
443,133,85481,2,0,L|519:120,2,61.5,8|2|8,0:0|0:0|0:0,0:0:0:0:
399,108,85942,1,2,0:0:0:0:
361,76,86096,6,0,L|240:98,1,123,8|2,0:0|0:0,0:0:0:0:
193,79,86558,2,0,P|224:146|183:224,1,123,8|2,0:0|0:0,0:0:0:0:
172,219,87019,2,0,L|89:205,1,61.5,12|10,0:0|0:0,0:0:0:0:
