osu file format v14

[General]
AudioFilename: audio.ogg
AudioLeadIn: 0
PreviewTime: 59994
Countdown: 0
SampleSet: Soft
StackLeniency: 0.7
Mode: 3
LetterboxInBreaks: 0
SpecialStyle: 0
WidescreenStoryboard: 1

[Editor]
Bookmarks: 42456
DistanceSpacing: 1
BeatDivisor: 4
GridSize: 32
TimelineZoom: 1.2

[Metadata]
Title:graphite/diamond (TV Size)
TitleUnicode:graphite/diamond (TV Size)
Artist:May'n
ArtistUnicode:May'n
Creator:Savageeeee
Version:Normal
Source:アズールレーン
Tags:darkebluu bladeextreme anime opening op japanese j pop jpop j-pop rock jrock j-rock female vocal 碧蓝航线 Azur Lane Project the animation AL 中林芽依 Nakabayashi Mei Mayn XNST-10014 JUVENILE Ryuichi Takagi 高木龍一 Dream Monster たかぎ りゅういち StrayCats 藤林聖子 Seiko Fujibayashi 白戸佑輔 Yusuke Shirato
BeatmapID:3944868
BeatmapSetID:1912365

[Difficulty]
HPDrainRate:7.5
CircleSize:4
OverallDifficulty:7.5
ApproachRate:5
SliderMultiplier:1.4
SliderTickRate:1

[Events]
//Background and Video events
0,0,"BG.jpg",0,0
Video,2326,"video.mp4"
//Break Periods
//Storyboard Layer 0 (Background)
//Storyboard Layer 1 (Fail)
//Storyboard Layer 2 (Pass)
//Storyboard Layer 3 (Foreground)
//Storyboard Layer 4 (Overlay)
//Storyboard Sound Samples
Sample,7593,0,"SVF_D5sss.wav",60
Sample,7747,0,"SVF_A5sss.wav",60
Sample,7747,0,"tom2.wav",60
Sample,7901,0,"SVF_F5sss.wav",60
Sample,8055,0,"SVF_A5sss.wav",60
Sample,8055,0,"tom2.wav",60
Sample,8209,0,"SVF_F5sss.wav",60
Sample,8362,0,"SVF_A5sss.wav",60
Sample,8362,0,"tom2.wav",60
Sample,8516,0,"SVF_A5sss.wav",60
Sample,8670,0,"Hat Open.wav",15
Sample,8670,0,"SVF_C5sss.wav",60
Sample,8670,0,"SVF_G5sss.wav",60
Sample,10209,0,"SVF_F6sss.wav",60
Sample,10362,0,"SVF_E6sss.wav",60
Sample,10516,0,"SVF_C6sss.wav",60
Sample,12055,0,"SVF_E6sss.wav",60
Sample,12209,0,"SVF_A5sss.wav",60
Sample,12362,0,"SVF_F6sss.wav",60
Sample,14670,0,"SVF_A5sss.wav",60
Sample,14978,0,"SVF_A5sss.wav",60
Sample,15132,0,"SVF_F6sss.wav",60
Sample,15439,0,"SVF_G6sss.wav",60
Sample,15593,0,"SVF_A5sss.wav",60
Sample,15901,0,"SVF_A5sss.wav",60
Sample,17275,0,"SVF_A5ss.ogg",60
Sample,17275,0,"soft-hitnormal.wav",60
Sample,17275,0,"Hat Open.wav",15
Sample,17736,0,"SVF_C6sss.wav",60
Sample,18044,0,"SVF_A5sss.wav",60
Sample,18506,0,"Hat Open.wav",15
Sample,18506,0,"SVF_G5sss.wav",60
Sample,18660,0,"soft-hitnormal.wav",60
Sample,18660,0,"SVF_F5ss.ogg",60
Sample,19429,0,"SVF_D5sss.wav",60
Sample,19736,0,"SVF_F5sss.wav",60
Sample,19736,0,"Hat Open.wav",15
Sample,19890,0,"SVF_A5sss.wav",60
Sample,20198,0,"Hat Open.wav",15
Sample,20198,0,"LR_RBell_G#5.wav",55
Sample,20198,0,"SVF_E6sss.wav",60
Sample,20506,0,"SVF_F6sss.wav",60
Sample,20506,0,"Hat Open.wav",15
Sample,20813,0,"tom3.wav",40
Sample,20813,0,"Hat Open.wav",15
Sample,21583,0,"LR_RBell_F#5.wav",55
Sample,22198,0,"Hat Open.wav",15
Sample,22660,0,"finishver2.wav",40
Sample,23429,0,"Hat Open.wav",15
Sample,23736,0,"SVF_F6sss.wav",60
Sample,24044,0,"SVF_A#4sss.wav",60
Sample,24352,0,"SVF_D5sss.wav",60
Sample,24506,0,"SVF_A#4sss.wav",60
Sample,24660,0,"SVF_F5sss.wav",60
Sample,24967,0,"SVF_F5sss.wav",60
Sample,24967,0,"tom2.wav",40
Sample,25121,0,"SVF_E6sss.wav",60
Sample,25121,0,"LR_RBell_G#5.wav",55
Sample,25429,0,"SVF_F6sss.wav",60
Sample,25736,0,"SVF_E6sss.wav",60
Sample,25890,0,"SVF_E6sss.wav",60
Sample,36967,0,"Hat Close.wav",25
Sample,38198,0,"soft-hitnormal.wav",60
Sample,38198,0,"SVF_G#5ss.ogg",60
Sample,38198,0,"Hat Close.wav",25
Sample,38813,0,"SVF_D#5s.ogg",60
Sample,38813,0,"soft-hitnormal.wav",60
Sample,38813,0,"Hat Close.wav",25
Sample,39429,0,"Hat Close.wav",25
Sample,40660,0,"Hat Close.wav",25
Sample,41275,0,"SVF_C5s.ogg",60
Sample,41275,0,"soft-hitnormal.wav",60
Sample,41275,0,"Hat Open.wav",15
Sample,41890,0,"Hat Close.wav",25
Sample,43121,0,"soft-hitnormal.wav",60
Sample,43121,0,"Hat Close.wav",25
Sample,43121,0,"SVF_D#5ss.ogg",60
Sample,43736,0,"SVF_D#5s.ogg",60
Sample,44352,0,"Hat Open.wav",15
Sample,44967,0,"finishver2.wav",40
Sample,45890,0,"SVF_G5sss.wav",60
Sample,46198,0,"LR_RBell_A5.wav",55
Sample,47429,0,"LR_RBell_G5.wav",55
Sample,47429,0,"Hat Open.wav",15
Sample,48660,0,"LR_RBell_C6.wav",55
Sample,48660,0,"Hat Open.wav",15
Sample,49275,0,"LR_RBell_C#6.wav",55
Sample,49890,0,"LR_RBell_D6.wav",55
Sample,49890,0,"Hat Open.wav",15
Sample,50813,0,"tom2.wav",40
Sample,50813,0,"LR_RBell_E6.wav",55
Sample,52044,0,"Hat Open.wav",15
Sample,52352,0,"LR_RBell_E6.wav",55
Sample,52352,0,"Hat Open.wav",15
Sample,53275,0,"tom2.wav",40
Sample,54198,0,"LR_RBell_B5.wav",55
Sample,54506,0,"Hat Open.wav",15
Sample,56044,0,"SVF_G#5sss.wav",60
Sample,56352,0,"SVF_G#5sss.wav",60
Sample,56660,0,"Hat Open.wav",15
Sample,56813,0,"SVF_C6sss.wav",60
Sample,57121,0,"finishver2.wav",40
Sample,57583,0,"SVF_D6sss.wav",60
Sample,57890,0,"SVF_G6sss.wav",60
Sample,57890,0,"Hat Open.wav",15
Sample,58198,0,"SVF_D6sss.wav",60
Sample,58352,0,"SVF_E6sss.wav",60
Sample,59121,0,"tom3.wav",40
Sample,59121,0,"SVF_E6sss.wav",60
Sample,59275,0,"SVF_F6sss.wav",60
Sample,59275,0,"tom3.wav",40
Sample,59429,0,"tom3.wav",40
Sample,59429,0,"SVF_F#6sss.wav",60
Sample,59583,0,"SVF_G6sss.wav",60
Sample,60967,0,"LR_RBell_C5.wav",55
Sample,61583,0,"Hat Open.wav",15
Sample,62813,0,"SVF_G6sss.wav",60
Sample,62813,0,"Hat Open.wav",15
Sample,63121,0,"SVF_D#6sss.wav",60
Sample,63429,0,"SVF_D#6ss.ogg",60
Sample,63429,0,"LR_RBell_D5.wav",55
Sample,63429,0,"Hat Open.wav",15
Sample,64044,0,"Hat Open.wav",15
Sample,64044,0,"SVF_D#6sss.wav",60
Sample,64352,0,"SVF_A#5sss.wav",60
Sample,64506,0,"SVF_A#5sss.wav",60
Sample,64660,0,"SVF_G5sss.wav",60
Sample,64813,0,"SVF_G5sss.wav",60
Sample,64967,0,"Hat Open.wav",15
Sample,65275,0,"Hat Open.wav",15
Sample,65736,0,"SVF_F5sss.wav",60
Sample,65890,0,"LR_RBell_E5.wav",55
Sample,66506,0,"Hat Open.wav",15
Sample,67275,0,"SVF_D#5sss.wav",60
Sample,67736,0,"Hat Open.wav",15
Sample,69275,0,"SVF_G6sss.wav",60
Sample,69429,0,"SVF_G#6sss.wav",60
Sample,69736,0,"SVF_G#6sss.wav",60
Sample,69890,0,"SVF_D#6sss.wav",60
Sample,70044,0,"SVF_G6sss.wav",60
Sample,70198,0,"SVF_D#6sss.wav",60
Sample,70352,0,"SVF_D#6sss.wav",60
Sample,70506,0,"SVF_C#6sss.wav",60
Sample,70813,0,"SVF_G#5s.ogg",60
Sample,70813,0,"LR_RBell_C5.wav",55
Sample,71429,0,"Hat Open.wav",15
Sample,72044,0,"Hat Open.wav",15
Sample,72352,0,"SVF_F5sss.wav",60
Sample,72660,0,"Hat Open.wav",15
Sample,72660,0,"soft-hitnormal.wav",60
Sample,72660,0,"SVF_C6ss.ogg",60
Sample,73275,0,"SVF_C#6ss.ogg",60
Sample,73275,0,"soft-hitnormal.wav",60
Sample,73275,0,"Hat Open.wav",15
Sample,73275,0,"LR_RBell_D5.wav",55
Sample,73890,0,"Hat Open.wav",15
Sample,73890,0,"SVF_D#6ss.ogg",60
Sample,73890,0,"soft-hitnormal.wav",60
Sample,74506,0,"SVF_G6sss.wav",60
Sample,74506,0,"Hat Open.wav",15
Sample,75121,0,"Hat Open.wav",15
Sample,75429,0,"SVF_C#6sss.wav",60
Sample,76352,0,"Hat Open.wav",15
Sample,76967,0,"SVF_G6ss.ogg",60
Sample,76967,0,"Hat Open.wav",15
Sample,76967,0,"soft-hitnormal.wav",60
Sample,77583,0,"Hat Open.wav",15
Sample,77583,0,"soft-hitnormal.wav",60
Sample,77583,0,"SVF_D#6ss.ogg",60
Sample,78198,0,"soft-hitnormal.wav",60
Sample,78198,0,"LR_RBell_C6.wav",55
Sample,78198,0,"SVF_A#5ss.ogg",60
Sample,78198,0,"Hat Open.wav",15
Sample,78813,0,"SVF_G#5sss.wav",60
Sample,78813,0,"Hat Open.wav",15
Sample,79121,0,"SVF_D#6sss.wav",60
Sample,79429,0,"Hat Open.wav",15
Sample,79736,0,"SVF_G#4sss.wav",60
Sample,79890,0,"SVF_C5sss.wav",60
Sample,80044,0,"SVF_D#5sss.wav",60
Sample,80198,0,"SVF_G5sss.wav",60
Sample,80660,0,"LR_RBell_C5.wav",55
Sample,80967,0,"Hat Open.wav",15
Sample,81583,0,"Hat Open.wav",15
Sample,83121,0,"finishver2.wav",40
Sample,83121,0,"LR_RBell_E5.wav",60
Sample,84352,0,"SVF_C6sss.wav",60
Sample,85890,0,"Hat Open.wav",15
Sample,86198,0,"SVF_F5sss.wav",60
Sample,86813,0,"SVF_F5sss.wav",60
Sample,87429,0,"SVF_F5sss.wav",60
Sample,88044,0,"SVF_F5sss.wav",60
Sample,88044,0,"LR_RBell_A4.wav",55
Sample,89121,0,"SVF_F5sss.wav",60

[TimingPoints]
1286,307.692307692308,4,2,1,40,1,0
16660,307.692307692308,4,2,1,40,1,0
60967,-100,4,2,1,40,0,1
80660,-100,4,2,1,40,0,0

[HitObjects]
448,192,2516,128,0,3747:0:0:0:0:
64,192,4362,1,0,0:0:0:0:
192,192,4516,1,0,0:0:0:0:
320,192,4824,128,0,5286:0:0:0:0:
64,192,5286,1,0,0:0:0:0:
448,192,5593,1,0,0:0:0:0:
320,192,5747,1,0,0:0:0:0:
192,192,6055,128,0,6516:0:0:0:0:
448,192,6516,1,0,0:0:0:0:
448,192,6824,1,0,0:0:0:0:
64,192,6978,128,0,7286:0:0:0:0:
192,192,7286,1,6,0:0:0:0:
320,192,7286,1,0,0:0:0:60:SVF_A5sss.wav
448,192,7593,1,0,0:0:0:60:tom2.wav
448,192,7747,1,2,0:0:0:0:
192,192,7901,1,0,0:0:0:60:tom2.wav
192,192,8055,1,2,0:0:0:0:
320,192,8209,1,0,0:0:0:60:tom2.wav
320,192,8362,1,2,0:0:0:0:
64,192,8516,1,0,0:0:0:60:tom2.wav
64,192,8670,1,2,0:0:0:0:
192,192,8670,1,0,0:0:0:60:tom3.wav
448,192,8978,1,0,0:0:0:60:SVF_E5sss.wav
320,192,9132,1,0,0:0:0:60:SVF_C5sss.wav
192,192,9286,128,0,9593:0:0:0:60:SVF_F5sss.wav
320,192,9593,1,0,0:0:0:60:SVF_C5sss.wav
64,192,9747,128,0,10055:0:0:0:60:SVF_F5sss.wav
192,192,10055,1,0,0:0:0:60:SVF_C6sss.wav
448,192,10209,128,2,10516:0:0:0:0:
320,192,10362,1,2,0:0:0:0:
64,192,10516,1,8,0:0:0:0:
192,192,10516,1,0,0:0:0:25:Hat Open.wav
320,192,10670,1,0,0:0:0:60:SVF_F6sss.wav
64,192,10824,1,0,0:0:0:60:SVF_E6sss.wav
192,192,10978,1,0,0:0:0:60:SVF_C6sss.wav
320,192,11132,1,6,0:0:0:0:
448,192,11132,1,0,0:0:0:60:SVF_D6sss.wav
192,192,11439,1,0,0:0:0:60:SVF_D6sss.wav
320,192,11747,1,0,0:0:0:60:SVF_E6sss.wav
448,192,12055,1,2,0:0:0:0:
320,192,12209,128,2,12362:0:0:0:0:
64,192,12362,1,8,0:0:0:0:
192,192,12362,1,4,0:0:0:40:finishver2.wav
448,192,12670,1,0,0:0:0:60:SVF_F6sss.wav
320,192,12978,1,0,0:0:0:60:SVF_G6sss.wav
192,192,13286,1,0,0:0:0:60:SVF_A6sss.wav
64,192,13593,1,6,0:0:0:0:
448,192,13593,1,0,0:0:0:60:SVF_D6sss.wav
320,192,13901,1,0,0:0:0:60:SVF_D6sss.wav
192,192,14209,1,0,0:0:0:60:SVF_E6sss.wav
64,192,14516,1,0,0:0:0:60:SVF_E6sss.wav
192,192,14670,128,2,14824:0:0:0:0:
320,192,14824,1,8,0:0:0:0:
448,192,14824,1,0,0:0:0:60:SVF_F6sss.wav
64,192,14978,1,8,0:0:0:0:
448,192,15132,128,2,15286:0:0:0:0:
64,192,15286,1,8,0:0:0:0:
192,192,15286,1,0,0:0:0:60:SVF_A5sss.wav
320,192,15439,1,8,0:0:0:0:
64,192,15593,128,2,15747:0:0:0:0:
320,192,15747,1,8,0:0:0:0:
448,192,15747,128,0,15901:0:0:0:60:SVF_A6sss.wav
192,192,15901,128,8,16055:0:0:0:0:
64,192,16660,128,6,16967:0:0:0:0:
448,192,16660,1,0,0:0:0:60:SVF_D6ss.ogg
192,192,16967,1,8,0:0:0:0:
320,192,16967,1,0,0:0:0:15:Hat Open.wav
448,192,17275,1,2,0:0:0:0:
320,192,17429,1,2,0:0:0:0:
64,192,17583,1,8,0:0:0:0:
192,192,17583,1,0,0:0:0:0:
320,192,17736,1,2,0:0:0:0:
448,192,17736,128,4,18044:0:0:0:40:finishver2.wav
64,192,18044,1,2,0:0:0:0:
320,192,18198,1,8,0:0:0:0:
448,192,18198,1,0,0:0:0:15:Hat Open.wav
192,192,18352,1,0,0:0:0:60:SVF_G#5sss.wav
320,192,18506,1,2,0:0:0:0:
64,192,18660,1,2,0:0:0:0:
192,192,18813,1,8,0:0:0:0:
448,192,18813,1,0,0:0:0:15:Hat Open.wav
320,192,18967,1,0,0:0:0:0:
64,192,19121,1,6,0:0:0:0:
192,192,19121,1,0,0:0:0:60:SVF_F5sss.wav
448,192,19275,1,0,0:0:0:60:SVF_A4sss.wav
64,192,19429,1,8,0:0:0:0:
320,192,19429,1,0,0:0:0:15:Hat Open.wav
192,192,19583,1,0,0:0:0:60:SVF_E5sss.wav
320,192,19736,1,2,0:0:0:0:
192,192,19890,1,2,0:0:0:0:
64,192,20044,1,8,0:0:0:0:
448,192,20044,1,0,0:0:0:60:SVF_D6sss.wav
320,192,20198,1,2,0:0:0:0:
64,192,20506,1,8,0:0:0:0:
192,192,20506,1,0,0:0:0:40:tom3.wav
320,192,20813,1,8,0:0:0:0:
448,192,20813,128,0,21121:0:0:0:60:SVF_E6ss.ogg
64,192,21121,128,8,21275:0:0:0:0:
192,192,21275,128,10,21429:0:0:0:0:
320,192,21429,128,2,21583:0:0:0:0:
64,192,21583,128,6,21890:0:0:0:0:
448,192,21583,1,0,0:0:0:60:SVF_D6s.ogg
320,192,21890,1,8,0:0:0:0:
448,192,21890,1,0,0:0:0:15:Hat Open.wav
192,192,22198,1,2,0:0:0:0:
320,192,22352,1,2,0:0:0:0:
64,192,22506,1,8,0:0:0:0:
448,192,22506,1,0,0:0:0:0:
192,192,22660,128,2,22967:0:0:0:0:
320,192,22660,1,0,0:0:0:60:SVF_F6s.ogg
448,192,22967,1,2,0:0:0:0:
64,192,23121,1,8,0:0:0:0:
320,192,23121,1,0,0:0:0:15:Hat Open.wav
192,192,23275,1,0,0:0:0:0:
448,192,23429,1,2,0:0:0:0:
320,192,23583,1,2,0:0:0:0:
64,192,23736,1,8,0:0:0:0:
192,192,23736,1,0,0:0:0:15:Hat Open.wav
320,192,23890,1,0,0:0:0:60:SVF_F6sss.wav
64,192,24044,1,6,0:0:0:0:
448,192,24044,128,0,24352:0:0:0:60:SVF_A6s.ogg
192,192,24352,1,8,0:0:0:0:
320,192,24352,1,0,0:0:0:15:Hat Open.wav
64,192,24506,1,2,0:0:0:0:
320,192,24660,1,8,0:0:0:0:
448,192,24660,1,0,0:0:0:15:Hat Open.wav
192,192,24813,1,0,0:0:0:60:SVF_A#4sss.wav
448,192,24967,1,2,0:0:0:0:
64,192,25121,1,8,0:0:0:0:
320,192,25121,1,0,0:0:0:40:tom2.wav
64,192,25429,1,8,0:0:0:0:
192,192,25429,1,0,0:0:0:40:tom2.wav
320,192,25736,1,8,0:0:0:0:
448,192,25736,1,0,0:0:0:40:tom2.wav
64,192,25890,1,8,0:0:0:0:
192,192,25890,1,0,0:0:0:40:tom2.wav
320,192,26044,1,0,0:0:0:40:tom1.wav
64,192,26198,1,8,0:0:0:0:
448,192,26198,1,4,0:0:0:40:finishver2.wav
192,192,26506,1,0,0:0:0:55:LR_RBell_F#5.wav
320,192,26660,1,0,0:0:0:0:
64,192,26813,128,0,26967:0:0:0:0:
448,192,27121,1,0,0:0:0:0:
192,192,27275,128,0,27429:0:0:0:0:
320,192,27583,1,0,0:0:0:0:
64,192,27736,128,0,27890:0:0:0:0:
448,192,28044,1,0,0:0:0:0:
192,192,28198,128,0,28352:0:0:0:0:
320,192,28506,1,0,0:0:0:0:
64,192,28660,128,0,28967:0:0:0:0:
448,192,28967,1,0,0:0:0:55:LR_RBell_C#5.wav
192,192,29121,1,0,0:0:0:0:
320,192,29275,128,0,29429:0:0:0:0:
64,192,29583,1,0,0:0:0:0:
448,192,29736,128,0,29890:0:0:0:0:
192,192,30044,1,0,0:0:0:0:
320,192,30198,128,0,30352:0:0:0:0:
64,192,30506,1,0,0:0:0:0:
448,192,30660,128,0,30813:0:0:0:0:
192,192,30967,1,0,0:0:0:0:
320,192,31121,128,0,31429:0:0:0:0:
64,192,31429,1,0,0:0:0:55:LR_RBell_A5.wav
448,192,31583,1,0,0:0:0:0:
192,192,31736,128,0,31890:0:0:0:0:
320,192,32044,1,0,0:0:0:0:
64,192,32198,128,0,32352:0:0:0:0:
448,192,32506,1,0,0:0:0:0:
192,192,32660,128,0,32813:0:0:0:0:
320,192,32967,1,0,0:0:0:0:
64,192,33121,128,0,33275:0:0:0:0:
448,192,33429,1,0,0:0:0:0:
192,192,33583,128,0,33890:0:0:0:0:
320,192,33890,1,0,0:0:0:55:LR_RBell_E5.wav
64,192,34044,1,0,0:0:0:0:
448,192,34198,128,0,34352:0:0:0:0:
192,192,34506,1,0,0:0:0:0:
320,192,34660,128,0,34813:0:0:0:0:
64,192,34967,128,0,35121:0:0:0:0:
320,192,35121,1,8,0:0:0:0:
448,192,35121,1,0,0:0:0:0:
192,192,35429,1,8,0:0:0:0:
320,192,35429,1,0,0:0:0:0:
64,192,35736,1,8,0:0:0:0:
192,192,35736,1,4,0:0:0:40:finishver2.wav
64,192,36044,1,8,0:0:0:0:
448,192,36044,1,4,0:0:0:40:finishver2.wav
192,192,36352,1,2,0:0:0:0:
320,192,36352,1,4,0:0:0:0:
64,192,36660,1,8,0:0:0:0:
448,192,36660,1,0,0:0:0:25:Hat Close.wav
192,192,36967,1,0,0:0:0:60:SVF_F5ss.ogg
320,192,37121,1,2,0:0:0:0:
64,192,37275,1,8,0:0:0:0:
192,192,37275,1,0,0:0:0:25:Hat Close.wav
448,192,37429,1,2,0:0:0:0:
64,192,37736,1,2,0:0:0:0:
192,192,37890,1,8,0:0:0:0:
320,192,37890,1,0,0:0:0:25:Hat Close.wav
448,192,38198,1,2,0:0:0:0:
192,192,38352,1,2,0:0:0:0:
320,192,38506,1,8,0:0:0:0:
448,192,38506,128,0,38813:0:0:0:15:Hat Open.wav
64,192,38813,1,2,0:0:0:0:
192,192,39121,1,8,0:0:0:0:
320,192,39121,1,0,0:0:0:25:Hat Close.wav
448,192,39429,1,2,0:0:0:0:
320,192,39583,1,2,0:0:0:0:
64,192,39736,1,8,0:0:0:0:
192,192,39736,1,0,0:0:0:25:Hat Close.wav
320,192,39890,1,2,0:0:0:0:
64,192,40198,1,2,0:0:0:0:
192,192,40352,1,8,0:0:0:0:
448,192,40352,1,0,0:0:0:25:Hat Close.wav
320,192,40660,1,2,0:0:0:0:
192,192,40813,1,2,0:0:0:0:
64,192,40967,1,8,0:0:0:0:
320,192,40967,1,0,0:0:0:25:Hat Close.wav
448,192,41121,128,8,41275:0:0:0:0:
192,192,41275,1,2,0:0:0:0:
64,192,41583,1,8,0:0:0:0:
448,192,41583,1,0,0:0:0:25:Hat Close.wav
192,192,41890,1,2,0:0:0:0:
320,192,42044,1,2,0:0:0:0:
192,192,42198,1,8,0:0:0:0:
448,192,42198,1,0,0:0:0:25:Hat Close.wav
64,192,42352,1,2,0:0:0:0:
320,192,42660,1,2,0:0:0:0:
64,192,42813,1,8,0:0:0:0:
192,192,42813,1,0,0:0:0:25:Hat Close.wav
448,192,43121,1,2,0:0:0:0:
320,192,43275,1,2,0:0:0:0:
64,192,43429,128,8,43736:0:0:0:0:
192,192,43429,1,4,0:0:0:40:finishver2.wav
320,192,43736,1,6,0:0:0:0:
448,192,43736,1,0,0:0:0:60:SVF_D#5s.ogg
64,192,44044,1,8,0:0:0:0:
192,192,44044,1,0,0:0:0:15:Hat Open.wav
448,192,44352,1,2,0:0:0:0:
192,192,44506,1,8,0:0:0:0:
320,192,44506,1,0,0:0:0:0:
64,192,44660,1,8,0:0:0:0:
448,192,44660,1,0,0:0:0:15:Hat Open.wav
320,192,44813,1,0,0:0:0:0:
64,192,44967,128,2,45275:0:0:0:0:
192,192,44967,1,0,0:0:0:60:SVF_E5ss.ogg
320,192,45275,1,8,0:0:0:0:
448,192,45275,1,0,0:0:0:15:Hat Open.wav
192,192,45429,1,2,0:0:0:0:
64,192,45583,1,8,0:0:0:0:
448,192,45583,128,0,46198:0:0:0:60:SVF_F5sss.wav
320,192,45736,1,0,0:0:0:40:tom1.wav
192,192,45890,1,0,0:0:0:40:tom2.wav
64,192,46198,1,6,0:0:0:0:
320,192,46198,1,0,0:0:0:60:SVF_F5ss.ogg
192,192,46506,1,0,0:0:0:15:Hat Open.wav
320,192,46660,128,2,46813:0:0:0:0:
64,192,46813,1,8,0:0:0:0:
448,192,46813,1,0,0:0:0:15:Hat Open.wav
192,192,47121,1,0,0:0:0:15:Hat Open.wav
448,192,47429,1,2,0:0:0:0:
448,192,47660,1,2,0:0:0:0:
448,192,47890,1,2,0:0:0:0:
64,192,48044,1,8,0:0:0:0:
192,192,48044,1,0,0:0:0:15:Hat Open.wav
320,192,48352,1,0,0:0:0:15:Hat Open.wav
64,192,48660,1,2,0:0:0:0:
192,192,48813,1,8,0:0:0:0:
448,192,48813,1,0,0:0:0:0:
320,192,49121,128,2,49275:0:0:0:0:
64,192,49275,1,8,0:0:0:0:
192,192,49275,1,0,0:0:0:15:Hat Open.wav
448,192,49583,1,0,0:0:0:15:Hat Open.wav
64,192,49890,1,2,0:0:0:0:
64,192,50121,1,2,0:0:0:0:
64,192,50352,1,2,0:0:0:0:
320,192,50506,1,8,0:0:0:0:
448,192,50506,1,0,0:0:0:55:LR_RBell_D#6.wav
192,192,50660,1,0,0:0:0:40:tom1.wav
320,192,50813,1,2,0:0:0:0:
64,192,51121,1,6,0:0:0:0:
448,192,51121,1,0,0:0:0:55:LR_RBell_F6.wav
192,192,51429,1,0,0:0:0:15:Hat Open.wav
320,192,51583,128,2,51736:0:0:0:0:
64,192,51736,1,8,0:0:0:0:
192,192,51736,1,0,0:0:0:15:Hat Open.wav
448,192,52044,1,2,0:0:0:0:
192,192,52198,128,8,52352:0:0:0:0:
320,192,52352,1,2,0:0:0:0:
64,192,52506,1,8,0:0:0:0:
448,192,52506,1,0,0:0:0:0:
192,192,52660,1,0,0:0:0:15:Hat Open.wav
320,192,52813,128,2,52967:0:0:0:0:
64,192,52967,1,8,0:0:0:0:
192,192,52967,1,0,0:0:0:55:LR_RBell_B5.wav
448,192,53121,1,0,0:0:0:40:tom1.wav
320,192,53275,1,2,0:0:0:0:
64,192,53583,1,6,0:0:0:0:
448,192,53583,128,0,53890:0:0:0:55:LR_RBell_A5.wav
320,192,53890,1,0,0:0:0:15:Hat Open.wav
192,192,54044,1,2,0:0:0:0:
64,192,54198,128,8,54506:0:0:0:0:
448,192,54198,1,0,0:0:0:15:Hat Open.wav
320,192,54506,1,2,0:0:0:0:
64,192,54813,1,6,0:0:0:0:
448,192,54813,128,0,55121:0:0:0:55:LR_RBell_C#6.wav
192,192,54967,1,8,0:0:0:0:
320,192,55121,1,0,0:0:0:15:Hat Open.wav
192,192,55275,128,2,55429:0:0:0:0:
64,192,55429,1,8,0:0:0:0:
320,192,55429,1,0,0:0:0:40:tom2.wav
448,192,55583,128,2,55736:0:0:0:0:
64,192,55736,1,8,0:0:0:0:
192,192,55736,1,0,0:0:0:40:tom3.wav
64,192,56044,1,6,0:0:0:0:
448,192,56044,1,0,0:0:0:55:LR_RBell_F6.wav
192,192,56352,1,8,0:0:0:0:
320,192,56352,1,0,0:0:0:15:Hat Open.wav
64,192,56660,1,2,0:0:0:0:
192,192,56813,1,2,0:0:0:0:
320,192,56967,1,8,0:0:0:0:
448,192,56967,1,0,0:0:0:15:Hat Open.wav
64,192,57121,1,2,0:0:0:0:
192,192,57121,128,0,57429:0:0:0:60:SVF_D6ss.ogg
320,192,57429,1,2,0:0:0:0:
64,192,57583,1,8,0:0:0:0:
448,192,57583,1,0,0:0:0:15:Hat Open.wav
192,192,57736,1,2,0:0:0:0:
320,192,57890,1,8,0:0:0:0:
448,192,57890,128,0,58044:0:0:0:40:tom1.wav
64,192,58044,128,8,58198:0:0:0:0:
320,192,58198,128,10,58352:0:0:0:0:
192,192,58352,128,8,58506:0:0:0:0:
64,192,58506,1,6,0:0:0:0:
448,192,58506,1,0,0:0:0:60:SVF_E6sss.wav
320,192,58660,1,0,0:0:0:60:SVF_F6sss.wav
64,192,58813,1,8,0:0:0:0:
192,192,58813,1,0,0:0:0:40:tom2.wav
448,192,58967,128,2,59121:0:0:0:0:
192,192,59121,1,8,0:0:0:0:
192,192,59275,1,8,0:0:0:0:
320,192,59429,1,8,0:0:0:0:
64,192,59583,1,2,0:0:0:0:
448,192,59583,1,0,0:0:0:15:Hat Open.wav
64,192,60967,1,6,0:0:0:0:
448,192,60967,1,0,0:0:0:60:SVF_C6s.ogg
192,192,61275,1,8,0:0:0:0:
320,192,61275,1,0,0:0:0:15:Hat Open.wav
448,192,61583,1,2,0:0:0:0:
320,192,61736,1,2,0:0:0:0:
64,192,61890,1,8,0:0:0:0:
192,192,61890,1,0,0:0:0:15:Hat Open.wav
448,192,62044,1,2,0:0:0:0:
192,192,62352,1,2,0:0:0:0:
320,192,62506,1,8,0:0:0:0:
448,192,62506,1,0,0:0:0:15:Hat Open.wav
64,192,62813,1,2,0:0:0:0:
192,192,62967,1,2,0:0:0:0:
320,192,63121,1,8,0:0:0:0:
448,192,63121,1,0,0:0:0:15:Hat Open.wav
64,192,63429,1,2,0:0:0:0:
448,192,63429,1,0,0:0:0:60:SVF_D#6ss.ogg
192,192,63736,1,8,0:0:0:0:
320,192,63736,1,0,0:0:0:15:Hat Open.wav
64,192,64044,1,2,0:0:0:0:
192,192,64198,1,2,0:0:0:0:
320,192,64352,1,8,0:0:0:0:
448,192,64352,1,0,0:0:0:15:Hat Open.wav
64,192,64506,1,2,0:0:0:0:
448,192,64660,128,0,64813:0:0:0:15:Hat Open.wav
320,192,64813,128,2,64967:0:0:0:0:
192,192,64967,128,8,65121:0:0:0:0:
448,192,64967,1,0,0:0:0:60:SVF_D#5ss.ogg
64,192,65121,128,0,65275:0:0:0:0:
320,192,65275,1,2,0:0:0:0:
192,192,65429,1,2,0:0:0:0:
320,192,65583,1,8,0:0:0:0:
448,192,65583,1,0,0:0:0:60:SVF_D#5sss.wav
64,192,65736,128,8,65890:0:0:0:0:
192,192,65890,1,6,0:0:0:0:
448,192,65890,1,0,0:0:0:60:SVF_G5s.ogg
64,192,66198,1,8,0:0:0:0:
320,192,66198,1,0,0:0:0:15:Hat Open.wav
192,192,66506,1,2,0:0:0:0:
320,192,66660,1,2,0:0:0:0:
64,192,66813,1,8,0:0:0:0:
192,192,66813,1,0,0:0:0:15:Hat Open.wav
448,192,66967,1,2,0:0:0:0:
64,192,67275,1,2,0:0:0:0:
320,192,67429,1,8,0:0:0:0:
448,192,67429,1,0,0:0:0:15:Hat Open.wav
192,192,67736,1,2,0:0:0:0:
320,192,67890,1,2,0:0:0:0:
64,192,68044,1,8,0:0:0:0:
448,192,68044,1,0,0:0:0:15:Hat Open.wav
192,192,68352,1,6,0:0:0:0:
320,192,68352,1,0,0:0:0:55:LR_RBell_C6.wav
64,192,68660,1,8,0:0:0:0:
448,192,68660,1,0,0:0:0:15:Hat Open.wav
192,192,68813,1,2,0:0:0:0:
320,192,68967,1,8,0:0:0:0:
448,192,68967,1,0,0:0:0:15:Hat Open.wav
192,192,69121,1,2,0:0:0:0:
64,192,69275,1,8,0:0:0:0:
448,192,69275,1,0,0:0:0:15:Hat Open.wav
192,192,69429,1,2,0:0:0:0:
320,192,69429,1,0,0:0:0:40:finishver2.wav
448,192,69736,128,8,69890:0:0:0:0:
64,192,69890,128,8,70044:0:0:0:0:
320,192,70044,128,2,70198:0:0:0:0:
192,192,70198,128,0,70352:0:0:0:40:tom1.wav
448,192,70352,128,0,70506:0:0:0:40:tom2.wav
64,192,70506,1,8,0:0:0:0:
320,192,70506,1,0,0:0:0:60:SVF_C#6sss.wav
64,192,70813,1,6,0:0:0:0:
448,192,70813,1,0,0:0:0:60:SVF_G#5s.ogg
192,192,71121,1,10,0:0:0:0:
320,192,71121,1,0,0:0:0:15:Hat Open.wav
64,192,71429,1,2,0:0:0:0:
192,192,71583,1,0,0:0:0:0:
320,192,71736,1,10,0:0:0:0:
448,192,71736,1,0,0:0:0:15:Hat Open.wav
64,192,71890,1,0,0:0:0:0:
448,192,72044,1,2,0:0:0:0:
320,192,72198,1,0,0:0:0:0:
64,192,72352,1,10,0:0:0:0:
192,192,72352,1,0,0:0:0:15:Hat Open.wav
320,192,72660,1,2,0:0:0:0:
192,192,72813,1,0,0:0:0:0:
64,192,72967,1,10,0:0:0:0:
448,192,72967,1,0,0:0:0:15:Hat Open.wav
320,192,73121,1,0,0:0:0:0:
192,192,73275,1,2,0:0:0:0:
448,192,73429,1,0,0:0:0:0:
64,192,73583,1,10,0:0:0:0:
192,192,73583,1,0,0:0:0:15:Hat Open.wav
320,192,73890,1,2,0:0:0:0:
64,192,74044,1,0,0:0:0:0:
192,192,74198,1,10,0:0:0:0:
448,192,74198,1,0,0:0:0:15:Hat Open.wav
320,192,74352,1,0,0:0:0:0:
64,192,74506,128,2,74660:0:0:0:0:
192,192,74660,128,0,74813:0:0:0:60:SVF_G#6sss.wav
320,192,74813,1,10,0:0:0:0:
448,192,74813,1,0,0:0:0:15:Hat Open.wav
64,192,74967,128,0,75275:0:0:0:60:SVF_D#6sss.wav
192,192,75121,1,2,0:0:0:0:
448,192,75275,128,0,75429:0:0:0:60:SVF_C6sss.wav
64,192,75429,1,10,0:0:0:0:
320,192,75429,128,0,75583:0:0:0:15:Hat Open.wav
192,192,75583,128,0,75736:0:0:0:60:SVF_D#6s.ogg
64,192,75736,1,6,0:0:0:0:
448,192,75736,1,0,0:0:0:55:LR_RBell_E5.wav
192,192,76044,1,10,0:0:0:0:
320,192,76044,1,0,0:0:0:15:Hat Open.wav
448,192,76352,1,2,0:0:0:0:
320,192,76506,1,0,0:0:0:0:
64,192,76660,1,10,0:0:0:0:
192,192,76660,1,0,0:0:0:15:Hat Open.wav
448,192,76813,1,0,0:0:0:0:
64,192,76967,1,2,0:0:0:0:
192,192,77121,1,0,0:0:0:0:
320,192,77275,1,10,0:0:0:0:
448,192,77275,1,0,0:0:0:15:Hat Open.wav
192,192,77583,1,2,0:0:0:0:
320,192,77736,1,0,0:0:0:0:
64,192,77890,1,10,0:0:0:0:
448,192,77890,1,0,0:0:0:15:Hat Open.wav
320,192,78198,1,2,0:0:0:0:
192,192,78352,1,0,0:0:0:0:
64,192,78506,1,10,0:0:0:0:
448,192,78506,1,0,0:0:0:15:Hat Open.wav
320,192,78660,1,0,0:0:0:0:
192,192,78813,1,2,0:0:0:0:
64,192,78967,1,0,0:0:0:0:
320,192,79121,1,10,0:0:0:0:
448,192,79121,1,0,0:0:0:15:Hat Open.wav
192,192,79275,1,0,0:0:0:60:SVF_G#5sss.wav
448,192,79429,1,2,0:0:0:0:
64,192,79583,1,0,0:0:0:60:SVF_G#5sss.wav
192,192,79736,1,10,0:0:0:0:
320,192,79736,1,0,0:0:0:40:finishver2.wav
448,192,79890,128,8,80044:0:0:0:0:
192,192,80044,1,8,0:0:0:0:
64,192,80198,128,2,80352:0:0:0:0:
320,192,80352,1,8,0:0:0:0:
448,192,80352,1,0,0:0:0:60:SVF_G#5sss.wav
64,192,80660,1,6,0:0:0:0:
448,192,80660,128,0,80967:0:0:0:60:SVF_G#5s.ogg
192,192,80967,1,2,0:0:0:0:
64,192,81275,128,8,81583:0:0:0:0:
320,192,81275,1,0,0:0:0:15:Hat Open.wav
448,192,81583,1,2,0:0:0:0:
192,192,81736,1,2,0:0:0:0:
320,192,82044,1,8,0:0:0:0:
448,192,82044,1,0,0:0:0:0:
192,192,82352,1,2,0:0:0:0:
64,192,82506,1,8,0:0:0:0:
320,192,82506,1,0,0:0:0:15:Hat Open.wav
448,192,82660,1,2,0:0:0:0:
64,192,82813,1,8,0:0:0:0:
192,192,82813,1,0,0:0:0:15:Hat Open.wav
320,192,82967,1,2,0:0:0:0:
64,192,83121,1,8,0:0:0:0:
448,192,83121,1,0,0:0:0:60:SVF_C6s.ogg
192,192,83275,1,2,0:0:0:0:
192,192,83429,1,2,0:0:0:0:
320,192,83583,1,4,0:0:0:0:
448,192,83583,1,8,0:0:0:0:
64,192,83736,1,2,0:0:0:0:
64,192,83890,1,2,0:0:0:0:
192,192,84044,1,8,0:0:0:0:
448,192,84044,1,0,0:0:0:40:finishver2.wav
320,192,84198,1,2,0:0:0:0:
64,192,84352,1,2,0:0:0:0:
192,192,84352,1,0,0:0:0:25:Hat Open.wav
320,192,85275,1,0,0:0:0:0:
192,192,85429,1,0,0:0:0:0:
64,192,85583,1,6,0:0:0:0:
448,192,85583,1,0,0:0:0:60:SVF_F5sss.wav
320,192,85890,1,2,0:0:0:0:
64,192,86198,1,8,0:0:0:0:
192,192,86198,1,0,0:0:0:15:Hat Open.wav
448,192,86506,1,0,0:0:0:15:Hat Open.wav
192,192,86660,128,2,86813:0:0:0:0:
64,192,86813,1,2,0:0:0:0:
320,192,86813,1,0,0:0:0:15:Hat Open.wav
448,192,87121,1,0,0:0:0:15:Hat Open.wav
192,192,87275,1,2,0:0:0:0:
320,192,87429,1,8,0:0:0:0:
448,192,87429,1,0,0:0:0:15:Hat Open.wav
64,192,87583,1,2,0:0:0:0:
192,192,87736,1,8,0:0:0:0:
320,192,87736,1,0,0:0:0:15:Hat Open.wav
448,192,87890,1,2,0:0:0:0:
64,192,88044,1,8,0:0:0:0:
192,192,88044,1,0,0:0:0:40:finishver2.wav
64,192,88352,1,2,0:0:0:0:
448,192,88352,1,0,0:0:0:60:SVF_D#5sss.wav
192,192,88506,1,12,0:0:0:0:
320,192,88506,1,0,0:0:0:60:SVF_F5sss.wav
320,192,88813,1,2,0:0:0:0:
448,192,88813,1,0,0:0:0:60:SVF_D#5sss.wav
64,192,88967,1,8,0:0:0:0:
192,192,88967,1,0,0:0:0:60:SVF_F5sss.wav
320,192,89121,1,2,0:0:0:0:
448,192,89121,1,0,0:0:0:25:Hat Open.wav
