osu file format v14

[General]
AudioFilename: audio.mp3
AudioLeadIn: 0
PreviewTime: 59917
Countdown: 0
SampleSet: Soft
StackLeniency: 0.3
Mode: 0
LetterboxInBreaks: 0
WidescreenStoryboard: 1

[Editor]
DistanceSpacing: 1
BeatDivisor: 4
GridSize: 32
TimelineZoom: 2.4

[Metadata]
Title:graphite/diamond (TV Size)
TitleUnicode:graphite/diamond (TV Size)
Artist:May'n
ArtistUnicode:May'n
Creator:Kuon-
Version:Normal
Source:アズールレーン
Tags:碧蓝航线 Azur Lane Project the animation AL 中林芽依 Nakabayashi Mei May anime opening op japanese j pop jpop j-pop rock jrock j-rock female vocal Hisae Yonah Raitzuki Apis035 AsuKow armin A_r_M_i_N Xahlt
BeatmapID:3042113
BeatmapSetID:1482906

[Difficulty]
HPDrainRate:3
CircleSize:3.3
OverallDifficulty:4.5
ApproachRate:5.5
SliderMultiplier:0.999999999999999
SliderTickRate:1

[Events]
//Background and Video events
0,0,"bg.jpg",0,0
Video,2326,"azurlane.mp4"
//Break Periods
2,26666,33956
//Storyboard Layer 0 (Background)
//Storyboard Layer 1 (Fail)
//Storyboard Layer 2 (Pass)
//Storyboard Layer 3 (Foreground)
//Storyboard Layer 4 (Overlay)
//Storyboard Sound Samples

[TimingPoints]
1226,307.692307692308,4,2,1,40,1,0
2764,-111.111111111111,4,2,1,45,0,0
3072,-111.111111111111,4,2,1,50,0,0
3379,-111.111111111111,4,2,1,55,0,0
3687,-111.111111111111,4,2,1,5,0,0
7226,-111.111111111111,4,2,1,60,0,0
7533,-111.111111111111,4,2,1,50,0,0
7841,-111.111111111111,4,2,1,60,0,0
8149,-111.111111111111,4,2,1,70,0,0
8456,-111.111111111111,4,2,1,80,0,0
8610,-111.111111111111,4,2,1,70,0,0
10149,-111.111111111111,4,2,1,60,0,0
11072,-111.111111111111,4,2,1,60,0,0
16620,307.692307692308,4,2,1,80,1,0
16620,-100,4,2,1,80,0,0
26466,-100,4,2,1,40,0,0
35081,-99.9999999999999,4,2,1,50,0,1
35235,-99.9999999999999,4,2,1,50,0,0
35389,-99.9999999999999,4,2,1,50,0,1
35543,-99.9999999999999,4,2,1,50,0,0
35696,-99.9999999999999,4,2,1,50,0,1
35850,-99.9999999999999,4,2,1,50,0,0
36004,-99.9999999999999,4,2,1,50,0,1
36312,-100,4,2,1,60,0,0
46158,-100,4,2,1,65,0,0
56004,-100,4,2,1,70,0,0
59081,-100,4,2,1,75,0,0
59235,-100,4,2,1,80,0,0
59389,-100,4,2,1,85,0,0
59543,-100,4,2,1,90,0,0
60927,-90.9090909090909,4,2,1,80,0,1
80620,-90.9090909090909,4,2,1,80,0,0
83081,-90.9090909090909,4,2,1,85,0,1
84312,-90.9090909090909,4,2,1,70,0,0
85543,-100,4,2,1,70,0,0
88004,-100,4,2,1,70,0,0
88466,-100,4,2,1,75,0,0
88927,-100,4,2,1,80,0,0
89081,-100,4,2,1,85,0,0

[Colours]
Combo1 : 179,176,187
Combo2 : 211,37,60

[HitObjects]
256,192,2456,12,0,3687,0:0:0:0:
6,32,7226,6,0,P|50:38|94:46,1,89.999997253418,6|10,3:2|0:2,0:0:0:0:
178,13,7841,2,0,P|185:38|194:75,1,44.999998626709,10|8,0:2|3:2,0:0:0:0:
220,89,8149,2,0,P|212:114|204:151,1,44.999998626709,10|8,0:2|3:2,0:0:0:0:
217,181,8456,1,10,0:2:0:0:
217,181,8610,1,8,3:2:0:0:
217,181,10149,6,0,P|221:203|226:224,1,44.999998626709,4|4,2:3|2:3,0:0:0:0:
240,267,10456,1,14,0:2:0:0:
390,365,11072,6,0,P|399:321|411:277,1,89.999997253418,6|2,3:2|0:0,0:0:0:0:
475,214,11687,2,0,P|465:170|453:126,1,89.999997253418,2|6,0:0|2:3,0:0:0:0:
440,83,12149,1,4,2:3:0:0:
440,83,12302,2,0,P|399:65|357:78,1,89.999997253418,10|2,0:2|0:0,0:0:0:0:
278,121,12918,1,2,0:0:0:0:
221,51,13226,1,2,0:0:0:0:
132,67,13533,6,0,P|122:112|114:156,1,89.999997253418,6|2,3:2|0:0,0:0:0:0:
40,208,14149,2,0,P|49:252|57:296,1,89.999997253418,2|2,0:0|0:0,0:0:0:0:
131,347,14764,1,10,0:0:0:0:
131,347,14918,2,0,P|160:315|204:316,1,89.999997253418,8|8,0:0|0:0,0:0:0:0:
245,334,15379,1,10,0:0:0:0:
305,267,15687,2,0,P|300:245|294:223,1,44.999998626709,10|10,0:0|0:0,0:0:0:0:
465,39,16620,6,0,P|424:58|418:125,1,99.9999999999999,6|8,3:2|0:0,0:0:0:0:
463,193,17235,2,0,P|487:189|522:184,2,50,2|0|8,3:2|3:2|0:0,0:0:0:0:
428,230,17696,2,0,P|379:225|329:217,1,99.9999999999999,4|2,3:2|3:2,0:0:0:0:
278,210,18158,1,10,0:0:0:0:
212,134,18466,2,0,P|187:136|162:139,1,50,2|2,3:2|3:2,0:0:0:0:
113,148,18773,1,8,0:0:0:0:
49,225,19081,6,0,P|32:270|53:314,1,99.9999999999999,4|10,3:2|0:0,0:0:0:0:
151,332,19696,2,0,P|146:358|142:381,2,50,2|2|10,3:2|3:2|0:0,0:0:0:0:
191,301,20158,1,6,3:2:0:0:
277,351,20466,1,6,3:2:0:0:
341,275,20773,2,0,P|390:282|439:290,1,99.9999999999999,14|8,0:0|2:3,0:0:0:0:
488,297,21235,2,0,P|499:274|501:249,1,50,4|4,2:3|2:3,0:0:0:0:
475,204,21543,6,0,P|445:166|451:118,1,99.9999999999999,6|8,3:2|0:0,0:0:0:0:
455,18,22158,2,0,P|481:26|520:37,2,50,0|0|10,3:2|3:2|0:0,0:0:0:0:
406,5,22620,2,0,P|369:10|318:55,1,99.9999999999999,6|0,3:2|3:2,0:0:0:0:
302,94,23081,1,8,0:0:0:0:
215,44,23389,2,0,P|190:48|165:53,1,50,0|0,3:2|3:2,0:0:0:0:
117,67,23696,1,10,0:0:0:0:
48,139,24004,6,0,P|97:149|154:162,1,99.9999999999999,4|10,3:2|0:0,0:0:0:0:
222,224,24620,2,0,P|271:215|329:207,1,99.9999999999999,10|6,0:0|2:3,0:0:0:0:
370,200,25081,1,14,0:0:0:0:
448,261,25389,1,14,0:0:0:0:
395,345,25696,1,4,3:2:0:0:
395,345,25850,2,0,P|362:339|327:333,1,50,14|4,0:0|2:3,0:0:0:0:
296,325,26158,1,10,0:0:0:0:
212,380,26466,5,2,0:0:0:0:
20,23,35081,6,0,L|80:39,1,50,10|0,0:0|3:2,0:0:0:0:
117,47,35389,1,10,0:0:0:0:
208,7,35696,1,10,0:0:0:0:
278,77,36004,1,14,0:0:0:0:
220,159,36312,6,0,P|215:211|209:269,1,99.9999999999999,6|10,3:2|0:0,0:0:0:0:
208,308,36773,1,2,0:0:0:0:
291,363,37081,2,0,P|315:362|341:349,1,50,2|10,3:2|0:0,0:0:0:0:
356,304,37389,2,0,P|408:314|466:327,1,99.9999999999999,2|0,3:2|3:2,0:0:0:0:
503,317,37850,1,10,0:0:0:0:
512,211,38158,2,0,P|506:163|447:139,1,99.9999999999999,2|10,3:2|0:0,0:0:0:0:
441,40,38773,6,0,P|388:50|331:63,1,99.9999999999999,2|10,3:2|0:0,0:0:0:0:
309,97,39235,1,2,0:0:0:0:
221,47,39543,2,0,P|231:15|241:-17,2,50,2|10|2,3:2|0:0|3:2,0:0:0:0:
172,60,40004,1,2,0:0:0:0:
99,128,40312,1,10,0:0:0:0:
174,194,40620,2,0,P|207:189|241:184,1,50,2|2,3:2|3:2,0:0:0:0:
262,154,40927,1,10,0:0:0:0:
345,209,41235,6,0,P|376:246|369:294,1,99.9999999999999,6|10,3:2|0:0,0:0:0:0:
296,363,41850,2,0,P|243:357|176:349,1,99.9999999999999,2|8,3:2|0:0,0:0:0:0:
163,313,42312,1,2,3:2:0:0:
81,371,42620,1,2,3:2:0:0:
4,307,42927,1,2,0:0:0:0:
55,223,43235,1,2,3:2:0:0:
55,223,43389,1,10,0:0:0:0:
18,130,43696,6,0,P|9:80|-1:31,1,99.9999999999999,6|8,3:2|0:0,0:0:0:0:
97,10,44312,2,0,P|92:42|88:69,1,50,2|8,3:2|0:0,0:0:0:0:
113,104,44620,1,8,2:3:0:0:
189,40,44927,2,0,P|238:47|287:55,1,99.9999999999999,6|8,3:2|0:0,0:0:0:0:
385,29,45543,2,0,P|395:51|404:75,1,50,8|8,0:0|2:3,0:0:0:0:
381,119,45850,2,0,P|374:143|369:167,1,50,4|4,2:3|2:3,0:0:0:0:
356,216,46158,6,0,P|327:192|255:198,1,99.9999999999999,6|2,3:2|0:0,0:0:0:0:
167,176,46773,2,0,P|179:226|194:288,1,99.9999999999999,10|0,0:0|0:0,0:0:0:0:
156,367,47389,2,0,P|112:366|77:343,2,74.9999999999999,6|6|6,2:3|2:3|2:3,0:0:0:0:
204,376,48004,2,0,P|252:360|301:350,1,99.9999999999999,10|0,0:0|0:0,0:0:0:0:
403,373,48620,5,2,3:2:0:0:
403,373,48773,2,0,P|413:323|427:256,1,99.9999999999999,10|0,0:0|3:2,0:0:0:0:
461,242,49235,2,0,P|451:192|437:125,1,99.9999999999999,10|0,0:0|0:0,0:0:0:0:
426,44,49850,2,0,P|460:57|497:50,2,74.9999999999999,6|6|6,3:2|2:3|2:3,0:0:0:0:
388,10,50466,2,0,P|362:18|329:27,1,50,10|8,0:0|2:3,0:0:0:0:
291,36,50773,1,2,3:2:0:0:
213,99,51081,6,0,P|173:71|120:75,1,99.9999999999999,4|2,3:2|3:2,0:0:0:0:
81,98,51543,1,2,3:2:0:0:
81,98,51696,2,0,P|94:148|108:202,1,99.9999999999999,10|2,0:0|3:2,0:0:0:0:
206,202,52312,2,0,P|193:252|179:306,1,99.9999999999999,2|2,3:2|0:0,0:0:0:0:
120,378,52927,2,0,P|93:372|71:368,1,50,10|8,0:0|2:3,0:0:0:0:
22,354,53235,1,6,2:3:0:0:
31,254,53543,6,0,P|18:205|5:157,1,99.9999999999999,6|0,3:2|0:0,0:0:0:0:
14,111,54004,1,0,3:2:0:0:
14,111,54158,2,0,P|47:83|111:94,1,99.9999999999999,14|0,0:0|0:0,0:0:0:0:
171,158,54773,1,6,3:2:0:0:
171,158,54927,2,0,P|221:162|282:169,1,99.9999999999999,8|0,0:0|3:2,0:0:0:0:
320,174,55389,1,10,0:0:0:0:
384,97,55696,1,10,0:0:0:0:
320,19,56004,6,0,P|271:30|223:43,1,99.9999999999999,6|10,3:2|0:0,0:0:0:0:
128,10,56620,1,2,3:2:0:0:
61,84,56927,1,10,0:0:0:0:
60,84,57081,2,0,P|44:130|62:175,1,99.9999999999999,6|0,3:2|3:2,0:0:0:0:
101,207,57543,1,10,0:0:0:0:
39,285,57850,2,0,P|51:307|67:335,1,50,10|10,0:0|0:0,0:0:0:0:
92,369,58158,2,0,P|124:362|158:344,1,50,8|6,2:3|2:3,0:0:0:0:
168,313,58466,6,0,P|214:297|262:311,1,99.9999999999999,6|10,3:2|0:0,0:0:0:0:
344,367,59081,2,0,P|367:358|390:349,1,50,10|10,0:0|0:0,0:0:0:0:
441,335,59389,1,10,0:0:0:0:
441,335,59543,1,10,0:0:0:0:
494,122,60927,6,0,P|440:114|386:106,1,110.000003356934,6|10,3:2|0:0,0:0:0:0:
305,181,61543,2,0,P|313:208|322:241,2,55.0000016784668,0|2|10,3:2|3:2|0:0,0:0:0:0:
250,177,62004,2,0,P|210:132|243:75,1,110.000003356934,2|2,3:2|3:2,0:0:0:0:
256,44,62466,1,10,0:0:0:0:
153,6,62773,2,0,P|125:10|98:14,1,55.0000016784668,0|2,3:2|3:2,0:0:0:0:
47,27,63081,1,10,0:0:0:0:
47,27,63235,6,0,P|59:81|73:152,1,110.000003356934,2|2,0:0|0:0,0:0:0:0:
104,177,63696,1,10,0:0:0:0:
17,247,64004,2,0,P|13:280|8:314,1,55.0000016784668,2|2,3:2|3:2,0:0:0:0:
11,360,64312,1,10,0:0:0:0:
11,360,64466,2,0,P|50:385|106:361,1,110.000003356934,2|2,3:2|3:2,0:0:0:0:
140,320,64927,1,10,0:0:0:0:
233,262,65235,2,0,P|259:269|285:278,1,55.0000016784668,2|2,3:2|3:2,0:0:0:0:
338,294,65543,2,0,P|344:320|350:347,1,55.0000016784668,10|10,0:0|0:0,0:0:0:0:
401,365,65850,6,0,P|450:346|462:294,1,110.000003356934,6|10,3:2|0:0,0:0:0:0:
420,192,66466,2,0,P|449:187|495:177,2,55.0000016784668,2|2|10,3:2|3:2|0:0,0:0:0:0:
370,168,66927,2,0,P|318:159|246:148,1,110.000003356934,2|2,3:2|3:2,0:0:0:0:
206,144,67389,1,10,0:0:0:0:
115,206,67696,1,2,3:2:0:0:
25,142,68004,1,10,0:0:0:0:
25,142,68158,6,0,P|11:100|52:47,1,110.000003356934,2|0,0:0|0:0,0:0:0:0:
98,30,68620,1,10,0:0:0:0:
204,56,68927,2,0,P|230:48|260:40,1,55.0000016784668,10|2,0:0|3:2,0:0:0:0:
301,8,69235,1,10,0:0:0:0:
301,8,69389,2,0,P|334:46|406:37,1,110.000003356934,6|8,3:2|0:0,0:0:0:0:
443,32,69850,1,10,0:0:0:0:
510,117,70158,2,0,P|505:144|499:171,1,55.0000016784668,10|4,2:3|2:3,0:0:0:0:
488,226,70466,1,10,0:0:0:0:
388,179,70773,6,0,P|336:189|273:202,1,110.000003356934,6|10,3:2|0:0,0:0:0:0:
175,235,71389,2,0,P|168:208|163:181,2,55.0000016784668,0|2|10,3:2|3:2|0:0,0:0:0:0:
133,269,71850,2,0,P|117:319|157:352,1,110.000003356934,2|0,0:0|0:0,0:0:0:0:
211,363,72312,1,10,0:0:0:0:
302,301,72620,2,0,P|328:308|355:315,1,55.0000016784668,0|0,3:2|0:0,0:0:0:0:
413,327,72927,1,10,0:0:0:0:
413,327,73081,6,0,P|446:301|428:230,1,110.000003356934,2|2,0:0|0:0,0:0:0:0:
399,199,73543,1,10,0:0:0:0:
487,133,73850,2,0,P|492:106|497:79,1,55.0000016784668,2|2,3:2|0:0,0:0:0:0:
478,32,74158,1,10,0:0:0:0:
478,32,74312,2,0,P|418:17|383:57,1,110.000003356934,2|2,0:0|0:0,0:0:0:0:
368,99,74773,1,8,0:0:0:0:
274,40,75081,2,0,P|246:44|219:49,1,55.0000016784668,2|0,3:2|0:0,0:0:0:0:
176,83,75389,2,0,P|148:78|121:73,1,55.0000016784668,10|2,0:0|0:0,0:0:0:0:
76,42,75696,6,0,P|27:64|16:115,1,110.000003356934,4|10,3:2|0:0,0:0:0:0:
70,212,76312,2,0,P|43:219|17:226,2,55.0000016784668,2|2|10,3:2|0:0|0:0,0:0:0:0:
118,185,76773,2,0,P|174:189|245:197,1,110.000003356934,2|2,0:0|0:0,0:0:0:0:
281,207,77235,1,10,0:0:0:0:
367,138,77543,1,2,3:2:0:0:
472,183,77850,1,10,0:0:0:0:
472,183,78004,6,0,P|494:234|448:289,1,110.000003356934,2|2,0:0|0:0,0:0:0:0:
414,284,78466,1,10,0:0:0:0:
356,377,78773,2,0,P|326:371|288:363,1,55.0000016784668,2|2,3:2|0:0,0:0:0:0:
256,334,79081,1,10,0:0:0:0:
256,334,79235,2,0,P|210:306|161:326,1,110.000003356934,2|2,0:0|0:0,0:0:0:0:
124,367,79696,1,14,0:0:0:0:
31,318,80004,1,10,2:3:0:0:
31,318,80158,2,0,P|38:263|45:209,1,110.000003356934,6|10,2:3|0:0,0:0:0:0:
75,162,80620,6,0,P|28:139|33:79,1,110.000003356934,6|2,3:2|3:2,0:0:0:0:
101,5,81235,2,0,P|128:13|172:27,1,55.0000016784668,10|2,0:0|0:0,0:0:0:0:
243,84,81696,2,0,P|276:51|354:62,1,110.000003356934,2|8,3:2|0:0,0:0:0:0:
388,70,82158,1,2,0:0:0:0:
352,176,82466,1,10,0:0:0:0:
352,176,82620,2,0,P|299:199|243:223,1,110.000003356934,2|2,3:2|3:2,0:0:0:0:
209,256,83081,6,0,P|200:308|238:345,1,110.000003356934,14|0,0:0|3:2,0:0:0:0:
293,340,83543,2,0,P|343:346|414:358,1,110.000003356934,14|0,0:0|3:2,0:0:0:0:
456,361,84004,1,14,0:0:0:0:
503,261,84312,1,6,3:2:0:0:
512,0,85543,6,0,P|465:12|399:29,1,99.9999999999999,4|0,3:2|3:2,0:0:0:0:
326,71,86158,2,0,P|277:65|210:57,1,99.9999999999999,8|0,0:0|0:0,0:0:0:0:
176,56,86620,1,0,3:2:0:0:
176,56,86773,2,0,P|149:82|157:150,1,99.9999999999999,4|0,3:2|0:0,0:0:0:0:
228,204,87389,1,8,0:0:0:0:
230,303,87696,1,8,0:0:0:0:
144,354,88004,6,0,P|93:344|37:335,1,99.9999999999999,12|4,0:0|3:2,0:0:0:0:
14,296,88466,2,0,P|0:249|25:207,1,99.9999999999999,12|4,0:0|3:2,0:0:0:0:
73,187,88927,1,12,0:0:0:0:
73,187,89081,1,6,3:2:0:0:
