osu file format v14

[General]
AudioFilename: audio.mp3
AudioLeadIn: 0
PreviewTime: 59917
Countdown: 0
SampleSet: Soft
StackLeniency: 0.3
Mode: 0
LetterboxInBreaks: 0
WidescreenStoryboard: 1

[Editor]
Bookmarks: 7226,16610,26456,36302,46148,60917,70763,85533
DistanceSpacing: 1.4
BeatDivisor: 4
GridSize: 32
TimelineZoom: 3.799999

[Metadata]
Title:graphite/diamond (TV Size)
TitleUnicode:graphite/diamond (TV Size)
Artist:May'n
ArtistUnicode:May'n
Creator:Kuon-
Version:KuoKo's Hard
Source:アズールレーン
Tags:碧蓝航线 Azur Lane Project the animation AL 中林芽依 Nakabayashi Mei May anime opening op japanese j pop jpop j-pop rock jrock j-rock female vocal Hisae Yonah Raitzuki Apis035 AsuKow armin A_r_M_i_N Xahlt
BeatmapID:3055485
BeatmapSetID:1482906

[Difficulty]
HPDrainRate:4
CircleSize:3.6
OverallDifficulty:6
ApproachRate:8
SliderMultiplier:1.4
SliderTickRate:1

[Events]
//Background and Video events
0,0,"bg.jpg",0,0
Video,2326,"azurlane.mp4"
//Break Periods
2,3887,6476
//Storyboard Layer 0 (Background)
//Storyboard Layer 1 (Fail)
//Storyboard Layer 2 (Pass)
//Storyboard Layer 3 (Foreground)
//Storyboard Layer 4 (Overlay)
//Storyboard Sound Samples

[TimingPoints]
1226,307.692307692308,4,2,1,40,1,0
2764,-111.111111111111,4,2,1,45,0,0
3072,-111.111111111111,4,2,1,50,0,0
3379,-111.111111111111,4,2,1,55,0,0
3687,-111.111111111111,4,2,1,5,0,0
7226,-100,4,2,1,60,0,0
8610,-111.111111111111,4,2,1,60,0,0
11072,-125,4,2,1,60,0,0
14764,-111.111111111111,4,2,1,60,0,0
16620,307.692307692308,4,2,1,80,1,0
16620,-100,4,2,1,80,0,0
26466,-125,4,2,1,40,0,0
35081,-99.9999999999999,4,2,1,50,0,0
35235,-99.9999999999999,4,2,1,50,0,0
35389,-99.9999999999999,4,2,1,50,0,0
35543,-99.9999999999999,4,2,1,50,0,0
35696,-99.9999999999999,4,2,1,50,0,0
35850,-99.9999999999999,4,2,1,50,0,0
36004,-99.9999999999999,4,2,1,50,0,0
36235,-99.9999999999999,4,2,1,5,0,0
36312,-100,4,2,1,60,0,0
46158,-111.111111111111,4,2,1,65,0,0
56004,-100,4,2,1,70,0,0
59081,-100,4,2,1,75,0,0
59235,-100,4,2,1,80,0,0
59389,-100,4,2,1,85,0,0
59543,-100,4,2,1,90,0,0
60927,-90.9090909090909,4,2,1,80,0,1
70696,-90.9090909090909,4,2,1,5,0,0
70773,-90.9090909090909,4,2,1,80,0,1
80620,-90.9090909090909,4,2,1,80,0,0
83081,-90.9090909090909,4,2,1,85,0,1
84312,-90.9090909090909,4,2,1,70,0,0
85543,-100,4,2,1,70,0,0
88004,-100,4,2,1,70,0,0
88466,-100,4,2,1,75,0,0
88927,-100,4,2,1,80,0,0
89081,-100,4,2,1,85,0,0

[Colours]
Combo1 : 179,176,187
Combo2 : 211,37,60

[HitObjects]
256,192,2456,12,0,3687,0:0:0:0:
253,376,7226,5,6,3:2:0:0:
73,304,7533,1,10,0:2:0:0:
73,304,7687,2,0,P|64:269|72:235,1,70,10|8,0:2|3:2,0:0:0:0:
128,173,7995,2,0,P|135:138|127:104,1,70,10|8,0:2|3:2,0:0:0:0:
75,37,8303,2,0,P|105:22|140:22,1,70,10|8,0:2|3:2,0:0:0:0:
234,36,8610,5,8,3:2:0:0:
410,76,8918,1,2,0:0:0:0:
410,76,9072,1,2,0:0:0:0:
484,30,9226,2,0,B|507:73|507:73|474:147,1,125.999996154785,2|0,0:0|0:0,0:0:0:0:
389,162,9687,6,0,P|454:179|474:238,1,125.999996154785,2|0,0:0|0:0,0:0:0:0:
472,248,10072,1,0,0:0:0:0:
475,266,10149,2,0,P|483:289|494:314,3,31.4999990386963,4|4|4|4,2:3|2:3|2:3|2:3,0:0:0:0:
480,338,10456,6,0,B|405:360|428:308|351:325,1,125.999996154785,14|2,0:2|0:0,0:0:0:0:
272,343,10918,1,2,0:0:0:0:
188,369,11072,6,0,B|67:333|99:189|99:189|103:269|145:290,1,336,6|6,3:2|2:3,0:0:0:0:
222,229,12149,1,4,2:3:0:0:
227,219,12226,1,4,2:3:0:0:
231,209,12302,2,0,P|230:154|195:112,1,112,10|2,0:2|0:0,0:0:0:0:
249,27,12918,2,0,P|276:20|324:10,1,56,2|2,0:0|0:0,0:0:0:0:
338,84,13226,2,0,P|311:91|263:101,1,56,2|0,0:0|0:0,0:0:0:0:
195,112,13533,6,0,B|128:227|235:313|235:313|195:256|216:212,1,336,6|2,3:2|0:0,0:0:0:0:
293,167,14610,5,4,2:3:0:0:
293,167,14764,2,0,P|320:173|375:184,1,62.9999980773926,10|8,0:0|0:0,0:0:0:0:
407,258,15072,1,4,2:3:0:0:
407,258,15226,2,0,P|380:264|325:275,1,62.9999980773926,10|8,0:0|0:0,0:0:0:0:
282,333,15533,5,4,2:3:0:0:
274,339,15610,1,4,2:3:0:0:
264,347,15687,2,0,P|244:350|217:354,3,31.4999990386963,10|8|10|8,0:0|0:0|0:0|0:0,0:0:0:0:
3,378,16620,6,0,P|47:327|43:259,1,140,6|8,3:2|0:0,0:0:0:0:
5,51,17235,2,0,P|39:59|88:65,1,70,2|0,3:2|0:0,0:0:0:0:
168,17,17543,1,8,0:0:0:0:
235,131,17696,6,0,B|216:199|253:201|230:278,1,140,4|2,3:2|3:2,0:0:0:0:
165,351,18158,1,10,0:0:0:0:
165,351,18312,1,2,0:0:0:0:
266,378,18466,2,0,P|300:371|345:359,1,70,2|2,3:2|3:2,0:0:0:0:
437,379,18773,1,8,0:0:0:0:
497,180,19081,5,4,3:2:0:0:
497,180,19235,1,2,0:0:0:0:
421,107,19389,2,0,P|387:115|353:125,1,70,10|0,0:0|0:0,0:0:0:0:
262,84,19696,1,2,3:2:0:0:
262,84,19850,1,2,3:2:0:0:
207,173,20004,1,10,0:0:0:0:
97,98,20158,5,6,3:2:0:0:
86,109,20466,1,6,3:2:0:0:
72,120,20773,2,0,P|90:188|112:275,1,140,14|8,0:0|2:3,0:0:0:0:
21,317,21235,2,0,P|16:336|14:354,3,35,4|4|4|4,2:3|2:3|2:3|2:3,0:0:0:0:
60,376,21543,6,0,P|129:360|198:355,1,140,6|8,3:2|0:0,0:0:0:0:
332,193,22158,2,0,P|298:181|246:166,1,70,0|0,3:2|3:2,0:0:0:0:
169,215,22466,1,10,0:0:0:0:
62,137,22620,6,0,B|44:118|19:101|19:101|39:77|73:17,1,140,6|0,3:2|3:2,0:0:0:0:
165,0,23081,1,8,0:0:0:0:
344,109,23389,2,0,P|381:102|431:90,1,70,0|0,3:2|3:2,0:0:0:0:
502,41,23696,2,0,P|507:60|513:85,3,35,10|2|2|2,0:0|0:0|0:0|0:0,0:0:0:0:
507,131,24004,5,4,3:2:0:0:
507,131,24158,1,2,0:0:0:0:
428,200,24312,1,10,0:0:0:0:
428,200,24466,1,2,3:2:0:0:
490,284,24620,2,0,P|455:291|421:299,1,70,10|8,0:0|2:3,0:0:0:0:
336,360,24927,1,6,2:3:0:0:
244,264,25081,5,14,0:0:0:0:
238,250,25389,1,14,0:0:0:0:
233,235,25696,1,4,3:2:0:0:
148,172,25850,2,0,P|157:138|167:96,1,70,14|4,0:0|2:3,0:0:0:0:
245,34,26158,1,10,0:0:0:0:
245,34,26466,6,0,P|287:68|342:65,1,112,2|2,0:0|0:0,0:0:0:0:
401,116,26927,2,0,P|346:113|303:147,1,112,2|2,0:0|0:0,0:0:0:0:
255,210,27389,1,2,0:0:0:0:
255,210,27543,6,0,P|262:255|274:329,1,112,2|0,0:0|0:0,0:0:0:0:
209,366,28004,2,0,P|126:337|105:352,1,112,2|2,0:0|0:0,0:0:0:0:
21,223,28620,2,0,P|29:191|37:161,1,56,2|0,0:0|0:0,0:0:0:0:
0,93,28927,6,0,B|55:87|55:87|62:91|62:91|111:87,1,112,2|2,0:0|0:0,0:0:0:0:
98,9,29389,2,0,P|153:14|187:57,1,112,2|2,0:0|0:0,0:0:0:0:
182,137,29850,1,2,0:0:0:0:
182,137,30004,6,0,B|228:106|228:106|292:120,1,112,2|0,0:0|0:0,0:0:0:0:
494,343,31081,1,2,0:0:0:0:
494,343,31235,1,2,0:0:0:0:
428,291,31389,6,0,B|400:260|400:260|409:187,1,112,2|2,0:0|0:0,0:0:0:0:
469,130,31850,2,0,P|461:95|453:59,1,56,2|0,0:0|0:0,0:0:0:0:
389,30,32158,2,0,P|382:57|376:84,1,56,2|0,0:0|0:0,0:0:0:0:
338,153,32466,6,0,B|269:148|285:180|230:173,1,112,2|0,0:0|0:0,0:0:0:0:
184,108,32927,2,0,P|132:102|79:149,1,112,2|2,0:0|0:0,0:0:0:0:
3,270,33543,2,0,P|10:300|18:330,1,56,2|0,0:0|0:0,0:0:0:0:
78,372,33850,6,0,B|117:331|117:331|182:331,1,112,2|0,0:0|0:0,0:0:0:0:
326,365,34466,2,0,P|380:363|419:325,1,112,2|0,0:0|0:0,0:0:0:0:
392,250,34927,1,10,0:0:0:0:
393,237,35004,1,8,0:0:0:0:
393,225,35081,6,0,P|384:191|363:163,1,70,10|0,0:0|3:2,0:0:0:0:
266,127,35389,2,0,P|228:136|183:146,1,70,10|0,0:0|3:2,0:0:0:0:
191,45,35696,2,0,P|229:36|274:26,1,70,10|0,0:0|3:2,0:0:0:0:
347,73,36004,2,0,P|398:78|438:46,1,105,14|0,0:0|0:0,0:0:0:0:
450,24,36312,6,0,B|464:73|464:73|455:107|455:107|482:179,1,140,6|10,3:2|0:0,0:0:0:0:
502,236,36773,2,0,P|475:205|387:247,1,140,2|2,0:0|3:2,0:0:0:0:
376,318,37235,1,10,0:0:0:0:
376,318,37389,2,0,P|307:332|239:348,1,140,2|0,3:2|3:2,0:0:0:0:
158,371,37850,2,0,P|162:336|148:305,1,70,10|0,0:0|0:0,0:0:0:0:
129,222,38158,2,0,P|165:226|220:235,1,70,2|0,3:2|3:2,0:0:0:0:
265,179,38466,1,10,0:0:0:0:
380,300,38773,6,0,B|379:222|433:241|424:165,1,140,2|10,3:2|0:0,0:0:0:0:
471,101,39235,2,0,P|401:89|333:77,1,140,2|2,0:0|3:2,0:0:0:0:
265,26,39696,1,10,0:0:0:0:
265,26,39850,1,2,3:2:0:0:
190,65,40004,6,0,P|198:98|206:133,1,70,2|0,0:0|3:2,0:0:0:0:
261,196,40312,2,0,P|197:178|134:244,1,140,10|0,0:0|3:2,0:0:0:0:
90,285,40773,1,2,3:2:0:0:
124,362,40927,2,0,P|157:353|191:344,1,70,10|10,0:0|0:0,0:0:0:0:
209,340,41158,1,8,0:0:0:0:
225,335,41235,6,0,P|212:302|212:242,2,70,6|2|10,3:2|0:0|0:0,0:0:0:0:
304,362,41696,1,2,0:0:0:0:
369,309,41850,2,0,P|411:320|482:253,1,140,2|8,3:2|0:0,0:0:0:0:
446,185,42312,6,0,P|456:148|465:101,1,70,2|0,3:2|0:0,0:0:0:0:
487,36,42620,2,0,P|452:30|418:23,1,70,2|8,3:2|0:0,0:0:0:0:
343,61,42927,2,0,P|314:21|221:47,1,140,2|2,0:0|3:2,0:0:0:0:
171,90,43389,1,10,0:0:0:0:
183,103,43696,6,0,P|217:110|251:118,1,70,6|0,3:2|0:0,0:0:0:0:
298,188,44004,2,0,P|229:202|161:219,1,140,8|2,0:0|3:2,0:0:0:0:
117,290,44466,1,8,0:0:0:0:
36,264,44620,2,0,P|21:237|28:186,1,70,8|4,2:3|2:3,0:0:0:0:
24,114,44927,5,6,3:2:0:0:
167,26,45235,1,8,0:0:0:0:
226,85,45389,1,2,3:2:0:0:
233,93,45466,1,0,3:2:0:0:
241,102,45543,2,0,P|275:94|326:84,1,70,8|8,0:0|2:3,0:0:0:0:
373,32,45850,1,4,2:3:0:0:
373,32,46158,6,0,B|351:76|351:76|387:144,1,125.999996154785,6|2,3:2|0:0,0:0:0:0:
465,196,46620,1,4,2:3:0:0:
465,196,46773,2,0,P|403:188|355:227,1,125.999996154785,10|2,0:0|0:0,0:0:0:0:
277,262,47235,1,2,0:0:0:0:
277,262,47389,6,0,P|264:233|265:201,1,62.9999980773926,6|0,2:3|0:0,0:0:0:0:
280,180,47620,1,4,2:3:0:0:
296,159,47696,2,0,P|296:127|284:98,1,62.9999980773926,2|6,0:0|2:3,0:0:0:0:
227,30,48004,2,0,B|152:16|172:62|107:51,1,125.999996154785,10|2,0:0|0:0,0:0:0:0:
27,12,48466,1,4,2:3:0:0:
22,23,48543,1,4,2:3:0:0:
17,35,48620,6,0,B|-3:76|-3:76|43:155,1,125.999996154785,2|2,3:2|0:0,0:0:0:0:
133,200,49081,1,0,3:2:0:0:
133,200,49235,2,0,P|84:187|27:236,1,125.999996154785,10|0,0:0|0:0,0:0:0:0:
195,288,49850,6,0,P|190:335|185:381,2,94.499997116089,6|6|6,3:2|2:3|2:3,0:0:0:0:
235,208,50466,2,0,P|228:168|223:138,1,62.9999980773926,10|8,0:0|2:3,0:0:0:0:
301,103,50773,2,0,P|308:143|313:173,1,62.9999980773926,2|0,3:2|0:0,0:0:0:0:
333,251,51081,5,4,3:2:0:0:
333,251,51389,2,0,P|362:241|385:219,1,62.9999980773926,2|10,3:2|0:0,0:0:0:0:
393,210,51620,1,8,0:0:0:0:
400,200,51696,2,0,P|405:164|410:118,1,62.9999980773926,10|2,0:0|0:0,0:0:0:0:
447,57,52004,1,2,3:2:0:0:
447,57,52158,1,10,0:0:0:0:
373,8,52312,6,0,B|324:11|324:11|300:31|300:31|254:31,1,125.999996154785,2|2,3:2|0:0,0:0:0:0:
168,8,52773,1,0,3:2:0:0:
121,83,52927,2,0,P|165:103|157:185,1,125.999996154785,10|6,0:0|2:3,0:0:0:0:
155,264,53389,1,6,2:3:0:0:
257,214,53543,6,0,B|307:213|307:213|329:193|329:193|388:190,1,125.999996154785,6|0,3:2|3:2,0:0:0:0:
448,141,54004,1,0,3:2:0:0:
483,253,54158,2,0,P|422:257|394:310,1,125.999996154785,14|0,0:0|3:2,0:0:0:0:
327,368,54620,1,8,0:0:0:0:
222,325,54773,6,0,B|143:310|163:355|100:337,1,125.999996154785,6|0,3:2|0:0,0:0:0:0:
12,325,55235,1,0,3:2:0:0:
17,309,55312,1,0,3:2:0:0:
22,293,55389,2,0,P|27:230|31:167,1,125.999996154785,10|10,0:0|0:0,0:0:0:0:
30,167,56004,6,0,P|64:172|97:163,1,70,6|0,3:2|0:0,0:0:0:0:
189,126,56312,2,0,P|223:130|276:136,1,70,10|0,0:0|0:0,0:0:0:0:
291,45,56620,2,0,P|257:41|204:35,1,70,2|0,3:2|3:2,0:0:0:0:
137,64,56927,1,10,0:0:0:0:
70,0,57081,6,0,P|25:14|9:108,1,140,6|0,3:2|3:2,0:0:0:0:
22,178,57543,2,0,P|28:212|35:251,1,70,10|0,0:0|3:2,0:0:0:0:
9,327,57850,1,10,0:0:0:0:
97,366,58004,1,10,0:0:0:0:
109,357,58081,1,8,0:0:0:0:
122,348,58158,2,0,P|145:342|171:337,3,35,8|8|6|4,2:3|2:3|2:3|2:3,0:0:0:0:
175,310,58466,6,0,P|208:306|246:300,1,70,6|2,3:2|3:2,0:0:0:0:
282,225,58773,2,0,P|316:230|351:234,1,70,10|4,0:0|2:3,0:0:0:0:
391,308,59081,2,0,P|425:305|456:290,1,70,10|10,0:0|0:0,0:0:0:0:
506,221,59389,1,10,0:0:0:0:
417,152,59543,1,10,0:0:0:0:
501,18,60927,6,0,P|463:25|425:34,1,77.0000023498536,6|0,3:2|0:0,0:0:0:0:
349,87,61235,2,0,P|273:70|199:49,1,154.000004699707,10|0,0:0|3:2,0:0:0:0:
111,23,61696,1,2,3:2:0:0:
111,23,61850,1,10,0:0:0:0:
71,123,62004,6,0,P|84:158|98:193,1,77.0000023498536,2|0,3:2|0:0,0:0:0:0:
65,281,62312,1,2,3:2:0:0:
141,357,62466,2,0,P|203:316|286:291,1,154.000004699707,10|0,0:0|3:2,0:0:0:0:
339,223,62927,1,2,3:2:0:0:
339,223,63081,1,10,0:0:0:0:
262,170,63235,1,2,0:0:0:0:
317,79,63389,6,0,P|355:54|438:133,1,154.000004699707,4|10,3:2|0:0,0:0:0:0:
510,163,63850,1,2,0:0:0:0:
492,253,64004,2,0,P|452:262|403:275,1,77.0000023498536,2|2,3:2|3:2,0:0:0:0:
358,343,64312,1,10,0:0:0:0:
259,300,64466,6,0,B|265:214|210:242|220:128,1,154.000004699707,2|0,3:2|3:2,0:0:0:0:
253,68,64927,1,10,0:0:0:0:
239,53,65235,2,0,P|274:44|323:35,2,77.0000023498536,2|2|10,3:2|3:2|0:0,0:0:0:0:
148,31,65696,5,10,0:0:0:0:
134,25,65773,1,8,0:0:0:0:
120,19,65850,2,0,P|86:39|67:71,1,77.0000023498536,6|2,3:2|0:0,0:0:0:0:
7,161,66158,2,0,P|81:179|155:200,1,154.000004699707,10|2,0:0|3:2,0:0:0:0:
229,142,66620,1,2,3:2:0:0:
229,142,66773,1,10,0:0:0:0:
315,206,66927,6,0,B|333:228|357:248|357:248|337:287|314:340,1,154.000004699707,2|2,3:2|3:2,0:0:0:0:
235,379,67389,1,10,0:0:0:0:
223,365,67696,2,0,P|184:368|146:373,1,77.0000023498536,2|0,3:2|3:2,0:0:0:0:
57,346,68004,1,10,0:0:0:0:
121,259,68158,6,0,B|100:180|142:180|110:107,1,154.000004699707,2|2,0:0|0:0,0:0:0:0:
50,36,68620,2,0,P|88:25|125:15,1,77.0000023498536,10|2,0:0|3:2,0:0:0:0:
203,62,68927,2,0,P|240:72|277:82,1,77.0000023498536,10|0,0:0|3:2,0:0:0:0:
356,32,69235,1,10,0:0:0:0:
437,106,69389,6,0,P|373:119|337:221,1,154.000004699707,6|8,3:2|0:0,0:0:0:0:
338,205,69773,1,8,0:0:0:0:
342,218,69850,2,0,L|289:229,3,38.5000011749268,10|8|8|4,0:0|0:0|2:3|2:3,0:0:0:0:
257,232,70158,1,10,2:3:0:0:
179,181,70312,1,4,2:3:0:0:
119,251,70466,2,0,P|93:300|122:347,1,115.50000352478,10|0,0:0|0:0,0:0:0:0:
137,353,70773,6,0,P|172:348|228:339,1,77.0000023498536,6|0,3:2|0:0,0:0:0:0:
301,311,71081,2,0,B|356:298|356:298|393:314|393:314|448:300,1,154.000004699707,10|0,0:0|3:2,0:0:0:0:
498,221,71543,1,2,3:2:0:0:
498,221,71696,1,10,0:0:0:0:
438,140,71850,6,0,P|442:101|426:66,1,77.0000023498536,2|0,0:0|3:2,0:0:0:0:
341,13,72158,1,2,0:0:0:0:
307,107,72312,2,0,B|215:89|241:141|157:121,1,154.000004699707,10|0,0:0|3:2,0:0:0:0:
93,51,72773,1,2,0:0:0:0:
93,51,72927,1,10,0:0:0:0:
27,126,73081,1,2,0:0:0:0:
4,223,73235,6,0,P|81:214|159:206,1,154.000004699707,0|10,3:2|0:0,0:0:0:0:
251,189,73696,1,2,0:0:0:0:
251,189,73850,1,2,3:2:0:0:
302,265,74004,1,2,0:0:0:0:
387,204,74158,2,0,P|422:209|485:217,1,77.0000023498536,10|2,0:0|0:0,0:0:0:0:
498,300,74466,6,0,P|475:330|440:345,2,77.0000023498536,2|2|8,3:2|3:2|0:0,0:0:0:0:
463,214,74927,1,2,0:0:0:0:
463,214,75081,2,0,P|469:175|474:137,1,77.0000023498536,2|0,3:2|3:2,0:0:0:0:
512,56,75389,1,10,0:0:0:0:
416,6,75543,6,0,P|341:4|295:63,1,154.000004699707,2|2,0:0|0:0,0:0:0:0:
204,119,76004,2,0,P|277:102|333:151,1,154.000004699707,10|2,0:0|3:2,0:0:0:0:
406,237,76466,1,2,0:0:0:0:
406,237,76620,1,10,0:0:0:0:
338,316,76773,6,0,B|250:274|250:274|184:298,1,154.000004699707,2|2,0:0|0:0,0:0:0:0:
107,354,77235,1,10,0:0:0:0:
82,351,77543,2,0,P|64:317|64:278,1,77.0000023498536,2|0,3:2|0:0,0:0:0:0:
88,184,77850,1,10,0:0:0:0:
31,111,78004,6,0,B|86:91|86:91|123:103|123:103|185:79,1,154.000004699707,2|0,0:0|0:0,0:0:0:0:
253,7,78466,1,10,0:0:0:0:
253,7,78620,1,2,0:0:0:0:
307,99,78773,2,0,P|344:91|382:84,1,77.0000023498536,2|2,3:2|0:0,0:0:0:0:
457,5,79081,1,10,0:0:0:0:
499,104,79235,6,0,P|420:118|402:185,1,154.000004699707,2|2,0:0|0:0,0:0:0:0:
482,210,79696,2,0,P|475:229|470:247,3,38.5000011749268,14|10|10|8,0:0|0:0|0:0|0:0,0:0:0:0:
427,266,80004,2,0,P|433:284|438:302,3,38.5000011749268,10|8|6|4,2:3|2:3|2:3|2:3,0:0:0:0:
475,330,80312,2,0,P|468:348|463:366,3,38.5000011749268,8|8|10|8,0:0|0:0|0:0|0:0,0:0:0:0:
408,371,80620,6,0,B|312:372|312:372|270:330,1,154.000004699707,6|2,3:2|3:2,0:0:0:0:
270,330,81235,1,10,0:0:0:0:
300,236,81389,2,0,P|290:197|280:156,1,77.0000023498536,0|0,0:0|3:2,0:0:0:0:
227,67,81696,6,0,B|170:69|170:69|139:95|139:95|82:95,1,154.000004699707,2|8,3:2|0:0,0:0:0:0:
37,191,82158,2,0,P|73:191|136:193,1,77.0000023498536,2|0,0:0|3:2,0:0:0:0:
181,265,82466,1,10,0:0:0:0:
181,265,82620,2,0,P|165:299|164:337,1,77.0000023498536,2|8,3:2|0:0,0:0:0:0:
263,380,82927,1,2,3:2:0:0:
322,290,83081,6,0,P|358:294|413:304,1,77.0000023498536,14|0,0:0|3:2,0:0:0:0:
486,363,83389,1,0,3:2:0:0:
509,257,83543,2,0,P|503:215|496:165,1,77.0000023498536,14|0,0:0|3:2,0:0:0:0:
439,90,83850,1,0,3:2:0:0:
367,170,84004,2,0,P|328:171|295:153,1,77.0000023498536,14|6,0:0|3:2,0:0:0:0:
236,60,84312,5,6,3:2:0:0:
236,60,85543,6,0,P|168:77|100:94,1,140,4|0,3:2|3:2,0:0:0:0:
38,150,86004,1,0,0:0:0:0:
127,190,86158,2,0,B|151:205|178:216|178:216|168:254|157:321,1,140,8|0,0:0|0:0,0:0:0:0:
85,335,86620,1,0,3:2:0:0:
93,348,86696,1,0,3:2:0:0:
103,364,86773,6,0,P|168:338|258:370,1,140,4|0,3:2|3:2,0:0:0:0:
314,379,87235,1,0,3:2:0:0:
352,288,87389,2,0,P|342:254|331:221,1,70,8|0,0:0|3:2,0:0:0:0:
263,170,87696,2,0,P|272:136|283:103,1,70,8|0,0:0|3:2,0:0:0:0:
357,38,88004,6,0,P|391:32|425:24,2,70,12|0|4,0:0|3:2|3:2,0:0:0:0:
283,102,88466,2,0,P|213:91|145:77,1,140,12|4,0:0|3:2,0:0:0:0:
53,112,88927,1,12,0:0:0:0:
121,209,89081,1,6,3:2:0:0:
