osu file format v14

[General]
AudioFilename: audio.mp3
AudioLeadIn: 0
PreviewTime: 59917
Countdown: 0
SampleSet: Soft
StackLeniency: 0.6
Mode: 0
LetterboxInBreaks: 0
WidescreenStoryboard: 1

[Editor]
DistanceSpacing: 2.6
BeatDivisor: 4
GridSize: 16
TimelineZoom: 1.2

[Metadata]
Title:graphite/diamond (TV Size)
TitleUnicode:graphite/diamond (TV Size)
Artist:May'n
ArtistUnicode:May'n
Creator:Kuon-
Version:Apis' Insane
Source:アズールレーン
Tags:碧蓝航线 Azur Lane Project the animation AL 中林芽依 Nakabayashi Mei May anime opening op japanese j pop jpop j-pop rock jrock j-rock female vocal Hisae Yonah Raitzuki Apis035 AsuKow armin A_r_M_i_N Xahlt
BeatmapID:3048252
BeatmapSetID:1482906

[Difficulty]
HPDrainRate:5
CircleSize:3.6
OverallDifficulty:8
ApproachRate:9
SliderMultiplier:1.6
SliderTickRate:1

[Events]
//Background and Video events
0,0,"bg.jpg",0,0
Video,2326,"azurlane.mp4"
//Break Periods
//Storyboard Layer 0 (Background)
//Storyboard Layer 1 (Fail)
//Storyboard Layer 2 (Pass)
//Storyboard Layer 3 (Foreground)
//Storyboard Layer 4 (Overlay)
//Storyboard Sound Samples

[TimingPoints]
1226,307.692307692308,4,2,1,40,1,0
2764,-100,4,2,1,45,0,0
3072,-100,4,2,1,50,0,0
3380,-100,4,2,1,55,0,0
3687,-100,4,2,1,5,0,0
4302,-133.333333333333,4,2,1,40,0,0
7226,-100,4,2,1,60,0,0
7533,-100,4,2,1,50,0,0
7687,-100,4,2,1,55,0,0
7841,-100,4,2,1,60,0,0
7995,-100,4,2,1,65,0,0
8149,-100,4,2,1,70,0,0
8303,-100,4,2,1,75,0,0
8457,-100,4,2,1,80,0,0
8610,-100,4,2,1,70,0,0
11072,-125,4,2,1,60,0,0
12302,-100,4,2,1,60,0,0
13533,-125,4,2,1,60,0,0
14764,-100,4,2,1,60,0,0
16620,307.692307692308,4,2,1,80,1,0
16620,-100,4,2,1,80,0,0
26466,-125,4,2,1,40,0,0
35081,-125,4,2,1,50,0,1
35235,-125,4,2,1,50,0,0
35389,-125,4,2,1,50,0,1
35543,-125,4,2,1,50,0,0
35696,-125,4,2,1,50,0,1
35850,-125,4,2,1,50,0,0
36004,-125,4,2,1,50,0,1
36312,-100,4,2,1,60,0,0
46158,-100,4,2,1,65,0,0
56004,-100,4,2,1,70,0,0
59081,-100,4,2,1,75,0,0
59235,-100,4,2,1,80,0,0
59389,-100,4,2,1,85,0,0
59543,-100,4,2,1,90,0,0
60620,-133.333333333333,4,2,1,60,0,0
60927,-90.9090909090909,4,2,1,80,0,1
83081,-90.9090909090909,4,2,1,85,0,0
84312,-90.9090909090909,4,2,1,70,0,0
85543,-100,4,2,1,70,0,0
88004,-100,4,2,1,70,0,0
88466,-100,4,2,1,75,0,0
88927,-100,4,2,1,80,0,0
89081,-100,4,2,1,85,0,0

[Colours]
Combo1 : 179,176,187
Combo2 : 211,37,60

[HitObjects]
256,192,2456,12,0,3687,0:0:0:0:
400,234,4302,6,0,L|408:298,1,60.0000022888184,2|2,0:0|0:0,0:0:0:0:
473,138,4764,2,0,P|457:162|305:162,1,180.000006866455,2|2,0:0|0:0,0:0:0:0:
210,17,5533,6,0,L|202:81,1,60.0000022888184,2|2,0:0|0:0,0:0:0:0:
241,240,5995,2,0,P|225:216|73:216,1,180.000006866455,2|2,0:0|0:0,0:0:0:0:
246,383,6764,1,2,0:0:0:0:
246,383,6918,2,0,L|150:367,1,60.0000022888184,2|0,0:0|0:0,0:0:0:0:
35,319,7226,6,0,B|91:314|91:314|122:295|122:295|209:287,1,160,6|8,3:2|0:0,0:0:0:0:
313,122,7687,2,0,P|297:138|297:226,1,80,8|8,3:2|0:0,0:0:0:0:
461,268,7995,2,0,P|456:246|379:202,1,80,8|8,3:2|0:0,0:0:0:0:
265,325,8302,2,0,P|287:330|364:286,1,80,8|8,3:2|0:0,0:0:0:0:
436,107,8610,1,4,0:3:0:0:
436,107,8918,6,0,L|420:-5,1,80,2|2,0:0|0:0,0:0:0:0:
500,188,9226,2,0,P|372:188|356:172,1,160,2|2,0:0|0:0,0:0:0:0:
281,68,9687,2,0,P|137:68|121:84,1,160,2|2,0:0|0:0,0:0:0:0:
95,197,10149,5,2,3:2:0:0:
102,234,10225,1,0,3:0:0:0:
111,273,10302,1,0,3:0:0:0:
116,311,10379,1,0,3:0:0:0:
120,353,10456,2,0,B|200:369|184:297|272:313,1,160,12|0,0:0|0:0,0:0:0:0:
267,312,10918,1,0,0:0:0:0:
421,377,11072,6,0,B|370:295|442:220|442:220|414:181|414:181|466:99|410:29,1,384,4|0,3:2|0:0,0:0:0:0:
323,105,12149,1,0,3:0:0:0:
323,105,12226,1,0,3:0:0:0:
323,105,12302,6,0,L|211:89,1,80,14|0,0:0|0:0,0:0:0:0:
304,198,12610,2,0,L|192:182,1,80,2|0,0:0|0:0,0:0:0:0:
48,45,12918,2,0,L|160:29,1,80,2|0,0:0|0:0,0:0:0:0:
67,138,13226,2,0,L|179:122,1,80,2|0,0:0|0:0,0:0:0:0:
301,85,13533,6,0,B|218:153|220:293|304:354|304:354|280:310|295:263,1,384,4|0,3:2|0:0,0:0:0:0:
398,298,14610,1,0,3:0:0:0:
398,298,14687,1,0,3:0:0:0:
398,298,14764,5,8,0:0:0:0:
256,222,14918,2,0,L|200:230,3,40,8|4|4|4,0:0|0:3|0:3|0:3,0:0:0:0:
361,209,15226,1,8,0:0:0:0:
206,126,15379,2,0,L|150:134,3,40,8|4|4|4,0:0|0:3|0:3|0:3,0:0:0:0:
330,42,15687,1,8,0:0:0:0:
330,42,15764,1,8,0:0:0:0:
330,42,15841,2,8,L|394:54,1,40
47,241,16620,6,0,B|15:209|15:209|31:65,2,160,6|8|2,3:2|0:0|3:2,0:0:0:0:
227,281,17389,1,0,3:0:0:0:
105,153,17543,1,8,0:0:0:0:
24,365,17696,6,0,B|87:359|87:359|121:372|121:372|184:366,1,160,6|2,3:2|3:2,0:0:0:0:
406,382,18158,2,0,P|390:366|390:278,1,80,10|2,0:0|0:0,0:0:0:0:
507,148,18466,1,2,3:2:0:0:
460,318,18620,1,2,3:2:0:0:
338,150,18773,2,0,L|226:166,1,80,10|0,0:0|0:0,0:0:0:0:
119,338,19081,6,0,P|146:345|257:252,2,160,6|10|2,3:2|0:0|3:2,0:0:0:0:
37,129,19850,1,0,3:0:0:0:
154,240,20004,1,8,0:0:0:0:
207,22,20158,5,6,3:2:0:0:
3,289,20466,1,6,3:2:0:0:
324,383,20773,2,0,B|318:319|318:319|331:285|331:285|324:206,1,160,6|4,3:2|0:3,0:0:0:0:
324,181,21158,1,4,0:3:0:0:
324,181,21235,1,8,0:0:0:0:
449,304,21389,1,8,0:0:0:0:
229,379,21543,6,0,B|141:395|149:323|69:339,2,160,6|8|0,3:2|0:0|3:0,0:0:0:0:
403,351,22312,1,0,3:0:0:0:
236,261,22466,1,10,0:0:0:0:
413,99,22620,6,0,L|397:275,1,160,6|0,3:2|3:0,0:0:0:0:
307,71,23081,2,0,P|223:71|211:79,1,80,8|0,0:0|0:0,0:0:0:0:
219,276,23389,2,0,P|261:203|260:188,1,80,0|0,3:0|3:0,0:0:0:0:
149,15,23696,1,10,0:0:0:0:
145,54,23772,1,2,0:0:0:0:
141,94,23849,1,2,0:0:0:0:
137,134,23926,1,2,0:0:0:0:
133,174,24004,6,0,L|21:158,1,80,4|0,3:2|0:0,0:0:0:0:
234,56,24312,1,10,0:0:0:0:
125,261,24466,1,0,3:0:0:0:
6,43,24620,2,0,B|86:27|78:107|166:91,1,160,10|4,0:0|0:3,0:0:0:0:
354,65,25081,5,14,0:0:0:0:
147,350,25389,1,14,0:0:0:0:
242,12,25696,1,2,3:2:0:0:
242,12,25850,1,10,0:0:0:0:
353,187,26004,1,0,3:0:0:0:
167,94,26158,1,10,0:0:0:0:
167,94,26466,6,0,L|151:238,1,128,6|2,0:0|0:0,0:0:0:0:
142,323,26927,2,0,P|158:307|270:307,1,128,2|2,0:0|0:0,0:0:0:0:
337,340,27389,1,2,0:0:0:0:
447,233,27543,2,0,B|415:265|415:265|431:377,1,128,2|0,0:0|0:0,0:0:0:0:
345,201,28004,2,0,P|333:193|265:193,1,64,2|0,0:0|0:0,0:0:0:0:
176,296,28312,2,0,P|188:289|222:230,1,64,2|0,0:0|0:0,0:0:0:0:
179,101,28620,2,0,P|178:115|212:174,1,64,2|0,0:0|0:0,0:0:0:0:
388,90,28927,6,0,L|260:106,1,128,2|2,0:0|0:0,0:0:0:0:
224,282,29389,2,0,P|234:258|338:188,1,128,2|2,0:0|0:0,0:0:0:0:
397,173,29850,1,2,0:0:0:0:
316,288,30004,2,0,P|387:375|351:268,1,320,2|0,0:0|0:0,0:0:0:0:
351,268,31081,2,0,P|339:276|271:276,1,64,2|2,0:0|0:0,0:0:0:0:
121,164,31389,6,0,P|143:162|229:234,1,128,2|2,0:0|0:0,0:0:0:0:
122,334,31850,2,0,L|130:270,1,64,2|0,0:0|0:0,0:0:0:0:
17,163,32158,2,0,L|25:227,1,64,2|0,0:0|0:0,0:0:0:0:
98,61,32466,2,0,L|114:205,1,128,2|0,0:0|0:0,0:0:0:0:
192,42,32927,2,0,P|264:42|276:50,1,64,2|0,0:0|0:0,0:0:0:0:
266,204,33235,2,0,P|230:141|230:127,1,64,2|0,0:0|0:0,0:0:0:0:
370,58,33543,2,0,P|334:120|321:126,1,64,2|0,0:0|0:0,0:0:0:0:
180,238,33850,6,0,P|196:222|308:222,1,128,2|0,0:0|0:0,0:0:0:0:
443,374,34466,2,0,P|421:368|365:271,1,128,2|0,0:0|0:0,0:0:0:0:
377,181,34927,1,8,0:0:0:0:
377,181,35004,1,8,0:0:0:0:
377,181,35081,5,8,0:0:0:0:
0,260,35389,1,8,0:0:0:0:
233,365,35697,1,8,0:0:0:0:
41,33,36004,1,10,0:0:0:0:
377,181,36312,6,0,B|297:165|313:229|217:213,1,160,6|10,3:2|0:0,0:0:0:0:
178,44,36773,2,0,P|198:53|231:143,1,80,2|0,0:0|3:0,0:0:0:0:
89,273,37081,1,2,3:2:0:0:
152,121,37235,1,10,0:0:0:0:
259,294,37389,6,0,B|322:288|322:288|356:301|356:301|435:294,1,160,2|0,3:2|3:0,0:0:0:0:
361,111,37850,2,0,L|345:207,1,80,10|0,0:0|0:0,0:0:0:0:
310,379,38158,1,2,3:2:0:0:
222,216,38312,1,0,3:0:0:0:
78,363,38466,2,0,L|174:347,1,80,10|0,0:0|0:0,0:0:0:0:
4,233,38773,6,0,P|20:249|164:249,1,160,2|10,3:2|0:0,0:0:0:0:
77,79,39235,2,0,L|93:191,1,80,2|0,0:0|3:0,0:0:0:0:
246,269,39543,1,2,3:2:0:0:
172,110,39696,1,10,0:0:0:0:
67,326,39850,1,2,3:2:0:0:
67,326,40004,6,0,L|163:310,1,80,2|0,0:0|3:0,0:0:0:0:
349,264,40312,2,0,L|253:248,1,80,10|0,0:0|0:0,0:0:0:0:
95,168,40620,2,0,L|191:152,1,80,2|2,3:2|3:2,0:0:0:0:
394,115,40927,1,10,0:0:0:0:
232,11,41081,1,10,0:0:0:0:
232,11,41158,1,8,0:0:0:0:
232,11,41235,6,0,P|232:107|240:115,1,80,6|2,3:2|0:0,0:0:0:0:
389,208,41543,1,10,0:0:0:0:
299,58,41696,1,2,0:0:0:0:
215,266,41850,2,0,B|278:260|278:260|309:241|309:241|388:234,1,160,2|8,3:2|0:0,0:0:0:0:
461,70,42312,6,0,L|477:182,1,80,2|0,3:2|0:0,0:0:0:0:
500,340,42620,1,2,3:2:0:0:
395,200,42773,1,8,0:0:0:0:
295,364,42927,2,0,B|215:380|231:300|151:316,1,160,2|2,0:0|3:2,0:0:0:0:
305,198,43389,2,0,L|289:294,1,80,10|2,0:0|0:0,0:0:0:0:
196,73,43696,6,0,L|212:249,2,160,4|8|2,3:2|0:0|3:2,0:0:0:0:
97,220,44466,1,8,0:0:0:0:
38,36,44620,1,8,0:0:0:0:
435,159,44927,6,0,B|371:153|371:153|337:166|337:166|258:159,1,160,6|8,3:2|0:0,0:0:0:0:
53,139,45389,1,2,3:2:0:0:
53,139,45466,1,0,3:0:0:0:
53,139,45543,1,8,0:0:0:0:
214,240,45696,1,8,0:3:0:0:
149,93,45850,1,4,0:3:0:0:
1,358,46158,6,0,P|17:342|177:342,1,160,6|2,3:2|3:2,0:0:0:0:
233,367,46620,1,0,3:0:0:0:
202,178,46773,2,0,P|186:194|186:290,1,80,10|0,0:0|0:0,0:0:0:0:
260,361,47081,1,2,3:2:0:0:
407,213,47235,6,0,B|344:218|344:218|313:237|313:237|250:242,1,160,2|0,0:0|0:0,0:0:0:0:
362,379,47696,2,0,L|378:267,1,80,2|0,0:0|3:0,0:0:0:0:
485,195,48004,2,0,L|501:307,1,80,10|0,0:0|0:0,0:0:0:0:
361,133,48312,1,2,0:0:0:0:
512,79,48466,1,2,0:0:0:0:
401,216,48620,5,4,3:2:0:0:
401,216,48773,2,0,B|321:200|337:272|249:256,1,160,8|0,0:0|3:0,0:0:0:0:
188,194,49158,1,0,3:0:0:0:
188,194,49235,2,0,P|60:194|44:178,1,160,12|0,0:0|0:0,0:0:0:0:
219,354,49850,6,0,P|315:354|331:370,2,120,2|0|0,3:2|3:0|3:0,0:0:0:0:
26,235,50466,1,10,0:0:0:0:
182,266,50620,1,8,0:3:0:0:
56,363,50773,1,2,3:2:0:0:
105,14,51081,6,0,L|121:174,1,160,4|2,3:2|3:2,0:0:0:0:
29,343,51543,1,2,3:2:0:0:
29,343,51620,1,0,3:0:0:0:
29,343,51696,2,0,P|23:321|63:251,1,80,8|2,0:0|0:0,0:0:0:0:
211,312,52004,2,0,L|99:328,1,80,2|10,3:2|0:0,0:0:0:0:
33,157,52312,6,0,P|49:173|193:173,1,160,0|2,3:0|3:2,0:0:0:0:
335,73,52773,1,0,3:0:0:0:
165,25,52927,1,10,0:0:0:0:
269,186,53081,1,8,0:3:0:0:
269,186,53235,2,0,L|253:74,1,80,2|2,3:2|0:0,0:0:0:0:
345,314,53543,6,0,L|361:154,1,160,4|0,3:2|3:0,0:0:0:0:
369,59,54004,1,0,3:0:0:0:
271,224,54158,2,0,P|183:224|175:216,1,80,14|0,0:0|0:0,0:0:0:0:
109,96,54466,2,0,P|195:111|202:120,1,80,0|0,3:0|0:0,0:0:0:0:
70,256,54773,5,6,3:2:0:0:
15,105,54927,1,8,0:0:0:0:
138,171,55081,1,0,3:0:0:0:
222,25,55235,1,0,3:0:0:0:
222,25,55312,1,0,3:0:0:0:
222,25,55389,2,0,L|318:41,1,80,10|0,0:0|3:0,0:0:0:0:
395,55,55696,1,8,0:0:0:0:
240,351,56004,6,0,B|234:287|234:287|247:253|247:253|240:174,2,160,6|10|2,3:2|0:0|3:2,0:0:0:0:
150,180,56773,1,0,3:0:0:0:
319,295,56927,1,10,0:0:0:0:
95,382,57081,6,0,B|63:350|63:350|79:206,1,160,6|0,3:2|3:0,0:0:0:0:
11,53,57543,2,0,P|11:149|19:157,1,80,10|0,0:0|0:0,0:0:0:0:
171,270,57850,1,8,0:0:0:0:
190,268,57926,1,8,0:0:0:0:
210,266,58003,1,8,0:0:0:0:
230,264,58080,1,8,0:0:0:0:
250,262,58157,1,8,0:3:0:0:
270,260,58235,1,8,0:3:0:0:
290,259,58311,1,4,0:3:0:0:
310,257,58388,1,4,0:3:0:0:
330,255,58465,5,4,3:2:0:0:
193,169,58620,1,0,3:0:0:0:
406,106,58773,1,8,0:0:0:0:
406,106,59081,5,8,0:0:0:0:
376,352,59235,1,8,0:0:0:0:
310,112,59389,1,8,0:0:0:0:
280,358,59543,1,8,0:0:0:0:
0,224,60620,6,0,P|64:224|72:216,1,60.0000022888184,2|0,0:0|0:0,0:0:0:0:
73,116,60927,6,0,B|153:100|137:180|233:164,1,176.000005371094,6|10,3:2|0:0,0:0:0:0:
354,360,61389,2,0,P|338:344|338:232,1,88.000002685547,0|0,0:0|3:0,0:0:0:0:
428,81,61696,1,2,3:2:0:0:
233,163,61850,1,10,0:0:0:0:
492,273,62004,6,0,L|396:289,1,88.000002685547,2|0,3:2|0:0,0:0:0:0:
213,321,62312,1,2,3:2:0:0:
427,166,62466,2,0,P|411:182|235:182,1,176.000005371094,10|0,0:0|3:0,0:0:0:0:
110,34,62927,1,2,3:2:0:0:
314,88,63081,1,10,0:0:0:0:
142,212,63235,6,0,B|148:291|148:291|167:322|167:322|174:401,1,176.000005371094,2|2,0:0|0:0,0:0:0:0:
348,229,63696,2,0,L|236:213,1,88.000002685547,10|2,0:0|0:0,0:0:0:0:
91,87,64004,2,0,L|203:71,1,88.000002685547,2|2,3:2|3:2,0:0:0:0:
409,43,64312,1,10,0:0:0:0:
409,43,64466,1,2,3:2:0:0:
260,216,64620,6,0,L|268:272,3,44.0000013427735,2|2|2|2,0:0|0:0|3:2|0:0,0:0:0:0:
387,311,64927,2,0,L|395:255,3,44.0000013427735,10|2|2|2,0:0|0:0|0:0|0:0,0:0:0:0:
466,189,65235,2,0,P|450:173|354:173,1,88.000002685547,2|2,3:2|3:2,0:0:0:0:
285,184,65543,1,10,0:0:0:0:
201,381,65696,1,10,0:0:0:0:
201,381,65773,1,8,0:0:0:0:
201,381,65850,6,0,L|185:253,1,88.000002685547,4|2,3:2|0:0,0:0:0:0:
1,161,66158,2,0,P|17:193|161:193,1,176.000005371094,10|2,0:0|3:2,0:0:0:0:
249,6,66620,1,2,3:2:0:0:
90,137,66773,1,10,0:0:0:0:
249,6,66927,6,0,B|337:-10|329:62|417:46,1,176.000005371094,2|2,3:2|3:2,0:0:0:0:
277,209,67389,2,0,L|261:81,1,88.000002685547,10|0,0:0|0:0,0:0:0:0:
431,279,67696,2,0,L|447:151,1,88.000002685547,2|0,3:2|3:0,0:0:0:0:
457,50,68004,1,10,0:0:0:0:
342,268,68158,6,0,B|310:300|310:300|166:284,1,176.000005371094,2|2,0:0|0:0,0:0:0:0:
42,205,68620,2,0,P|138:205|154:221,1,88.000002685547,10|2,0:0|3:2,0:0:0:0:
186,70,68927,1,10,0:0:0:0:
90,279,69081,1,2,3:2:0:0:
17,61,69235,1,10,0:0:0:0:
17,61,69389,1,10,0:0:0:0:
114,361,69696,5,0,3:0:0:0:
114,361,69773,1,0,3:0:0:0:
114,361,69850,2,0,B|202:377|186:297|290:313,1,176.000005371094,10|10,0:0|0:0,0:0:0:0:
486,342,70312,1,0,3:0:0:0:
332,382,70466,1,10,0:0:0:0:
474,22,70773,6,0,L|458:166,1,132.00000402832,4|0,3:2|0:0,0:0:0:0:
459,153,71081,2,0,P|355:153|347:145,1,88.000002685547,10|0,0:0|0:0,0:0:0:0:
240,2,71389,2,0,P|306:81|305:91,1,88.000002685547,0|2,3:0|0:0,0:0:0:0:
252,260,71696,1,10,0:0:0:0:
90,98,71850,1,2,0:0:0:0:
90,98,72004,6,0,L|250:82,1,132.00000402832,0|0,3:0|0:0,0:0:0:0:
221,84,72312,2,0,L|205:212,1,88.000002685547,10|0,0:0|0:0,0:0:0:0:
63,325,72620,2,0,L|47:197,1,88.000002685547,0|2,3:0|0:0,0:0:0:0:
25,27,72927,1,10,0:0:0:0:
142,223,73081,1,2,0:0:0:0:
142,223,73235,6,0,P|238:223|254:207,1,88.000002685547,0|2,3:0|0:0,0:0:0:0:
336,49,73543,2,0,P|241:65|228:84,1,88.000002685547,10|2,0:0|0:0,0:0:0:0:
410,268,73850,1,2,3:2:0:0:
303,127,74004,1,2,0:0:0:0:
226,324,74158,1,10,0:0:0:0:
379,178,74312,1,2,0:0:0:0:
379,178,74466,6,0,L|512:194,1,88.000002685547,0|2,3:0|0:0,0:0:0:0:
512,194,74696,1,2,0:0:0:0:
512,194,74773,2,0,L|496:82,1,88.000002685547,10|0,0:0|0:0,0:0:0:0:
362,291,75081,2,0,L|378:179,1,88.000002685547,2|0,3:2|0:0,0:0:0:0:
502,351,75389,1,10,0:0:0:0:
275,382,75543,1,2,0:0:0:0:
275,382,75620,1,2,0:0:0:0:
275,382,75696,6,0,L|259:222,1,132.00000402832,4|0,3:2|0:0,0:0:0:0:
261,250,76004,2,0,P|165:250|149:234,1,88.000002685547,10|0,0:0|0:0,0:0:0:0:
2,107,76312,2,0,P|96:90|115:103,1,88.000002685547,2|2,3:2|0:0,0:0:0:0:
216,180,76620,1,10,0:0:0:0:
48,334,76773,1,2,0:0:0:0:
48,334,76927,6,0,L|64:174,1,132.00000402832,0|0,3:0|0:0,0:0:0:0:
61,202,77235,2,0,L|77:314,1,88.000002685547,10|0,0:0|0:0,0:0:0:0:
267,82,77543,2,0,L|251:194,1,88.000002685547,2|0,3:2|0:0,0:0:0:0:
229,361,77850,1,10,0:0:0:0:
144,148,78004,1,2,0:0:0:0:
337,272,78158,5,2,3:2:0:0:
337,272,78312,2,0,P|433:272|449:256,1,88.000002685547,2|10,0:0|0:0,0:0:0:0:
510,67,78620,1,2,0:0:0:0:
383,206,78773,1,2,3:2:0:0:
259,13,78927,1,2,0:0:0:0:
420,119,79081,1,10,0:0:0:0:
242,228,79235,1,2,0:0:0:0:
242,228,79312,1,2,0:0:0:0:
242,228,79389,6,0,L|258:356,1,88.000002685547,0|0,3:0|0:0,0:0:0:0:
43,382,79696,2,0,L|51:326,3,44.0000013427735,8|8|8|8,0:0|0:0|0:0|0:0,0:0:0:0:
137,269,80004,2,0,L|129:213,3,44.0000013427735,8|8|4|4,0:3|0:3|0:3|0:3,0:0:0:0:
48,145,80311,1,8,0:0:0:0:
177,23,80466,1,10,0:0:0:0:
341,135,80620,6,0,L|245:119,1,88.000002685547,4|0,3:2|0:0,0:0:0:0:
332,226,80927,2,0,L|236:210,1,88.000002685547,2|0,3:2|0:0,0:0:0:0:
174,354,81235,2,0,P|190:338|366:338,1,176.000005371094,10|0,0:0|0:0,0:0:0:0:
478,384,81696,1,2,3:2:0:0:
478,384,81850,6,0,B|446:352|446:352|462:208,1,176.000005371094,0|2,0:0|3:2,0:0:0:0:
298,11,82466,1,10,0:0:0:0:
298,11,82620,2,0,L|314:123,1,88.000002685547,2|8,3:2|0:0,0:0:0:0:
334,245,82927,1,2,0:0:0:0:
93,118,83081,6,0,P|109:102|205:102,1,88.000002685547,12|0,0:0|3:0,0:0:0:0:
370,160,83389,1,0,3:0:0:0:
145,260,83543,2,0,P|139:238|187:155,1,88.000002685547,12|0,0:0|3:0,0:0:0:0:
319,41,83851,1,0,3:0:0:0:
348,284,84004,1,12,0:0:0:0:
225,69,84158,1,4,3:2:0:0:
254,313,84312,1,12,0:0:0:0:
8,27,85543,6,0,L|104:43,1,80,6|0,3:2|0:0,0:0:0:0:
258,125,85850,2,0,L|162:141,1,80,0|0,3:0|0:0,0:0:0:0:
0,232,86158,2,0,L|96:248,1,80,10|0,0:0|0:0,0:0:0:0:
239,320,86466,1,0,3:0:0:0:
247,301,86542,1,0,3:0:0:0:
259,286,86620,1,0,3:0:0:0:
275,273,86696,1,0,3:0:0:0:
293,265,86773,6,0,L|309:361,1,80,6|0,3:2|0:0,0:0:0:0:
471,190,87081,2,0,L|455:286,1,80,0|0,3:0|0:0,0:0:0:0:
351,127,87389,1,10,0:0:0:0:
415,290,87543,1,0,3:0:0:0:
496,65,87696,2,0,L|400:49,1,80,8|0,0:0|0:0,0:0:0:0:
173,208,88004,6,0,P|187:220|269:223,1,80,14|0,0:0|0:0,0:0:0:0:
431,185,88312,1,4,3:2:0:0:
219,71,88466,2,0,P|215:89|254:161,1,80,14|0,0:0|0:0,0:0:0:0:
401,271,88774,1,4,3:2:0:0:
338,74,88927,1,14,0:0:0:0:
232,333,89081,1,14,0:0:0:0:
