osu file format v14

[General]
AudioFilename: audio.mp3
AudioLeadIn: 0
PreviewTime: 58033
Countdown: 0
SampleSet: Drum
StackLeniency: 0.5
Mode: 0
LetterboxInBreaks: 0
WidescreenStoryboard: 1

[Editor]
Bookmarks: 14727,24574,34420,44266,54112,59035,78728,83651,87343
DistanceSpacing: 1.1
BeatDivisor: 4
GridSize: 4
TimelineZoom: 1.8

[Metadata]
Title:graphite/diamond (TV Size)
TitleUnicode:graphite/diamond (TV Size)
Artist:May'n
ArtistUnicode:May'n
Creator:Kaguya_Sama
Version:Insane
Source:アズールレーン
Tags:碧蓝航线 激昂壮志 Azur Lane The Animation Azurlane Anime Japanese Op Opening Affirmation Neoskylove
BeatmapID:2190250
BeatmapSetID:1047833

[Difficulty]
HPDrainRate:5
CircleSize:3.7
OverallDifficulty:8
ApproachRate:9
SliderMultiplier:1.86
SliderTickRate:1

[Events]
//Background and Video events
0,0,"BG.jpg",0,0
Video,510,"op.mp4"
//Break Periods
//Storyboard Layer 0 (Background)
//Storyboard Layer 1 (Fail)
//Storyboard Layer 2 (Pass)
//Storyboard Layer 3 (Foreground)
//Storyboard Layer 4 (Overlay)
//Storyboard Sound Samples

[TimingPoints]
572,307.692307692308,4,2,0,50,1,0
2879,-250,4,2,0,50,0,0
4879,-100,4,2,0,50,0,0
5341,-125,4,3,1,80,0,0
5572,-100,4,3,1,5,0,0
5648,-100,4,3,1,80,0,0
6110,-100,4,3,1,85,0,0
6725,-100,4,3,1,90,0,0
7033,-250,4,2,0,70,0,0
8264,-100,4,3,1,70,0,0
8572,-166.666666666667,4,3,1,70,0,0
8648,-100,4,3,1,5,0,0
9187,-250,4,3,1,70,0,0
9264,-25,4,3,1,5,0,0
10110,-250,4,3,1,70,0,0
10725,-250,4,2,0,70,0,0
11572,-250,4,2,0,5,0,0
11648,-250,4,3,1,70,0,0
11725,-250,4,3,1,5,0,0
12572,363.636363636364,4,3,1,70,1,0
12572,-250,4,3,1,70,0,0
12753,241.935483870968,4,3,1,70,1,0
12878,307.692307692308,4,3,1,70,1,0
13195,281.69014084507,4,3,1,70,1,0
13335,300,4,3,1,70,1,0
14088,319.148936170213,4,3,1,70,1,0
14726,307.692307692308,4,3,1,90,1,0
14726,-100,4,3,1,90,0,0
18341,-100,4,3,1,5,0,0
18572,-100,4,3,1,90,0,0
18649,-100,4,3,1,5,0,0
18880,-100,4,3,1,90,0,0
18956,-100,4,3,1,5,0,0
19187,-100,4,3,1,90,0,0
23264,-100,4,3,1,5,0,0
23495,-100,4,3,1,90,0,0
23572,-100,4,3,1,5,0,0
23803,-100,4,3,1,90,0,0
23879,-100,4,3,1,5,0,0
23956,-100,4,3,1,90,0,0
24264,-500,4,3,1,70,0,0
24495,-125,4,3,1,5,0,0
24572,-250,4,2,0,40,0,0
33033,-125,4,3,1,70,0,0
34110,-250,4,3,1,70,0,0
34341,-125,4,3,1,5,0,0
34418,-125,4,3,1,70,0,0
36802,-125,4,3,1,5,0,0
36879,-125,4,3,1,70,0,0
37110,-125,4,3,1,5,0,0
37187,-125,4,3,1,70,0,0
44264,-166.666666666667,4,3,1,60,0,0
49110,-166.666666666667,4,3,1,5,0,0
49187,-166.666666666667,4,3,1,60,0,0
54110,-125,4,3,1,70,0,0
59033,-100,4,3,1,95,0,1
62726,-100,4,2,0,95,0,1
63341,-100,4,3,1,95,0,1
78726,-125,4,3,1,80,0,0
81187,-125,4,3,1,95,0,0
83649,-166.666666666667,4,3,1,60,0,0
86110,-125,4,3,1,80,0,0

[Colours]
Combo1 : 218,168,234
Combo2 : 255,128,192
Combo3 : 142,61,163
Combo4 : 198,198,198

[HitObjects]
103,140,2418,5,2,0:0:0:0:
103,140,2572,1,2,0:0:0:0:
95,251,2879,6,0,L|102:131,1,111.6,2|2,0:0|0:0,0:0:0:0:
175,191,3648,1,2,0:0:0:0:
175,191,3802,1,2,0:0:0:0:
184,302,4110,6,0,L|173:185,1,111.6,2|2,0:0|0:0,0:0:0:0:
95,227,4879,1,2,0:0:0:0:
95,227,5033,1,2,0:0:0:0:
85,317,5341,6,0,P|114:273|190:289,1,111.6,12|0,0:0|0:0,0:0:0:0:
183,292,5648,1,0,0:0:0:0:
231,197,5802,1,0,0:0:0:0:
290,287,5956,1,0,0:0:0:0:
95,227,6110,5,0,0:0:0:0:
231,197,6264,1,0,0:0:0:0:
179,109,6418,1,0,0:0:0:0:
315,139,6572,1,0,0:0:0:0:
183,292,6725,5,8,0:0:0:0:
409,178,8264,5,0,0:0:0:0:
408,192,8341,1,0,0:0:0:0:
407,206,8418,1,0,0:0:0:0:
406,220,8495,1,0,0:0:0:0:
404,233,8572,6,0,P|334:222|352:122,1,195.299994039917,8|0,0:0|0:0,0:0:0:0:
427,98,9187,6,0,L|204:115,1,223.2,12|0,0:0|0:0,0:0:0:0:
41,132,10264,1,0,0:0:0:0:
42,146,10341,1,0,0:0:0:0:
43,160,10418,6,0,L|39:209,1,37.2,8|0,0:0|0:0,0:0:0:0:
135,283,10725,2,0,L|132:245,1,37.2,2|0,0:0|0:0,0:0:0:0:
204,115,11033,2,0,L|200:164,1,37.2,2|2,0:0|0:0,0:0:0:0:
296,238,11341,2,0,L|293:200,1,37.2,2|0,0:0|0:0,0:0:0:0:
204,115,11648,6,0,L|427:98,1,223.2,12|0,0:0|0:0,0:0:0:0:
512,87,12753,1,0,0:0:0:0:
434,190,12878,2,0,P|406:188|374:178,1,46.5,10|10,0:0|0:0,0:0:0:0:
366,160,13031,2,0,P|342:162|320:169,1,46.5,8|8,0:0|0:0,0:0:0:0:
301,186,13195,1,0,0:0:0:0:
231,244,13335,6,0,L|184:240,1,46.5,10|10,0:0|0:0,0:0:0:0:
118,174,13485,2,8,L|72:178,1,46.5,8|0,0:0|0:0,0:0:0:0:
3,114,13635,1,0,0:0:0:0:
124,97,13785,5,10,0:0:0:0:
122,116,13860,1,10,0:0:0:0:
121,135,13935,1,10,0:0:0:0:
120,155,14010,1,10,0:0:0:0:
118,174,14088,1,0,0:0:0:0:
45,259,14726,6,0,B|80:289|80:289|236:276,2,186,4|8|0,0:0|0:0|0:0,0:0:0:0:
118,174,15495,1,0,0:0:0:0:
219,277,15649,1,8,0:0:0:0:
302,156,15802,6,0,P|241:168|98:172,1,186,0|0,0:0|0:0,0:0:0:0:
253,82,16264,2,0,P|188:91|145:91,1,93,8|0,0:0|0:0,0:0:0:0:
117,19,16572,1,0,0:0:0:0:
117,19,16726,1,0,0:0:0:0:
28,168,16879,2,0,P|32:143|88:88,1,93,8|0,0:0|0:0,0:0:0:0:
253,82,17187,6,0,L|142:93,1,93,0|0,0:0|0:0,0:0:0:0:
302,156,17495,2,0,L|413:167,1,93,8|0,0:0|0:0,0:0:0:0:
265,235,17802,1,0,0:0:0:0:
340,77,17956,1,0,0:0:0:0:
443,234,18110,1,8,0:0:0:0:
219,165,18264,5,0,0:0:0:0:
219,165,18572,5,0,0:0:0:0:
219,165,18879,5,8,0:0:0:0:
68,145,19187,6,0,L|123:150,1,46.5,0|0,0:0|0:0,0:0:0:0:
219,165,19341,1,0,0:0:0:0:
223,187,19417,1,0,0:0:0:0:
224,210,19494,1,0,0:0:0:0:
221,234,19571,1,0,0:0:0:0:
215,257,19649,6,0,P|157:288|107:275,1,93,4|0,0:0|0:0,0:0:0:0:
68,145,19956,2,0,P|126:114|176:127,1,93,8|0,0:0|0:0,0:0:0:0:
50,239,20264,1,0,0:0:0:0:
151,116,20418,1,0,0:0:0:0:
140,201,20572,1,8,0:0:0:0:
240,65,20726,6,0,P|157:94|135:15,1,186,0|0,0:0|0:0,0:0:0:0:
310,15,21187,2,0,P|325:78|305:120,1,93,8|0,0:0|0:0,0:0:0:0:
140,201,21495,2,0,P|187:156|233:152,1,93,0|0,0:0|0:0,0:0:0:0:
387,256,21802,1,8,0:0:0:0:
363,255,21878,1,0,0:0:0:0:
341,248,21955,1,0,0:0:0:0:
322,235,22032,1,0,0:0:0:0:
307,217,22109,5,4,0:0:0:0:
240,65,22264,1,0,0:0:0:0:
217,237,22418,5,8,0:0:0:0:
316,103,22572,1,0,0:0:0:0:
280,297,22726,5,8,3:0:0:0:
212,151,22879,1,0,3:0:0:0:
196,324,23033,1,8,3:0:0:0:
380,173,23187,5,0,0:0:0:0:
380,173,23495,5,0,0:0:0:0:
380,173,23802,5,0,0:0:0:0:
445,230,23956,5,8,0:0:0:0:
301,199,24110,1,0,0:0:0:0:
399,90,24264,1,0,0:0:0:0:
399,90,24572,6,0,L|324:83,1,74.4,6|0,0:0|0:0,0:0:0:0:
255,125,25033,2,0,L|181:132,1,74.4,2|0,0:0|0:0,0:0:0:0:
111,92,25495,1,2,0:0:0:0:
182,132,25649,6,0,P|193:176|179:213,1,74.4,0|0,0:0|0:0,0:0:0:0:
95,283,26110,2,0,P|107:269|119:255,1,37.2,2|0,0:0|0:0,0:0:0:0:
236,290,26418,2,0,P|218:287|200:285,1,37.2,2|0,0:0|0:0,0:0:0:0:
171,167,26726,2,0,P|178:184|185:202,1,37.2,2|0,0:0|0:0,0:0:0:0:
44,106,27033,6,0,P|93:119|117:112,1,74.4,2|0,0:0|0:0,0:0:0:0:
175,59,27495,2,0,P|211:53|245:66,1,74.4,2|2,0:0|0:0,0:0:0:0:
310,115,27956,1,0,0:0:0:0:
310,115,28110,1,2,0:0:0:0:
374,19,28264,6,0,B|390:45|390:45|382:101,1,74.4,2|0,0:0|0:0,0:0:0:0:
433,151,28726,2,0,B|417:177|417:177|425:233,1,74.4,2|0,0:0|0:0,0:0:0:0:
479,279,29187,2,0,P|460:294|444:301,1,37.2,2|2,0:0|0:0,0:0:0:0:
275,258,29495,6,0,P|312:252|349:255,1,74.4,2|0,0:0|0:0,0:0:0:0:
216,313,29956,2,0,P|179:319|142:316,2,74.4,2|2|2,0:0|0:0|0:0,0:0:0:0:
275,258,30726,6,0,L|268:183,1,74.4,0|2,0:0|0:0,0:0:0:0:
217,85,31341,2,0,L|213:122,1,37.2,2|0,0:0|0:0,0:0:0:0:
150,174,31649,2,0,L|153:211,1,37.2,2|0,0:0|0:0,0:0:0:0:
216,313,31956,6,0,P|179:310|142:316,1,74.4,2|0,0:0|0:0,0:0:0:0:
59,355,32572,2,0,B|51:318|51:318|61:278,1,74.4,2|0,0:0|0:0,0:0:0:0:
14,202,33033,1,0,0:0:0:0:
14,202,33110,1,0,0:0:0:0:
14,202,33187,6,0,L|114:208,1,74.4,8|0,0:0|0:0,0:0:0:0:
90,113,33495,2,0,L|-10:119,1,74.4,8|0,0:0|0:0,0:0:0:0:
16,24,33802,2,0,L|116:30,1,74.4,8|0,0:0|0:0,0:0:0:0:
239,80,34110,6,0,L|179:84,1,55.8,8|0,0:0|0:0,0:0:0:0:
163,68,34418,6,0,P|128:136|176:208,1,148.8,4|8,0:0|0:0,0:0:0:0:
351,142,34879,2,0,B|282:113|282:113|207:137,1,148.8,0|0,0:0|0:0,0:0:0:0:
176,277,35341,1,8,0:0:0:0:
343,290,35495,6,0,P|345:225|351:138,1,148.8,0|0,0:0|0:0,0:0:0:0:
415,77,35956,2,0,P|446:81|497:93,1,74.4,8|0,0:0|0:0,0:0:0:0:
357,7,36264,2,0,P|326:11|275:23,1,74.4,0|0,0:0|0:0,0:0:0:0:
350,141,36572,2,0,P|345:215|345:262,1,111.6,8|0,0:0|0:0,0:0:0:0:
343,290,36879,6,0,B|421:275|406:326|490:308,1,148.8,0|8,0:0|0:0,0:0:0:0:
432,161,37341,2,0,B|458:232|458:232|509:167,1,148.8,0|0,0:0|0:0,0:0:0:0:
276,147,37802,2,0,P|313:149|350:141,1,74.4,8|0,0:0|0:0,0:0:0:0:
136,46,38110,6,0,B|202:43|202:43|227:59|227:59|294:56,2,148.8,0|8|0,0:0|0:0|0:0,0:0:0:0:
49,56,38879,1,0,0:0:0:0:
196,173,39033,2,0,P|204:133|199:92,1,74.4,8|8,0:0|0:0,0:0:0:0:
200,99,39264,1,8,0:0:0:0:
200,99,39341,5,4,0:0:0:0:
136,45,39495,1,0,0:0:0:0:
124,131,39649,1,8,0:0:0:0:
59,76,39803,1,0,0:0:0:0:
16,222,39956,2,0,P|43:194|47:146,1,74.4,0|0,0:0|0:0,0:0:0:0:
124,131,40264,1,8,0:0:0:0:
265,159,40418,6,0,B|165:173|225:114|95:134,1,148.8,0|0,0:0|0:0,0:0:0:0:
136,45,40879,1,8,0:0:0:0:
247,11,41033,2,0,P|254:60|240:88,1,74.4,0|0,0:0|0:0,0:0:0:0:
142,209,41341,1,0,0:0:0:0:
123,130,41495,1,8,0:0:0:0:
219,234,41649,1,0,0:0:0:0:
31,207,41802,6,0,B|61:193|115:189|142:208|142:208|110:207|91:222,2,148.8,4|8|0,0:0|0:0|0:0,0:0:0:0:
2,292,42572,1,0,0:0:0:0:
69,351,42726,1,8,0:0:0:0:
135,291,42879,1,0,0:0:0:0:
288,367,43033,5,0,0:0:0:0:
194,373,43187,2,0,P|175:297|196:218,1,148.8,8|0,0:0|0:0,0:0:0:0:
190,229,43572,1,0,0:0:0:0:
190,229,43649,5,8,0:0:0:0:
285,189,43802,1,8,0:0:0:0:
366,225,43956,1,0,0:0:0:0:
432,191,44110,1,0,0:0:0:0:
449,298,44264,6,0,P|428:236|439:169,1,111.599996594238,4|0,0:0|0:0,0:0:0:0:
485,103,44726,1,0,0:0:0:0:
485,103,44802,1,0,0:0:0:0:
485,103,44879,2,0,L|351:111,1,111.599996594238,8|0,0:0|0:0,0:0:0:0:
431,190,45341,1,0,0:0:0:0:
360,93,45495,6,0,L|452:88,2,83.6999974456788
318,170,46110,2,0,B|285:190|285:190|197:175,1,111.599996594238,8|0,0:0|0:0,0:0:0:0:
148,118,46572,1,0,0:0:0:0:
226,75,46726,5,0,0:0:0:0:
226,75,46879,2,0,P|163:31|108:38,1,111.599996594238,8|0,0:0|0:0,0:0:0:0:
63,89,47264,1,0,0:0:0:0:
63,89,47341,2,0,B|67:162|67:162|91:188|91:188|95:271,1,167.399994891358,8|0,0:0|0:0,0:0:0:0:
67,327,47956,6,0,P|31:339|52:311,2,83.6999974456788,0|0|0,0:0|0:0|0:0,0:0:0:0:
93,246,48572,1,8,0:0:0:0:
176,226,48726,1,8,0:0:0:0:
185,366,48879,1,0,0:0:0:0:
185,366,49187,6,0,P|238:331|288:340,1,111.599996594238,4|0,0:0|0:0,0:0:0:0:
400,371,49649,1,0,0:0:0:0:
400,371,49726,1,0,0:0:0:0:
400,371,49802,6,0,L|406:243,1,111.599996594238,8|0,0:0|0:0,0:0:0:0:
472,204,50264,1,0,0:0:0:0:
319,245,50418,5,0,0:0:0:0:
405,260,50572,1,8,0:0:0:0:
472,204,50726,1,0,0:0:0:0:
470,75,50879,1,0,0:0:0:0:
470,75,50956,1,0,0:0:0:0:
470,75,51033,5,8,0:0:0:0:
362,141,51187,1,0,0:0:0:0:
472,204,51341,1,0,0:0:0:0:
472,204,51649,6,0,P|403:230|358:154,1,167.399994891358,4|0,0:0|0:0,0:0:0:0:
362,141,52264,6,0,P|320:75|246:99,1,167.399994891358,8|0,0:0|0:0,0:0:0:0:
254,122,52879,6,0,B|169:82|193:162|86:115,1,167.399994891358,0|0,0:0|0:0,0:0:0:0:
78,106,53495,5,0,0:0:0:0:
143,48,53649,1,0,0:0:0:0:
215,194,53802,1,8,0:0:0:0:
215,194,54110,6,0,P|204:246|175:338,2,148.8,4|8|0,0:0|0:0|0:0,0:0:0:0:
179,109,54879,1,0,0:0:0:0:
123,182,55033,1,8,0:0:0:0:
235,280,55187,6,0,P|292:270|385:306,1,148.8,0|0,0:0|0:0,0:0:0:0:
396,211,55649,2,0,P|338:216|311:232,1,74.4,8|0,0:0|0:0,0:0:0:0:
461,270,55956,1,0,0:0:0:0:
500,155,56110,1,0,0:0:0:0:
500,155,56187,1,0,0:0:0:0:
500,155,56264,5,8,0:0:0:0:
476,162,56340,1,8,0:0:0:0:
451,165,56417,1,8,0:0:0:0:
426,165,56494,1,8,0:0:0:0:
402,161,56571,5,12,0:0:0:0:
490,75,56726,2,0,P|441:84|401:79,1,74.4,0|8,0:0|0:0,0:0:0:0:
300,2,57033,1,0,0:0:0:0:
300,2,57110,1,0,0:0:0:0:
300,2,57187,5,8,0:0:0:0:
380,12,57341,1,0,0:0:0:0:
370,92,57495,1,8,0:0:0:0:
290,82,57649,1,8,0:0:0:0:
290,82,59033,6,0,B|210:68|210:68|184:77|184:77|88:59,2,186,4|8|0,0:0|0:0|0:0,0:0:0:0:
366,121,59802,2,0,L|359:232,1,93,0|8,0:0|0:0,0:0:0:0:
434,252,60110,6,0,B|329:218|382:299|245:253,1,186,0|0,0:0|0:0,0:0:0:0:
133,225,60572,1,8,0:0:0:0:
206,186,60726,2,0,P|213:254|121:307,1,186,0|0,0:0|0:0,0:0:0:0:
136,142,61187,1,8,0:0:0:0:
49,257,61341,6,0,B|9:210|9:210|137:225,1,186,0|0,0:0|0:0,0:0:0:0:
228,131,61802,2,0,L|116:144,1,93,8|0,0:0|0:0,0:0:0:0:
121,307,62110,1,0,0:0:0:0:
255,256,62264,1,0,0:0:0:0:
178,370,62418,1,8,0:0:0:0:
40,330,62572,1,0,0:0:0:0:
62,250,62726,6,0,L|55:165,1,46.5,2|2,0:0|0:0,0:0:0:0:
135,207,62879,2,0,L|138:160,1,46.5,2|2,0:0|0:0,0:0:0:0:
69,119,63033,1,2,0:0:0:0:
90,97,63109,1,2,0:0:0:0:
118,84,63186,1,2,0:0:0:0:
149,83,63263,1,2,0:0:0:0:
179,92,63341,5,0,0:0:0:0:
203,109,63417,1,0,0:0:0:0:
234,114,63494,1,0,0:0:0:0:
263,108,63571,1,0,0:0:0:0:
288,92,63649,2,0,L|365:85,1,46.5,8|0,0:0|0:0,0:0:0:0:
402,175,63802,2,0,L|325:168,1,46.5,0|0,0:0|0:0,0:0:0:0:
273,198,63956,6,0,P|335:183|401:190,1,93,4|0,0:0|0:0,0:0:0:0:
466,250,64264,2,0,B|392:235|411:282|311:257,1,139.5,8|0,0:0|0:0,0:0:0:0:
314,274,64572,1,0,0:0:0:0:
402,308,64726,1,0,0:0:0:0:
363,183,64879,1,8,0:0:0:0:
229,274,65033,6,0,B|218:303|251:335|309:305|314:253|295:204|260:189,1,186,0|0,0:0|0:0,0:0:0:0:
100,209,65495,2,0,P|170:193|217:203,1,93,8|0,0:0|0:1,0:0:0:0:
94,298,65802,2,0,P|163:299|227:274,1,139.5,0|0,0:0|0:0,0:0:0:0:
244,283,66110,1,8,0:0:0:0:
301,379,66264,6,0,P|276:314|351:237,1,186,0|0,0:0|0:0,0:0:0:0:
436,318,66726,1,8,0:0:0:0:
357,319,66879,1,0,0:0:0:0:
422,181,67033,1,8,0:0:0:0:
463,248,67186,1,0,0:0:0:0:
311,253,67341,1,8,0:0:0:0:
290,103,67495,6,0,B|320:63|320:63|362:94|366:147|340:197,1,186,0|8,0:0|0:0,0:0:0:0:
319,207,67879,1,8,0:0:0:0:
319,207,67956,2,0,L|306:275,1,46.5,0|0,0:0|0:0,0:0:0:0:
233,261,68110,2,0,L|246:329,1,46.5,0|0,0:0|0:0,0:0:0:0:
286,373,68264,5,0,0:0:0:0:
378,364,68418,1,0,0:0:0:0:
470,354,68572,1,8,0:0:0:0:
427,246,68726,6,0,B|372:321|372:321|309:251,1,186,0|0,0:0|0:0,0:0:0:0:
174,167,69187,2,0,B|219:152|219:152|268:194,1,93,8|0,0:0|0:0,0:0:0:0:
233,261,69495,2,0,B|188:276|188:276|139:234,1,93,0|0,0:0|0:0,0:0:0:0:
101,127,69802,1,8,0:0:0:0:
40,269,69956,6,0,P|97:262|175:150,1,186,0|0,0:0|0:0,0:0:0:0:
12,130,70418,2,0,P|47:116|101:127,1,93,8|0,0:0|0:0,0:0:0:0:
180,86,70726,2,0,P|150:51|107:38,1,93
173,166,71033,1,8,0:0:0:0:
272,84,71187,6,8,B|350:79|350:79|374:97|374:97|468:90,1,186,0|0,0:0|0:0,0:0:0:0:
419,180,71649,2,0,L|512:187,1,93,8|0,0:0|0:0,0:0:0:0:
331,227,71956,1,0,0:0:0:0:
341,139,72110,1,0,0:0:0:0:
437,202,72264,1,8,0:0:0:0:
427,290,72418,1,0,0:0:0:0:
240,283,72572,5,0,0:0:0:0:
240,283,72726,2,0,B|185:310|151:282|151:282|110:253|35:296,1,186,0|0,0:0|0:0,0:0:0:0:
17,214,73187,2,0,P|98:190|216:227,1,186,0|8,0:0|0:0,0:0:0:0:
240,283,73649,6,0,B|213:235|213:235|242:91,1,186,0|0,0:0|0:0,0:0:0:0:
362,174,74110,2,0,P|293:188|255:169,1,93,8|0,0:0|0:0,0:0:0:0:
154,97,74418,1,0,0:0:0:0:
207,29,74572,1,0,0:0:0:0:
67,88,74726,1,8,0:0:0:0:
268,168,74879,6,0,B|351:154|351:154|366:162|366:162|470:146,1,186,0|0,0:0|0:0,0:0:0:0:
490,235,75341,2,0,L|448:339,1,93,8|0,0:0|0:0,0:0:0:0:
281,275,75649,2,0,B|256:250|256:250|337:236|337:236|357:242|357:242|418:232,1,186,0|8,0:0|0:0,0:0:0:0:
365,318,76110,6,0,P|298:296|354:363,1,186,0|0,0:0|0:0,0:0:0:0:
209,376,76572,2,0,P|199:331|209:286,1,93,8|0,0:0|0:0,0:0:0:0:
268,168,76879,1,0,0:0:0:0:
286,251,77033,1,0,0:0:0:0:
179,191,77187,1,8,0:0:0:0:
197,108,77341,1,0,0:0:0:0:
299,83,77495,6,0,P|235:94|110:43,1,186,4|8,0:0|0:0,0:0:0:0:
55,3,77956,1,0,0:0:0:0:
91,131,78110,1,0,0:0:0:0:
179,0,78264,2,0,P|210:16|279:9,1,93,0|0,0:0|0:0,0:0:0:0:
299,83,78572,1,0,0:0:0:0:
354,181,78726,6,0,P|330:130|385:51,1,148.8,0|0,0:0|0:0,0:0:0:0:
480,99,79341,2,0,B|506:141|506:141|380:120,1,148.8,8|0,0:0|0:0,0:0:0:0:
373,55,79802,1,0,0:0:0:0:
281,155,80110,6,0,B|255:197|255:197|381:176,1,148.8,8|0,0:0|0:0,0:0:0:0:
373,55,80572,1,8,0:0:0:0:
294,73,80726,2,0,P|247:65|187:71,1,74.4,0|0,0:0|0:0,0:0:0:0:
99,102,81033,1,0,0:0:0:0:
99,102,81110,1,0,0:0:0:0:
99,102,81187,5,8,0:0:0:0:
133,250,81341,2,0,L|144:145,1,74.4,0|0,0:0|0:0,0:0:0:0:
79,115,81649,5,8,0:0:0:0:
113,263,81803,2,0,L|124:158,1,74.4,0|0,0:0|0:0,0:0:0:0:
59,128,82110,5,8,0:0:0:0:
93,276,82264,2,0,L|104:171,1,74.4,0|8,0:0|0:0,0:0:0:0:
59,128,83649,6,0,P|143:99|175:108,2,111.599996594238,0|0|8,0:0|0:0|0:0,0:0:0:0:
16,201,84572,1,0,0:0:0:0:
162,185,84726,1,0,0:0:0:0:
162,185,84802,1,0,0:0:0:0:
162,185,84879,6,0,L|157:251,1,55.7999982971192,0|8,0:0|0:0,0:0:0:0:
249,161,85187,2,0,L|244:105,1,55.7999982971192,0|0,0:0|0:0,0:0:0:0:
374,214,85495,2,0,L|318:218,1,55.7999982971192,8|0,0:0|0:0,0:0:0:0:
208,311,85802,2,0,L|263:315,1,55.7999982971192,8|0,0:0|0:0,0:0:0:0:
326,377,86110,6,0,P|362:310|336:226,1,148.8,8|0,0:0|0:0,0:0:0:0:
337,150,86572,2,0,P|377:214|462:234,1,148.8,8|0,0:0|0:0,0:0:0:0:
500,127,87033,2,0,P|454:128|419:166,1,74.4,8|8,0:0|0:0,0:0:0:0:
