osu file format v14

[General]
AudioFilename: audio.mp3
AudioLeadIn: 0
PreviewTime: 58033
Countdown: 0
SampleSet: Soft
StackLeniency: 0.5
Mode: 0
LetterboxInBreaks: 0
WidescreenStoryboard: 1

[Editor]
DistanceSpacing: 1
BeatDivisor: 4
GridSize: 4
TimelineZoom: 1.1

[Metadata]
Title:graphite/diamond (TV Size)
TitleUnicode:graphite/diamond (TV Size)
Artist:May'n
ArtistUnicode:May'n
Creator:Kaguya_Sama
Version:Hard
Source:アズールレーン
Tags:碧蓝航线 激昂壮志 Azur Lane The Animation Azurlane Anime Japanese Op Opening Affirmation Neoskylove
BeatmapID:2192383
BeatmapSetID:1047833

[Difficulty]
HPDrainRate:5
CircleSize:3.7
OverallDifficulty:6
ApproachRate:8
SliderMultiplier:1.48
SliderTickRate:1

[Events]
//Background and Video events
0,0,"BG.jpg",0,0
Video,510,"op.mp4"
//Break Periods
2,2002,4591
//Storyboard Layer 0 (Background)
//Storyboard Layer 1 (Fail)
//Storyboard Layer 2 (Pass)
//Storyboard Layer 3 (Foreground)
//Storyboard Layer 4 (Overlay)
//Storyboard Sound Samples

[TimingPoints]
572,307.692307692308,4,2,0,50,1,0
2879,-100,4,2,0,50,0,0
4879,-100,4,2,0,50,0,0
5341,-100,4,3,1,80,0,0
5572,-100,4,3,1,5,0,0
5648,-100,4,3,1,80,0,0
6110,-100,4,3,1,85,0,0
6725,-100,4,3,1,90,0,0
7033,-100,4,2,0,70,0,0
8264,-100,4,3,1,70,0,0
8572,-100,4,3,1,70,0,0
8648,-100,4,3,1,5,0,0
9187,-100,4,3,1,70,0,0
10725,-100,4,2,0,70,0,0
11648,-100,4,3,1,70,0,0
12572,363.636363636364,4,3,1,70,1,0
12753,241.935483870968,4,3,1,70,1,0
12878,307.692307692308,4,3,1,70,1,0
13195,281.69014084507,4,3,1,70,1,0
13335,300,4,3,1,70,1,0
14088,319.148936170213,4,3,1,70,1,0
14726,307.692307692308,4,3,1,90,1,0
14726,-100,4,3,1,90,0,0
18341,-100,4,3,1,5,0,0
18572,-100,4,3,1,90,0,0
18649,-100,4,3,1,5,0,0
18880,-100,4,3,1,90,0,0
18956,-100,4,3,1,5,0,0
19187,-100,4,3,1,90,0,0
23264,-100,4,3,1,5,0,0
23495,-100,4,3,1,90,0,0
23572,-100,4,3,1,5,0,0
23803,-100,4,3,1,90,0,0
23879,-100,4,3,1,5,0,0
23956,-100,4,3,1,90,0,0
24264,-100,4,3,1,70,0,0
24495,-100,4,3,1,5,0,0
24572,-125,4,2,0,50,0,0
33033,-100,4,3,1,70,0,0
34110,-100,4,3,1,70,0,0
34341,-100,4,3,1,5,0,0
34418,-100,4,3,1,70,0,0
36802,-100,4,3,1,5,0,0
36879,-100,4,3,1,70,0,0
37110,-100,4,3,1,5,0,0
37187,-100,4,3,1,70,0,0
44264,-100,4,3,1,60,0,0
49110,-100,4,3,1,5,0,0
49187,-100,4,3,1,50,0,0
54110,-100,4,3,1,70,0,0
59033,-100,4,3,1,95,0,1
62726,-100,4,2,0,95,0,1
63341,-100,4,3,1,95,0,1
78726,-100,4,3,1,80,0,0
81187,-100,4,3,1,95,0,0
83649,-100,4,3,1,60,0,0
86110,-100,4,3,1,80,0,0

[Colours]
Combo1 : 218,168,234
Combo2 : 255,128,192
Combo3 : 142,61,163
Combo4 : 198,198,198

[HitObjects]
256,192,572,12,0,1802,0:0:0:0:
220,138,5341,5,12,0:0:0:0:
328,259,5648,1,0,0:0:0:0:
328,259,5802,2,0,L|229:249,1,74,0|0,0:0|0:0,0:0:0:0:
184,295,6110,2,0,L|96:284,1,74,0|0,0:0|0:0,0:0:0:0:
35,319,6418,1,0,0:0:0:0:
35,319,6572,1,0,0:0:0:0:
45,238,6725,1,8,0:0:0:0:
45,238,7033,6,0,P|53:183|47:134,1,74,2|0,0:0|0:0,0:0:0:0:
17,90,7341,2,0,P|69:82|134:154,1,148,2|0,0:0|0:0,0:0:0:0:
141,225,7802,6,0,P|185:281|256:279,1,148,2|0,0:0|0:0,0:0:0:0:
337,292,8264,2,0,L|355:330,3,37,0|0|0|0,0:0|0:0|0:0|0:0,0:0:0:0:
389,344,8572,2,0,B|416:358|441:356|459:337|465:310|456:290|456:290|401:176,1,222,8|0,0:0|0:0,0:0:0:0:
348,140,9187,6,0,P|319:161|258:173,1,74,12|0,0:0|0:0,0:0:0:0:
200,170,9495,2,0,P|137:148|117:127,1,74,0|0,0:0|0:0,0:0:0:0:
128,62,9802,2,0,P|159:42|195:36,1,74,0|0,0:0|0:0,0:0:0:0:
275,56,10110,1,0,0:0:0:0:
346,16,10264,1,0,0:0:0:0:
383,33,10341,1,0,0:0:0:0:
419,51,10418,6,0,L|411:152,2,74,8|0|2,0:0|0:0|0:0,0:0:0:0:
496,26,10879,1,0,0:0:0:0:
499,107,11033,2,0,L|491:208,1,74,2|2,0:0|0:0,0:0:0:0:
415,206,11341,1,2,0:0:0:0:
488,350,11648,6,0,P|414:336|336:370,1,148,12|0,0:0|0:0,0:0:0:0:
267,379,12110,1,0,0:0:0:0:
205,325,12264,2,0,P|203:283|217:230,1,74,0|0,0:0|0:0,0:0:0:0:
260,188,12572,2,0,P|262:146|248:93,1,74
197,57,12878,5,10,0:0:0:0:
122,90,13031,1,8,0:0:0:0:
122,90,13108,1,8,0:0:0:0:
122,90,13195,2,0,P|115:126|118:163,1,74,0|10,0:0|0:0,0:0:0:0:
91,194,13410,1,10,0:0:0:0:
100,233,13485,2,8,P|106:269|103:306,1,74,0|0,0:0|0:0,0:0:0:0:
43,361,13785,2,0,L|-12:355,4,37,10|10|10|10|0,0:0|0:0|0:0|0:0|0:0,0:0:0:0:
181,284,14726,6,0,P|253:271|342:294,2,148,4|8|0,0:0|0:0|0:0,0:0:0:0:
103,306,15495,1,0,0:0:0:0:
41,252,15649,1,8,0:0:0:0:
53,134,15802,6,0,P|14:65|63:21,1,148
141,1,16264,1,8,0:0:0:0:
287,69,16572,1,0,0:0:0:0:
358,108,16726,2,0,P|421:109|425:39,1,148,0|0,0:0|0:0,0:0:0:0:
344,26,17187,6,0,P|304:46|286:70,1,74,0|0,0:0|0:0,0:0:0:0:
207,88,17495,2,0,P|227:128|251:146,1,74,8|0,0:0|0:0,0:0:0:0:
320,185,17802,1,0,0:0:0:0:
392,221,17956,2,0,L|388:311,1,74,0|8,0:0|0:0,0:0:0:0:
278,344,18264,6,0,B|253:364|215:358|215:358|183:326|121:339,2,148,0|0|8,0:0|0:0|0:0,0:0:0:0:
440,357,19187,1,0,0:0:0:0:
388,294,19341,2,0,P|364:272|346:260,1,37,0|0,0:0|0:0,0:0:0:0:
323,250,19495,2,0,P|304:250|286:252,1,37
246,264,19649,6,0,P|241:196|256:100,1,148,4|8,0:0|0:0,0:0:0:0:
292,46,20110,1,0,0:0:0:0:
322,123,20264,2,0,P|271:126|239:108,1,74,0|0,0:0|0:0,0:0:0:0:
203,50,20572,1,8,0:0:0:0:
139,0,20726,6,0,P|126:77|187:130,1,148,0|0,0:0|0:0,0:0:0:0:
176,205,21187,1,8,0:0:0:0:
168,367,21495,2,0,P|109:366|69:357,1,74,0|0,0:0|0:0,0:0:0:0:
43,301,21802,1,0,0:0:0:0:
43,301,21879,1,0,0:0:0:0:
43,301,21956,2,0,L|51:238,1,37,0|0,0:0|0:0,0:0:0:0:
19,234,22110,6,0,P|18:182|31:159,1,74,8|0,0:0|0:0,0:0:0:0:
96,119,22418,2,0,L|190:125,1,74,8|0,0:0|0:0,0:0:0:0:
235,173,22726,1,8,0:0:0:0:
315,181,22879,2,0,P|306:133|271:100,1,74,0|8,0:0|0:0,0:0:0:0:
227,61,23187,6,0,B|159:30|159:30|57:69,2,148,0|0|0,0:0|0:0|0:0,0:0:0:0:
291,113,23956,1,0,0:0:0:0:
291,113,24110,1,0,0:0:0:0:
309,33,24264,1,4,0:0:0:0:
474,13,24572,6,0,P|492:49|461:133,1,118.4,2|0,0:0|0:0,0:0:0:0:
402,151,25033,2,0,P|379:187|409:272,1,118.4,2|0,0:0|0:0,0:0:0:0:
433,325,25495,1,2,0:0:0:0:
477,261,25649,6,0,B|421:242|421:242|375:269|375:269|302:249,1,177.6,0|2,0:0|0:0,0:0:0:0:
161,284,26418,2,0,P|197:246|164:175,1,118.4,2|2,0:0|0:0,0:0:0:0:
164,35,27033,6,0,B|139:12|139:12|107:47|117:105,1,118.4,2|0,0:0|0:0,0:0:0:0:
38,88,27495,2,0,P|65:152|127:169,1,118.4,2|2,0:0|0:0,0:0:0:0:
177,137,27956,1,0,0:0:0:0:
327,196,28264,6,0,L|321:269,2,59.2,2|0|0,0:0|0:0|0:0,0:0:0:0:
404,192,28726,2,0,L|411:279,2,59.2,2|0|0,0:0|0:0|0:0,0:0:0:0:
479,175,29187,2,0,L|496:260,1,59.2,2|2,0:0|0:0,0:0:0:0:
466,306,29495,6,0,B|404:307|421:342|351:338,1,118.4,2|0,0:0|0:0,0:0:0:0:
278,329,29956,2,0,P|239:261|252:215,1,118.4,2|2,0:0|0:0,0:0:0:0:
347,108,30572,6,0,B|312:152|312:152|283:128|252:114|211:123|183:148,1,177.6,2|2,0:0|0:0,0:0:0:0:
52,178,31341,1,2,0:0:0:0:
164,282,31649,1,2,0:0:0:0:
200,135,31956,6,0,P|239:122|321:166,1,118.4,2|0,0:0|0:0,0:0:0:0:
165,207,32572,2,0,P|134:178|133:87,1,118.4,2|0,0:0|0:0,0:0:0:0:
33,72,33033,1,0,0:0:0:0:
25,77,33110,1,0,0:0:0:0:
17,83,33187,5,8,0:0:0:0:
9,164,33341,1,0,0:0:0:0:
12,246,33495,2,0,L|15:326,1,74,8|0,0:0|0:0,0:0:0:0:
66,382,33802,2,0,L|152:376,1,74,8|0,0:0|0:0,0:0:0:0:
208,332,34110,1,8,0:0:0:0:
365,372,34418,6,0,B|394:331|394:331|376:218,1,148,4|8,0:0|0:0,0:0:0:0:
449,194,34879,2,0,P|414:160|317:174,1,148,0|0,0:0|0:0,0:0:0:0:
297,248,35341,1,8,0:0:0:0:
297,248,35495,6,0,P|216:222|141:248,1,148,0|0,0:0|0:0,0:0:0:0:
100,295,35956,2,0,P|45:295|26:282,1,74,8|0,0:0|0:0,0:0:0:0:
9,206,36264,2,0,L|18:125,1,74,0|0,0:0|0:0,0:0:0:0:
75,75,36572,1,8,0:0:0:0:
233,41,36879,6,0,B|288:47|288:47|315:73|315:73|400:81,1,148,0|8,0:0|0:0,0:0:0:0:
431,23,37341,2,0,B|461:47|461:47|436:174,1,148,0|0,0:0|0:0,0:0:0:0:
483,223,37802,2,0,L|466:317,1,74,8|0,0:0|0:0,0:0:0:0:
411,353,38110,6,0,P|375:337|327:335,1,74,0|0,0:0|0:0,0:0:0:0:
322,253,38418,2,0,P|353:229|379:189,1,74,8|0,0:0|0:0,0:0:0:0:
451,225,38726,2,0,P|455:264|477:306,2,74,0|0|8,0:0|0:0|0:0,0:0:0:0:
432,145,39187,1,8,0:0:0:0:
361,103,39341,6,0,P|304:106|259:123,2,74,4|0|8,0:0|0:0|0:0,0:0:0:0:
433,65,39802,1,0,0:0:0:0:
365,19,39956,2,0,P|283:27|203:57,1,148,0|8,0:0|0:0,0:0:0:0:
203,128,40418,6,0,L|221:290,1,148,0|0,0:0|0:0,0:0:0:0:
232,355,40879,1,8,0:0:0:0:
295,303,41033,2,0,B|335:294|368:316|368:316|404:343|447:324,1,148,0|0,0:0|0:0,0:0:0:0:
414,249,41495,2,0,P|408:207|419:164,1,74,8|0,0:0|0:0,0:0:0:0:
440,99,41802,6,0,P|404:54|305:67,2,148,4|8|0,0:0|0:0|0:0,0:0:0:0:
493,160,42572,1,0,0:0:0:0:
413,176,42726,1,8,0:0:0:0:
259,121,43033,5,0,0:0:0:0:
259,121,43187,2,0,P|264:208|266:298,1,148,8|0,0:0|0:0,0:0:0:0:
294,298,43572,1,0,0:0:0:0:
294,298,43649,2,0,L|403:293,1,74,8|8,0:0|0:0,0:0:0:0:
444,323,43956,1,0,0:0:0:0:
496,168,44264,6,0,P|428:181|382:112,1,148,4|0,0:0|0:0,0:0:0:0:
384,43,44726,1,0,0:0:0:0:
384,43,44802,1,0,0:0:0:0:
384,43,44879,2,0,L|221:34,1,148,8|0,0:0|0:0,0:0:0:0:
135,163,45495,6,0,P|170:85|150:48,2,111,0|0|0,0:0|0:0|0:0,0:0:0:0:
67,208,46110,2,0,B|43:278|43:278|65:370,1,148,8|0,0:0|0:0,0:0:0:0:
137,378,46572,1,0,0:0:0:0:
186,313,46726,5,0,0:0:0:0:
186,313,46879,2,0,L|353:306,1,148,8|0,0:0|0:0,0:0:0:0:
367,282,47264,1,0,0:0:0:0:
367,282,47341,2,0,P|363:208|365:133,1,148,8|0,0:0|0:0,0:0:0:0:
206,94,47956,6,0,P|276:95|309:61,2,111,0|0|0,0:0|0:0|0:0,0:0:0:0:
151,32,48572,2,0,P|103:32|66:46,1,74,8|8,0:0|0:0,0:0:0:0:
30,105,48879,1,0,0:0:0:0:
179,168,49187,6,0,B|220:193|220:193|202:65,1,148,0|0,0:0|0:0,0:0:0:0:
245,22,49649,1,0,0:0:0:0:
245,22,49726,1,0,0:0:0:0:
245,22,49802,2,0,P|293:52|335:51,1,74,8|0,0:0|0:0,0:0:0:0:
356,121,50110,2,0,P|409:103|436:70,1,74,0|0,0:0|0:0,0:0:0:0:
477,31,50418,5,0,0:0:0:0:
477,31,50572,2,0,B|444:69|444:69|472:185,1,148,8|0,0:0|0:0,0:0:0:0:
494,193,50956,1,0,0:0:0:0:
494,193,51033,2,0,L|489:285,1,74,8|0,0:0|0:0,0:0:0:0:
428,321,51341,1,0,0:0:0:0:
277,258,51649,6,0,B|197:251|226:299|110:290,1,148,0|0,0:0|0:0,0:0:0:0:
75,346,52110,1,0,0:0:0:0:
75,346,52187,1,0,0:0:0:0:
75,346,52264,2,0,P|88:283|74:202,1,148,8|0,0:0|0:0,0:0:0:0:
30,132,52726,1,0,0:0:0:0:
69,61,52879,5,0,0:0:0:0:
69,61,53033,2,0,B|106:26|106:26|212:40,1,148,8|0,0:0|0:0,0:0:0:0:
230,68,53418,1,0,0:0:0:0:
230,68,53495,2,0,P|274:78|322:69,1,74,0|0,0:0|0:0,0:0:0:0:
370,30,53802,1,8,0:0:0:0:
466,161,54110,6,0,P|411:208|354:164,1,148,4|8,0:0|0:0,0:0:0:0:
230,68,54726,2,0,L|239:153,2,74,0|0|8,0:0|0:0|0:0,0:0:0:0:
156,33,55187,2,0,P|105:46|69:142,1,148,0|0,0:0|0:0,0:0:0:0:
14,190,55649,1,8,0:0:0:0:
133,300,55956,5,0,0:0:0:0:
174,230,56110,1,0,0:0:0:0:
174,230,56187,1,0,0:0:0:0:
174,230,56264,2,0,L|224:234,3,37,8|8|8|8,0:0|0:0|0:0|0:0,0:0:0:0:
238,263,56572,6,0,L|332:267,1,74,12|0,0:0|0:0,0:0:0:0:
393,263,56879,2,0,P|402:211|397:168,1,74,8|0,0:0|0:0,0:0:0:0:
376,156,57110,1,0,0:0:0:0:
376,156,57187,2,0,L|272:152,1,74,8|0,0:0|0:0,0:0:0:0:
220,152,57495,1,8,0:0:0:0:
220,152,57649,1,8,0:0:0:0:
220,152,59033,6,0,P|151:154|79:101,1,148,4|8,0:0|0:0,0:0:0:0:
65,32,59495,1,0,0:0:0:0:
141,59,59649,2,0,P|184:78|237:63,1,74,0|0,0:0|0:0,0:0:0:0:
244,2,59956,1,8,0:0:0:0:
361,22,60110,6,0,B|386:56|386:56|372:168,1,148
302,203,60572,1,8,0:0:0:0:
243,260,60726,2,0,P|333:278|381:222,1,148,0|0,0:0|0:0,0:0:0:0:
373,161,61187,1,8,0:0:0:0:
484,119,61341,6,0,B|508:150|508:150|497:261,1,148
498,343,61802,1,8,0:0:0:0:
498,343,61956,1,0,0:0:0:0:
422,373,62110,2,0,P|368:376|331:353,1,74,0|0,0:0|0:0,0:0:0:0:
309,297,62418,1,8,0:0:0:0:
229,277,62572,1,0,0:0:0:0:
140,355,62726,6,0,P|82:343|67:326,1,74
45,258,63033,2,0,L|53:156,1,74,2|2,0:0|0:0,0:0:0:0:
89,112,63341,2,0,P|122:106|191:120,1,74,0|0,0:0|0:0,0:0:0:0:
227,159,63649,1,8,0:0:0:0:
144,245,63802,6,0,B|126:217|126:217|128:158|164:106,1,148
238,81,64264,2,0,L|329:84,1,74,8|0,0:0|0:0,0:0:0:0:
347,157,64572,2,0,L|438:154,1,74,0|0,0:0|0:0,0:0:0:0:
471,90,64879,1,8,0:0:0:0:
367,32,65033,6,0,P|361:80|426:156,1,148
486,202,65495,2,0,L|483:299,1,74,8|0,0:0|0:1,0:0:0:0:
462,354,65802,2,0,P|420:363|368:347,1,74,0|0,0:0|0:0,0:0:0:0:
360,281,66110,1,8,0:0:0:0:
244,258,66264,6,0,B|181:240|181:240|90:280,1,148
61,342,66726,2,0,P|27:287|33:250,1,74,8|0,0:0|0:0,0:0:0:0:
26,198,67033,2,0,P|35:162|60:135,1,74,8|0,0:0|0:0,0:0:0:0:
141,126,67341,1,8,0:0:0:0:
255,161,67495,6,0,B|293:135|293:135|294:68|255:38,1,148,0|8,0:0|0:0,0:0:0:0:
182,18,67956,2,0,L|145:18,3,37,0|0|0|0,0:0|0:0|0:0|0:0,0:0:0:0:
115,48,68264,1,0,0:0:0:0:
141,126,68418,2,0,P|132:166|152:219,1,74,0|8,0:0|0:0,0:0:0:0:
194,303,68726,6,0,B|255:287|255:287|271:270|271:270|346:251,1,148
359,331,69187,2,0,P|393:309|411:260,1,74,8|0,0:0|0:0,0:0:0:0:
490,280,69495,2,0,P|480:240|441:206,1,74,0|0,0:0|0:0,0:0:0:0:
492,141,69802,1,8,0:0:0:0:
373,143,69956,6,0,B|287:169|315:102|219:133,1,148,0|0,0:0|0:0,0:0:0:0:
190,200,70418,2,0,P|239:210|270:194,1,74,8|0,0:0|0:0,0:0:0:0:
296,275,70726,2,0,P|333:240|337:206,1,74,0|0,0:0|0:0,0:0:0:0:
373,143,71033,1,8,0:0:0:0:
361,25,71187,6,8,B|200:48,1,148,0|0,0:0|0:0,0:0:0:0:
136,25,71649,2,0,P|104:49|103:103,1,74,8|0,0:0|0:0,0:0:0:0:
117,164,71956,1,0,0:0:0:0:
117,164,72110,1,0,0:0:0:0:
192,197,72264,1,8,0:0:0:0:
132,298,72418,6,0,B|100:265|100:265|116:160,1,148
146,88,72879,2,0,P|180:85|250:98,1,74,8|0,0:0|0:0,0:0:0:0:
265,157,73187,2,0,P|301:161|338:158,1,74,0|0,0:0|0:0,0:0:0:0:
373,83,73495,1,8,0:0:0:0:
491,87,73649,6,0,B|510:130|510:130|479:235,1,148
400,232,74110,2,0,B|394:257|394:257|406:316,1,74,8|0,0:0|0:0,0:0:0:0:
356,371,74418,2,0,P|315:383|281:381,1,74,0|0,0:0|0:0,0:0:0:0:
255,304,74726,1,8,0:0:0:0:
153,364,74879,6,0,P|70:377|5:355,1,148
4,277,75341,2,0,L|10:201,1,74,8|0,0:0|0:0,0:0:0:0:
72,150,75649,2,0,L|66:74,1,74,0|0,0:0|0:0,0:0:0:0:
125,20,75956,1,8,0:0:0:0:
242,7,76110,6,0,B|251:86|198:61|222:165,1,148
155,201,76572,2,0,P|201:230|239:226,1,74,8|0,0:0|0:0,0:0:0:0:
289,190,76879,2,0,L|385:197,1,74
426,144,77187,1,8,0:0:0:0:
426,144,77341,1,0,0:0:0:0:
479,249,77495,6,0,L|465:346,1,74,4|0,0:0|0:0,0:0:0:0:
401,369,77802,2,0,P|353:370|313:348,1,74,8|0,0:0|0:0,0:0:0:0:
274,299,78110,1,0,0:0:0:0:
196,323,78264,1,0,0:0:0:0:
196,323,78341,1,0,0:0:0:0:
196,323,78418,1,0,0:0:0:0:
122,288,78572,1,0,0:0:0:0:
3,290,78726,6,0,B|36:318|36:318|57:194,1,148
170,95,79341,1,8,0:0:0:0:
170,95,79495,2,0,B|231:103|231:103|262:91|262:91|341:104,1,148,0|0,0:0|0:0,0:0:0:0:
382,54,79956,6,0,P|424:122|389:180,1,148
283,295,80572,1,8,0:0:0:0:
283,295,80726,2,0,B|222:287|222:287|191:299|191:299|112:286,1,148,0|0,0:0|0:0,0:0:0:0:
107,214,81187,6,0,P|106:181|127:137,2,74,8|0|0,0:0|0:0|0:0,0:0:0:0:
138,290,81649,1,8,0:0:0:0:
80,347,81802,6,0,P|51:364|3:368,2,74,0|0|8,0:0|0:0|0:0,0:0:0:0:
159,368,82264,1,0,0:0:0:0:
138,290,82418,1,8,0:0:0:0:
138,290,83649,6,0,L|130:135,1,148,0|0,0:0|0:0,0:0:0:0:
240,22,84264,2,0,L|232:169,1,148,8|0,0:0|0:0,0:0:0:0:
232,251,84726,1,0,0:0:0:0:
232,251,84802,1,0,0:0:0:0:
232,251,84879,5,0,0:0:0:0:
313,254,85033,1,8,0:0:0:0:
317,172,85187,2,0,L|420:177,1,74,0|0,0:0|0:0,0:0:0:0:
467,204,85495,2,0,P|476:241|462:307,1,74,8|0,0:0|0:0,0:0:0:0:
431,346,85802,2,0,P|394:355|328:341,1,74,8|0,0:0|0:0,0:0:0:0:
278,334,86110,6,0,B|206:310|206:310|109:331,1,148,8|0,0:0|0:0,0:0:0:0:
76,381,86572,2,0,B|100:309|100:309|79:212,1,148,8|0,0:0|0:0,0:0:0:0:
29,178,87033,2,0,P|31:133|45:101,1,74,8|8,0:0|0:0,0:0:0:0:
