osu file format v14

[General]
AudioFilename: audio.mp3
AudioLeadIn: 0
PreviewTime: 58033
Countdown: 0
SampleSet: Drum
StackLeniency: 0.2
Mode: 0
LetterboxInBreaks: 0
WidescreenStoryboard: 1

[Editor]
Bookmarks: 14727,24574,34420,44266,54112,59035,78728,83651,87343
DistanceSpacing: 1.1
BeatDivisor: 4
GridSize: 4
TimelineZoom: 2.999999

[Metadata]
Title:graphite/diamond (TV Size)
TitleUnicode:graphite/diamond (TV Size)
Artist:May'n
ArtistUnicode:May'n
Creator:Kaguya_Sama
Version:AF's Insane
Source:アズールレーン
Tags:碧蓝航线 激昂壮志 Azur Lane The Animation Azurlane Anime Japanese Op Opening Affirmation Neoskylove
BeatmapID:2192229
BeatmapSetID:1047833

[Difficulty]
HPDrainRate:4.8
CircleSize:3.8
OverallDifficulty:7.8
ApproachRate:9
SliderMultiplier:0.999999999999999
SliderTickRate:1

[Events]
//Background and Video events
0,0,"AF.jpg",0,0
Video,510,"op.mp4"
//Break Periods
//Storyboard Layer 0 (Background)
//Storyboard Layer 1 (Fail)
//Storyboard Layer 2 (Pass)
//Storyboard Layer 3 (Foreground)
//Storyboard Layer 4 (Overlay)
//Storyboard Sound Samples

[TimingPoints]
572,307.692307692308,4,2,0,50,1,0
2418,-111.111111111111,4,2,0,50,0,0
5341,-45.4545454545455,4,3,1,80,0,0
6725,-400,4,3,1,80,0,0
8264,-400,4,3,1,70,0,0
9187,-83.3333333333333,4,3,1,70,0,0
12572,363.636363636364,4,3,1,70,1,0
12753,241.935483870968,4,3,1,70,1,0
12878,307.692307692308,4,3,1,70,1,0
13195,281.69014084507,4,3,1,70,1,0
13335,300,4,3,1,70,1,0
14088,319.148936170213,4,3,1,70,1,0
14726,307.692307692308,4,3,1,90,1,0
14726,-62.5,4,3,1,90,0,0
14956,-62.5,4,3,1,5,0,0
15033,-62.5,4,3,1,90,0,0
18341,-62.5,4,3,1,5,0,0
18572,-62.5,4,3,1,90,0,0
18649,-62.5,4,3,1,5,0,0
18879,-188.679245283019,4,3,1,90,0,0
19649,-62.5,4,3,1,90,0,0
19879,-62.5,4,3,1,5,0,0
19956,-62.5,4,3,1,90,0,0
23264,-62.5,4,3,1,5,0,0
23495,-62.5,4,3,1,90,0,0
23572,-62.5,4,3,1,5,0,0
23802,-62.5,4,3,1,90,0,0
23879,-62.5,4,3,1,5,0,0
23956,-62.5,4,3,1,90,0,0
24033,-62.5,4,3,1,5,0,0
24110,-62.5,4,3,1,90,0,0
24572,-100,4,2,0,50,0,0
33187,-38.4615384615385,4,3,1,70,0,0
34110,-166.666666666667,4,3,1,70,0,0
34341,-166.666666666667,4,3,1,5,0,0
34418,-71.4285714285714,4,3,1,70,0,0
44264,-142.857142857143,4,3,1,60,0,0
44879,-62.5,4,3,1,60,0,0
45495,-142.857142857143,4,3,1,60,0,0
45649,-142.857142857143,4,3,1,5,0,0
45726,-142.857142857143,4,3,1,60,0,0
45879,-142.857142857143,4,3,1,5,0,0
45956,-142.857142857143,4,3,1,60,0,0
46033,-142.857142857143,4,3,1,5,0,0
46110,-62.5,4,3,1,60,0,0
46726,-90.9090909090909,4,3,1,60,0,0
48110,-90.9090909090909,4,3,1,5,0,0
48187,-90.9090909090909,4,3,1,60,0,0
49187,-142.857142857143,4,3,1,60,0,0
49802,-62.5,4,3,1,60,0,0
50418,-142.857142857143,4,3,1,60,0,0
51649,-125,4,3,1,60,0,0
52110,-83.3333333333333,4,3,1,60,0,0
52879,-62.5,4,3,1,60,0,0
53418,-71.4285714285714,4,3,1,60,0,0
54110,-71.4285714285714,4,3,1,70,0,0
58726,-166.666666666667,4,3,1,70,0,0
58956,-166.666666666667,4,3,1,5,0,0
59033,-58.8235294117647,4,3,1,95,0,0
59264,-58.8235294117647,4,3,1,5,0,0
59341,-58.8235294117647,4,3,1,95,0,0
62726,-58.8235294117647,4,2,0,95,0,0
63341,-58.8235294117647,4,3,1,95,0,0
78726,-58.8235294117647,4,3,1,80,0,0
81187,-58.8235294117647,4,3,1,95,0,0
83033,-333.333333333333,4,3,1,60,0,0
83649,-62.5,4,3,1,60,0,0
86110,-62.5,4,3,1,80,0,0

[Colours]
Combo1 : 237,221,105
Combo2 : 196,139,237
Combo3 : 243,118,240
Combo4 : 131,241,233

[HitObjects]
55,160,2418,6,0,L|99:155,1,44.999998626709,2|2,0:0|0:0,0:0:0:0:
189,172,2879,2,0,L|54:159,1,134.999995880127,2|2,0:0|0:0,0:0:0:0:
167,252,3648,6,0,L|211:247,1,44.999998626709,2|2,0:0|0:0,0:0:0:0:
301,264,4110,2,0,L|166:251,1,134.999995880127,2|2,0:0|0:0,0:0:0:0:
279,344,4879,6,0,L|323:339,1,44.999998626709,2|2,0:0|0:0,0:0:0:0:
498,363,5341,6,0,L|278:343,1,220.000006713867,12|0,0:0|0:0,0:0:0:0:
498,363,5802,5,0,0:0:0:0:
278,343,5956,1,0,0:0:0:0:
498,363,6110,5,0,0:0:0:0:
278,343,6264,1,0,0:0:0:0:
498,363,6418,5,0,0:0:0:0:
278,343,6572,1,0,0:0:0:0:
498,363,6726,6,0,L|473:360,1,25,8|0,0:0|0:0,0:0:0:0:
51,32,8264,5,0,0:0:0:0:
51,32,8341,1,0,0:0:0:0:
51,32,8418,1,0,0:0:0:0:
51,32,8495,1,0,0:0:0:0:
51,32,8572,2,0,L|49:76,1,43.75,8|0,0:0|0:0,0:0:0:0:
49,75,9187,6,0,L|109:69,1,59.9999981689453,12|0,0:0|0:0,0:0:0:0:
185,104,9495,2,0,L|125:98,1,59.9999981689453,0|0,0:0|0:0,0:0:0:0:
7,169,9802,2,0,L|67:163,1,59.9999981689453,0|0,0:0|0:0,0:0:0:0:
143,198,10110,1,0,0:0:0:0:
49,75,10264,1,0,0:0:0:0:
49,75,10341,1,0,0:0:0:0:
49,75,10418,6,0,L|109:69,1,59.9999981689453,8|0,0:0|0:0,0:0:0:0:
7,169,10725,2,0,L|67:163,1,59.9999981689453,2|0,0:0|0:0,0:0:0:0:
185,104,11033,2,0,L|245:110,1,59.9999981689453,2|2,0:0|0:0,0:0:0:0:
108,69,11264,1,2,0:0:0:0:
108,69,11341,2,0,L|168:75,1,59.9999981689453,2|0,0:0|0:0,0:0:0:0:
353,68,11648,6,0,P|353:38|347:8,1,59.9999981689453,12|0,0:0|0:0,0:0:0:0:
396,140,11956,2,0,P|417:119|433:93,1,59.9999981689453,0|0,0:0|0:0,0:0:0:0:
375,221,12264,2,0,P|404:221|434:215,1,59.9999981689453
287,202,12572,1,0,0:0:0:0:
353,68,12753,1,0,0:0:0:0:
353,68,12813,1,0,0:0:0:0:
353,68,12878,5,10,0:0:0:0:
263,29,13031,6,0,L|265:53,1,25,10|0,0:0|0:0,0:0:0:0:
253,35,13195,2,0,L|255:59,1,25
188,128,13335,5,8,0:0:0:0:
113,29,13485,6,0,L|110:53,1,25,8|0,0:0|0:0,0:0:0:0:
123,35,13635,2,0,L|120:59,1,25
188,128,13785,5,10,0:0:0:0:
188,128,13860,1,10,0:0:0:0:
188,128,13935,1,10,0:0:0:0:
188,128,14010,1,10,0:0:0:0:
352,371,14726,6,0,B|375:335|375:335|359:259,1,120,4|0,0:0|0:0,0:0:0:0:
359,259,15033,2,0,L|279:268,1,79.9999999999999,8|0,0:0|0:0,0:0:0:0:
476,325,15341,2,0,P|504:334|483:312,1,79.9999999999999,0|0,0:0|0:0,0:0:0:0:
352,371,15649,1,8,0:0:0:0:
447,206,15802,6,0,P|449:127|425:51,1,160,0|0,0:0|0:0,0:0:0:0:
353,13,16264,2,0,P|342:50|353:89,1,79.9999999999999,8|0,0:0|0:0,0:0:0:0:
439,219,16573,2,0,P|467:228|446:206,1,79.9999999999999,0|0,0:0|0:0,0:0:0:0:
275,187,16879,2,0,L|355:179,1,79.9999999999999,8|0,0:0|0:0,0:0:0:0:
176,69,17187,6,0,B|135:65|135:65|148:101,1,79.9999999999999,0|0,0:0|0:0,0:0:0:0:
247,155,17495,2,0,B|288:151|288:151|274:187,1,79.9999999999999,8|0,0:0|0:0,0:0:0:0:
176,241,17802,2,0,B|135:237|135:237|148:273,1,79.9999999999999,0|0,0:0|0:0,0:0:0:0:
247,327,18110,1,8,0:0:0:0:
58,227,18264,6,0,P|61:207|72:190,1,40,0|0,0:0|0:0,0:0:0:0:
363,140,18572,2,0,P|360:120|350:104,1,40,0|0,0:0|0:0,0:0:0:0:
58,53,18879,6,0,P|61:34|71:17,1,39.7500000606536,8|0,0:0|0:0,0:0:0:0:
153,5,19187,5,0,0:0:0:0:
166,6,19263,1,0,0:0:0:0:
179,7,19340,1,0,0:0:0:0:
192,8,19417,1,0,0:0:0:0:
205,9,19494,1,0,0:0:0:0:
219,10,19571,1,0,0:0:0:0:
232,11,19649,6,0,L|352:3,1,120,4|0,0:0|0:0,0:0:0:0:
351,3,19956,2,0,B|364:42|364:42|352:79,1,79.9999999999999,8|0,0:0|0:0,0:0:0:0:
216,136,20264,2,0,P|206:107|228:128,1,79.9999999999999,0|0,0:0|0:0,0:0:0:0:
249,268,20572,1,8,0:0:0:0:
328,105,20726,6,0,B|373:93|408:106|408:106|425:144|464:157,1,160,0|0,0:0|0:0,0:0:0:0:
505,225,21187,2,0,P|468:236|429:228,1,79.9999999999999,8|0,0:0|0:0,0:0:0:0:
495,87,21495,2,0,P|485:58|507:79,1,79.9999999999999,0|0,0:0|0:0,0:0:0:0:
350,190,21802,1,0,0:0:0:0:
350,190,21879,1,0,0:0:0:0:
350,190,21956,2,0,L|310:194,1,40,0|0,0:0|0:0,0:0:0:0:
345,318,22110,6,0,B|376:340|376:340|372:299,1,79.9999999999999,8|0,0:0|0:0,0:0:0:0:
204,174,22418,1,8,0:0:0:0:
350,190,22572,1,0,0:0:0:0:
221,286,22726,2,0,B|252:308|252:308|248:267,1,79.9999999999999,8|0,0:0|0:0,0:0:0:0:
286,105,23033,1,8,0:0:0:0:
164,171,23187,6,0,L|204:174,1,40,0|0,0:0|0:0,0:0:0:0:
57,101,23495,6,0,L|96:98,1,40,0|0,0:0|0:0,0:0:0:0:
206,189,23802,6,0,L|166:186,1,40
99,114,23956,2,0,L|59:116,1,40,8|0,0:0|0:0,0:0:0:0:
29,205,24110,1,0,0:0:0:0:
29,205,24264,1,4,0:0:0:0:
286,105,24572,6,0,B|336:97|336:97|382:114,1,99.9999999999999,2|0,0:0|0:0,0:0:0:0:
382,114,25033,2,0,B|332:122|332:122|285:104,1,99.9999999999999,2|0,0:0|0:0,0:0:0:0:
285,104,25495,1,2,0:0:0:0:
382,114,25649,6,0,B|432:106|432:106|478:123,1,99.9999999999999,0|0,0:0|0:0,0:0:0:0:
478,123,26110,1,2,0:0:0:0:
478,123,26418,2,0,B|428:131|428:131|381:113,1,99.9999999999999,2|2,0:0|0:0,0:0:0:0:
268,287,27034,6,0,B|218:279|218:279|171:296,1,99.9999999999999,2|0,0:0|0:0,0:0:0:0:
172,296,27496,2,0,B|222:304|222:304|268:286,1,99.9999999999999,2|2,0:0|0:0,0:0:0:0:
268,287,27957,1,0,0:0:0:0:
268,287,28111,1,2,0:0:0:0:
172,296,28264,6,0,B|122:288|122:288|75:305,1,99.9999999999999,2|0,0:0|0:0,0:0:0:0:
76,305,28726,2,0,B|126:313|126:313|172:295,1,99.9999999999999,2|0,0:0|0:0,0:0:0:0:
172,296,29187,1,2,0:0:0:0:
76,305,29341,1,2,0:0:0:0:
174,192,29495,6,0,B|180:157|180:157|170:131|170:131|174:94,1,99.9999999999999,2|0,0:0|0:0,0:0:0:0:
173,94,29956,2,0,B|177:131|177:131|167:157|167:157|173:192,1,99.9999999999999,2|2,0:0|0:0,0:0:0:0:
338,192,30572,6,0,B|332:157|332:157|342:131|342:131|338:94,1,99.9999999999999,2|0,0:0|0:0,0:0:0:0:
338,94,31033,1,2,0:0:0:0:
339,94,31341,2,0,B|335:131|335:131|345:157|345:157|339:192,1,99.9999999999999,2|2,0:0|0:0,0:0:0:0:
249,318,31956,6,0,P|290:291|337:305,1,99.9999999999999,2|0,0:0|0:0,0:0:0:0:
337,305,32572,2,0,P|296:331|249:317,1,99.9999999999999,2|0,0:0|0:0,0:0:0:0:
249,317,33033,2,0,L|250:292,1,25,0|0,0:0|0:0,0:0:0:0:
160,237,33187,6,0,L|164:366,1,129.999994049072,8|0,0:0|0:0,0:0:0:0:
149,225,33495,2,0,L|153:354,1,129.999994049072,8|0,0:0|0:0,0:0:0:0:
138,213,33802,2,0,L|142:342,1,129.999994049072,8|0,0:0|0:0,0:0:0:0:
267,204,34110,6,0,L|268:159,1,44.999998626709,8|0,0:0|0:0,0:0:0:0:
268,160,34418,6,0,B|340:147|324:201|401:185,1,139.999995727539,4|8,0:0|0:0,0:0:0:0:
452,116,34879,2,0,P|504:154|480:214,1,139.999995727539,0|0,0:0|0:0,0:0:0:0:
401,185,35341,1,8,0:0:0:0:
276,77,35495,6,0,B|302:49|373:43|373:43|357:74,1,139.999995727539,0|0,0:0|0:0,0:0:0:0:
268,160,35956,2,0,L|198:157,1,69.9999978637695,8|0,0:0|0:0,0:0:0:0:
102,39,36264,2,0,P|80:53|106:50,1,69.9999978637695,0|0,0:0|0:0,0:0:0:0:
274,9,36572,2,0,B|284:46|284:46|275:76,1,69.9999978637695,8|0,0:0|0:0,0:0:0:0:
128,165,36879,6,0,L|267:159,1,139.999995727539,0|8,0:0|0:0,0:0:0:0:
337,230,37341,2,0,P|306:245|272:243,1,69.9999978637695,0|0,0:0|0:0,0:0:0:0:
153,319,37649,1,0,0:0:0:0:
206,255,37802,2,0,P|236:239|271:242,1,69.9999978637695,8|0,0:0|0:0,0:0:0:0:
467,227,38110,6,0,L|470:157,1,69.9999978637695,0|0,0:0|0:0,0:0:0:0:
463,296,38418,2,0,L|466:226,1,69.9999978637695,8|0,0:0|0:0,0:0:0:0:
459,365,38726,1,0,0:0:0:0:
466,226,38879,1,0,0:0:0:0:
473,87,39033,2,0,L|476:17,1,69.9999978637695,8|8,0:0|0:0,0:0:0:0:
393,17,39264,1,8,0:0:0:0:
393,16,39341,6,0,P|374:45|380:79,1,69.9999978637695,4|0,0:0|0:0,0:0:0:0:
267,159,39649,2,0,P|272:125|254:96,1,69.9999978637695,8|0,0:0|0:0,0:0:0:0:
134,36,39956,2,0,P|112:50|138:47,1,69.9999978637695,0|0,0:0|0:0,0:0:0:0:
294,19,40264,1,8,0:0:0:0:
149,163,40418,6,0,L|151:302,1,139.999995727539,0|0,0:0|0:0,0:0:0:0:
38,366,40879,2,0,P|58:337|67:304,1,69.9999978637695,8|0,0:0|0:0,0:0:0:0:
237,313,41187,2,0,P|258:327|232:324,1,69.9999978637695,0|0,0:0|0:0,0:0:0:0:
10,240,41495,2,0,P|38:219|72:211,1,69.9999978637695,8|0,0:0|0:0,0:0:0:0:
234,227,41802,6,0,P|241:163|179:150,1,139.999995727539,4|8,0:0|0:0,0:0:0:0:
179,150,42264,1,0,0:0:0:0:
351,227,42418,1,0,0:0:0:0:
363,144,42572,1,0,0:0:0:0:
446,156,42726,1,8,0:0:0:0:
434,239,42880,1,0,0:0:0:0:
322,43,43033,5,0,0:0:0:0:
322,43,43187,2,0,L|252:52,1,69.9999978637695,8|0,0:0|0:0,0:0:0:0:
112,78,43495,1,0,0:0:0:0:
112,60,43571,1,0,0:0:0:0:
118,44,43648,1,8,0:0:0:0:
179,150,43802,5,8,0:0:0:0:
185,134,43956,5,0,0:0:0:0:
186,117,44110,5,0,0:0:0:0:
120,242,44264,6,0,P|154:239|189:233,1,69.9999978637695,4|0,0:0|0:0,0:0:0:0:
179,150,44726,1,0,0:0:0:0:
101,254,44879,6,0,P|180:261|259:274,1,160,8|0,0:0|0:0,0:0:0:0:
213,350,45341,1,0,0:0:0:0:
17,335,45495,6,0,P|22:352|32:367,1,34.9999989318848,0|0,0:0|0:0,0:0:0:0:
52,319,45726,2,0,P|44:334|41:352,1,34.9999989318848,0|0,0:0|0:0,0:0:0:0:
72,339,45956,2,0,P|64:342|56:347,1,17.4999994659424,0|0,0:0|0:0,0:0:0:0:
101,253,46110,6,0,P|122:177|106:99,1,160,8|0,0:0|0:0,0:0:0:0:
37,155,46572,1,0,0:0:0:0:
236,57,46726,5,0,0:0:0:0:
310,86,46879,2,0,L|419:77,1,110.000003356934,8|0,0:0|0:0,0:0:0:0:
419,77,47264,1,0,0:0:0:0:
427,85,47341,2,0,B|482:65|482:65|476:171,1,165.0000050354,8|0,0:0|0:0,0:0:0:0:
382,256,47956,6,0,L|436:251,1,55.0000016784668
451,262,48187,2,0,L|368:268,1,82.5000025177002,0|0,0:0|0:0,0:0:0:0:
299,339,48572,1,8,0:0:0:0:
297,322,48726,1,8,0:0:0:0:
313,329,48879,1,0,0:0:0:0:
93,332,49187,6,0,P|99:298|88:265,1,69.9999978637695,0|0,0:0|0:0,0:0:0:0:
6,286,49649,2,0,L|7:303,1,17.4999994659424,0|0,0:0|0:0,0:0:0:0:
94,355,49802,6,0,P|132:286|205:258,1,160,8|0,0:0|0:0,0:0:0:0:
284,218,50264,1,0,0:0:0:0:
292,236,50340,1,0,0:0:0:0:
295,256,50418,5,0,0:0:0:0:
168,376,50572,2,0,P|180:344|212:331,1,69.9999978637695,8|0,0:0|0:0,0:0:0:0:
336,372,51033,1,8,0:0:0:0:
419,358,51187,1,0,0:0:0:0:
502,344,51341,1,0,0:0:0:0:
392,78,51649,6,0,P|361:100|365:138,1,79.9999999999999
404,88,52110,5,0,0:0:0:0:
404,88,52187,1,0,0:0:0:0:
404,88,52264,2,0,P|346:93|320:144,1,119.999996337891,8|0,0:0|0:0,0:0:0:0:
464,151,52879,5,0,0:0:0:0:
404,88,53033,2,0,P|334:56|270:97,1,160,8|0,0:0|0:0,0:0:0:0:
211,152,53418,5,0,0:0:0:0:
211,152,53495,2,0,P|176:146|141:143,1,69.9999978637695,0|0,0:0|0:0,0:0:0:0:
109,38,53802,2,0,P|144:33|179:31,1,69.9999978637695,8|0,0:0|0:0,0:0:0:0:
280,205,54110,6,0,P|238:258|171:259,1,139.999995727539,4|8,0:0|0:0,0:0:0:0:
211,152,54572,1,0,0:0:0:0:
361,232,54726,2,0,P|383:246|356:247,1,69.9999978637695,0|0,0:0|0:0,0:0:0:0:
328,130,55033,1,8,0:0:0:0:
451,310,55187,6,0,P|469:242|488:175,1,139.999995727539,0|0,0:0|0:0,0:0:0:0:
343,125,55649,2,0,P|328:102|327:129,1,69.9999978637695,8|0,0:0|0:0,0:0:0:0:
361,232,55956,5,0,0:0:0:0:
383,47,56110,1,0,0:0:0:0:
353,29,56186,1,0,0:0:0:0:
318,26,56263,1,8,0:0:0:0:
286,39,56340,1,8,0:0:0:0:
253,52,56418,1,8,0:0:0:0:
219,49,56495,1,8,0:0:0:0:
189,31,56572,6,0,L|193:170,1,139.999995727539,12|8,0:0|0:0,0:0:0:0:
201,289,57033,5,0,0:0:0:0:
201,272,57109,1,0,0:0:0:0:
200,254,57186,1,8,0:0:0:0:
193,170,57341,1,0,0:0:0:0:
189,31,57495,1,8,0:0:0:0:
201,289,57649,5,8,0:0:0:0:
23,325,58726,6,0,L|26:369,1,44.999998626709,0|0,0:0|0:0,0:0:0:0:
26,369,59033,6,0,L|31:242,1,127.500002431869,4|0,0:0|0:0,0:0:0:0:
31,242,59341,2,0,B|71:260|71:260|113:250,1,85.0000016212463,8|0,0:0|0:0,0:0:0:0:
223,122,59649,2,0,P|246:142|215:136,1,85.0000016212463,0|0,0:0|0:0,0:0:0:0:
86,58,59956,1,8,0:0:0:0:
218,241,60110,6,0,B|273:250|323:201|323:201|310:229|313:252,1,170.000003242493,0|0,0:0|0:0,0:0:0:0:
460,364,60572,2,0,L|456:279,1,85.0000016212463,8|0,0:0|0:0,0:0:0:0:
407,103,60879,2,0,P|383:123|414:117,1,85.0000016212463,0|0,0:0|0:0,0:0:0:0:
313,252,61187,1,8,0:0:0:0:
261,133,61341,6,0,L|255:48,1,85.0000016212463
218,241,61649,1,0,0:0:0:0:
139,113,61802,2,0,L|144:28,1,85.0000016212463,8|0,0:0|0:0,0:0:0:0:
232,145,62111,1,0,0:0:0:0:
40,122,62265,1,0,0:0:0:0:
261,133,62419,1,8,0:0:0:0:
145,284,62573,1,0,0:0:0:0:
310,257,62726,5,2,0:0:0:0:
320,258,62802,1,2,0:0:0:0:
331,259,62879,1,2,0:0:0:0:
341,260,62956,1,2,0:0:0:0:
352,261,63033,1,2,0:0:0:0:
362,262,63110,1,2,0:0:0:0:
373,264,63187,1,2,0:0:0:0:
383,265,63264,1,2,0:0:0:0:
394,266,63341,6,0,B|403:224|403:224|389:184,1,85.0000016212463,0|0,0:0|0:0,0:0:0:0:
466,342,63649,1,8,0:0:0:0:
260,352,63802,5,0,0:0:0:0:
260,352,63879,1,0,0:0:0:0:
260,352,63956,2,0,P|194:302|110:299,1,170.000003242493,4|8,0:0|0:0,0:0:0:0:
28,276,64418,1,0,0:0:0:0:
169,141,64572,2,0,P|171:173|149:149,1,85.0000016212463,0|0,0:0|0:0,0:0:0:0:
273,203,64879,1,8,0:0:0:0:
73,137,65033,6,0,B|63:228|118:209|110:298,1,170.000003242493,0|0,0:0|0:0,0:0:0:0:
108,42,65495,2,0,L|23:47,1,85.0000016212463,8|0,0:0|0:1,0:0:0:0:
263,83,65802,2,0,P|295:85|271:63,1,85.0000016212463,0|0,0:0|0:0,0:0:0:0:
273,203,66110,1,8,0:0:0:0:
192,36,66264,6,0,L|107:41,1,85.0000016212463,0|0,0:0|0:0,0:0:0:0:
29,142,66572,1,0,0:0:0:0:
192,36,66726,5,8,0:0:0:0:
29,142,66879,1,0,0:0:0:0:
195,143,67033,5,8,0:0:0:0:
75,42,67186,1,0,0:0:0:0:
284,13,67341,5,8,0:0:0:0:
108,178,67495,2,0,B|101:297|101:297|145:271,1,170.000003242493,0|8,0:0|0:0,0:0:0:0:
211,223,67879,5,8,0:0:0:0:
211,223,67956,2,0,L|253:228,1,42.5000008106231,0|0,0:0|0:0,0:0:0:0:
336,244,68110,1,0,0:0:0:0:
455,17,68264,5,0,0:0:0:0:
371,31,68418,1,0,0:0:0:0:
287,45,68572,2,0,L|293:129,1,85.0000016212463,8|0,0:0|0:0,0:0:0:0:
425,190,68879,6,0,L|431:105,1,85.0000016212463,4|0,0:0|0:0,0:0:0:0:
487,261,69187,2,0,B|450:222|450:222|335:243,1,170.000003242493,8|0,0:0|0:0,0:0:0:0:
415,368,69649,2,0,L|499:361,1,85.0000016212463,0|8,0:0|0:0,0:0:0:0:
248,262,69956,6,0,P|189:306|244:356,1,170.000003242493,0|0,0:0|0:0,0:0:0:0:
335,242,70418,2,0,P|328:199|323:157,1,85.0000016212463,8|0,0:0|0:0,0:0:0:0:
110,294,70726,2,0,P|116:251|121:209,1,85.0000016212463,0|0,0:0|0:0,0:0:0:0:
75,138,71033,1,8,0:0:0:0:
250,61,71187,6,8,B|337:71|312:121|401:129,1,170.000003242493,0|0,0:0|0:0,0:0:0:0:
478,93,71649,1,8,0:0:0:0:
335,242,71802,1,0,0:0:0:0:
505,298,71956,6,0,L|512:213,1,85.0000016212463,0|0,0:0|0:0,0:0:0:0:
335,242,72264,1,8,0:0:0:0:
439,378,72418,1,0,0:0:0:0:
270,360,72572,5,0,0:0:0:0:
354,370,72726,2,0,L|438:377,1,85.0000016212463,0|8,0:0|0:0,0:0:0:0:
270,360,73033,1,0,0:0:0:0:
411,284,73187,6,0,B|422:243|422:243|411:201,1,85.0000016212463,0|0,0:0|0:0,0:0:0:0:
335,242,73496,1,8,0:0:0:0:
354,370,73649,1,0,0:0:0:0:
60,284,73802,6,0,B|118:274|118:274|164:293|164:293|224:282,1,170.000003242493,4|8,0:0|0:0,0:0:0:0:
277,215,74264,1,0,0:0:0:0:
161,119,74418,2,0,P|158:161|137:197,1,85.0000016212463,0|0,0:0|0:0,0:0:0:0:
280,44,74726,1,8,0:0:0:0:
247,121,74879,6,0,P|316:74|400:73,1,170.000003242493,0|0,0:0|0:0,0:0:0:0:
492,122,75341,2,0,P|482:81|478:39,1,85.0000016212463,8|0,0:0|0:0,0:0:0:0:
351,275,75649,2,0,P|361:233|365:191,1,85.0000016212463,0|0,0:0|0:0,0:0:0:0:
456,332,75956,1,8,0:0:0:0:
478,205,76110,6,0,P|482:162|492:121,1,85.0000016212463,0|4,0:0|0:0,0:0:0:0:
468,290,76418,1,0,0:0:0:0:
255,236,76572,1,8,0:0:0:0:
398,238,76726,1,0,0:0:0:0:
255,331,76879,2,0,L|170:327,1,85.0000016212463,0|0,0:0|0:0,0:0:0:0:
354,371,77187,2,0,L|438:374,1,85.0000016212463,8|0,0:0|0:0,0:0:0:0:
321,205,77495,6,0,B|278:200|278:200|254:235,1,85.0000016212463,4|0,0:0|0:0,0:0:0:0:
93,114,77802,2,0,L|177:111,1,85.0000016212463,8|0,0:0|0:0,0:0:0:0:
256,103,78033,5,0,0:0:0:0:
256,102,78110,2,0,P|259:81|259:59,1,42.5000008106231,0|0,0:0|0:0,0:0:0:0:
158,212,78264,1,0,0:0:0:0:
158,212,78341,1,0,0:0:0:0:
158,212,78418,2,0,P|157:254|164:296,1,85.0000016212463,0|0,0:0|0:0,0:0:0:0:
299,341,78726,5,0,0:0:0:0:
385,315,79033,1,0,0:0:0:0:
471,289,79341,1,8,0:0:0:0:
299,341,79649,5,0,0:0:0:0:
299,341,79802,1,0,0:0:0:0:
471,289,80110,5,8,0:0:0:0:
385,315,80264,1,0,0:0:0:0:
82,61,80572,5,8,0:0:0:0:
168,87,80726,1,0,0:0:0:0:
142,173,80879,1,0,0:0:0:0:
56,147,81033,1,0,0:0:0:0:
56,147,81110,1,0,0:0:0:0:
56,147,81187,5,8,0:0:0:0:
261,34,81341,1,0,0:0:0:0:
333,78,81495,1,0,0:0:0:0:
128,191,81649,5,8,0:0:0:0:
333,78,81803,1,0,0:0:0:0:
405,122,81957,1,0,0:0:0:0:
200,235,82110,5,8,0:0:0:0:
405,122,82264,1,0,0:0:0:0:
477,166,82418,1,8,0:0:0:0:
120,360,83033,6,0,L|90:363,1,29.9999990844727,0|0,0:0|0:0,0:0:0:0:
90,363,83495,1,0,0:0:0:0:
252,312,83649,6,0,L|411:319,1,160,0|0,0:0|0:0,0:0:0:0:
440,244,84110,1,0,0:0:0:0:
255,205,84264,2,0,L|95:212,1,160,8|0,0:0|0:0,0:0:0:0:
284,113,84726,5,0,0:0:0:0:
284,113,84802,1,0,0:0:0:0:
284,113,84879,2,0,P|353:139|350:214,1,160,0|0,0:0|0:0,0:0:0:0:
296,274,85341,1,0,0:0:0:0:
161,131,85495,6,0,L|154:210,1,79.9999999999999,8|0,0:0|0:0,0:0:0:0:
73,141,85802,2,0,L|67:221,1,79.9999999999999,8|0,0:0|0:0,0:0:0:0:
120,38,86110,5,8,0:0:0:0:
269,58,86264,1,0,0:0:0:0:
418,78,86418,1,0,0:0:0:0:
238,200,86572,5,8,0:0:0:0:
238,200,86726,1,0,0:0:0:0:
425,91,86879,5,0,0:0:0:0:
276,71,87033,1,8,0:0:0:0:
127,51,87187,1,8,0:0:0:0:
