osu file format v14

[General]
AudioFilename: audio.mp3
AudioLeadIn: 0
PreviewTime: 55868
Countdown: 0
SampleSet: Soft
StackLeniency: 0.3
Mode: 0
LetterboxInBreaks: 0
WidescreenStoryboard: 1

[Editor]
Bookmarks: 65015
DistanceSpacing: 0.3
BeatDivisor: 4
GridSize: 32
TimelineZoom: 2.2

[Metadata]
Title:ViViD (TV Size)
TitleUnicode:ViViD (TV Size)
Artist:May'n
ArtistUnicode:May'n
Creator:Xandit
Version:door weapon's InSaNE
Source:ブラッドラッド
Tags:blood lad opening japanese pop j-pop Nakabayashi Mei 中林芽依 o.s.t.2 door weapon xiced female vocals anime ヴィヴィッド jubeat gitadora dog food
BeatmapID:2678652
BeatmapSetID:1290371

[Difficulty]
HPDrainRate:5
CircleSize:3.6
OverallDifficulty:8.4
ApproachRate:9
SliderMultiplier:1.7
SliderTickRate:1

[Events]
//Background and Video events
0,0,"living living vi viidsaa.jpg",0,0
//Break Periods
//Storyboard Layer 0 (Background)
//Storyboard Layer 1 (Fail)
//Storyboard Layer 2 (Pass)
//Storyboard Layer 3 (Foreground)
//Storyboard Layer 4 (Overlay)
//Storyboard Sound Samples

[TimingPoints]
-253,292.682926829268,4,2,1,60,1,0
917,-166.666666666667,4,2,1,60,0,0
5307,-83.3333333333334,4,2,1,60,0,0
5527,-166.666666666667,4,2,1,5,0,0
5600,-111.111111111111,4,2,1,100,0,0
10283,-111.111111111111,4,2,1,100,0,0
14015,-166.666666666667,4,2,1,5,0,0
14088,-111.111111111111,4,2,1,100,0,0
14893,-166.666666666667,4,2,1,5,0,0
14966,-111.111111111111,4,2,1,100,0,0
15771,-166.666666666667,4,2,1,5,0,0
15844,-111.111111111111,4,2,1,100,0,0
16137,-133.333333333333,4,2,1,80,0,0
19576,-133.333333333333,4,2,1,5,0,0
19649,-133.333333333333,4,2,1,80,0,0
21917,-133.333333333333,4,2,1,5,0,0
21990,-133.333333333333,4,2,1,80,0,0
27771,-133.333333333333,4,2,1,5,0,0
27844,-133.333333333333,4,2,1,80,0,0
32454,-133.333333333333,4,2,1,5,0,0
32527,-133.333333333333,4,2,1,80,0,0
33917,-133.333333333333,4,2,1,5,0,0
33990,-133.333333333333,4,2,1,80,0,0
35966,-133.333333333333,4,2,1,5,0,0
36039,-133.333333333333,4,2,1,80,0,0
38307,-133.333333333333,4,2,1,5,0,0
38380,-133.333333333333,4,2,1,80,0,0
40649,-133.333333333333,4,2,1,5,0,0
40722,-133.333333333333,4,2,1,80,0,0
46503,-133.333333333333,4,2,1,5,0,0
46576,-133.333333333333,4,2,1,80,0,0
48917,-166.666666666667,4,2,1,80,0,0
55576,-166.666666666667,4,2,1,5,0,0
55649,-71.4285714285714,4,2,1,80,0,0
55868,-71.4285714285714,4,2,1,5,0,0
55942,-100,4,2,1,100,0,1
57332,-100,4,2,1,5,0,1
57405,-100,4,2,1,100,0,1
57917,-100,4,2,1,5,0,1
57990,-100,4,2,1,100,0,1
61722,-100,4,2,1,5,0,1
61795,-100,4,2,1,100,0,1
62893,-100,4,2,1,5,0,1
62966,-100,4,2,1,100,0,1
63771,-100,4,2,1,5,0,1
63844,-100,4,2,1,100,0,1
65015,-83.3333333333333,4,2,1,100,0,1
65234,-83.3333333333333,4,2,1,5,0,1
65307,-100,4,2,1,100,0,1
66698,-100,4,2,1,5,0,1
66771,-100,4,2,1,100,0,1
67283,-100,4,2,1,5,0,1
67356,-100,4,2,1,100,0,1
71088,-100,4,2,1,5,0,1
71161,-100,4,2,1,100,0,1
72551,-100,4,2,1,5,0,1
72625,-100,4,2,1,100,0,1
73137,-100,4,2,1,5,0,1
73210,-100,4,2,1,100,0,1
79283,-100,4,2,1,5,0,1
79356,-100,4,2,1,100,0,1
80746,-100,4,2,1,5,0,1
80819,-100,4,2,1,100,0,1
81698,-111.111111111111,4,2,1,100,0,0
83966,-111.111111111111,4,2,1,100,0,0
84039,-111.111111111111,4,2,1,100,0,0
86307,-111.111111111111,4,2,1,100,0,0
86381,-111.111111111111,4,2,1,100,0,0

[Colours]
Combo1 : 105,105,105
Combo2 : 176,72,72

[HitObjects]
28,155,917,5,2,0:0:0:0:
95,103,1064,2,0,P|108:55|114:1,2,101.999996887207,2|2|2,0:0|0:0|0:0,0:0:0:0:
207,255,1795,1,2,0:0:0:0:
126,221,1942,2,0,P|71:229|41:280,2,101.999996887207,2|2|2,0:0|0:0|0:0,0:0:0:0:
310,310,2820,1,2,0:0:0:0:
310,310,2966,2,0,L|299:380,1,50.9999984436036,2|0,0:0|0:0,0:0:0:0:
489,210,3259,5,2,0:0:0:0:
406,240,3405,2,0,P|357:230|336:185,2,101.999996887207,2|2|2,0:0|0:0|0:0,0:0:0:0:
320,44,4137,1,2,0:0:0:0:
396,89,4283,2,0,P|442:77|516:70,2,101.999996887207,2|2|2,0:0|0:0|0:0,0:0:0:0:
187,34,5015,6,0,L|184:18,6,12.7499996109009,2|0|2|0|2|0|2,0:0|0:0|0:0|0:0|0:0|0:0|0:0,0:0:0:0:
171,16,5307,2,0,L|181:173,1,152.999995330811,4|0,0:1|0:0,0:0:0:0:
151,258,5600,6,0,B|94:248|94:248|72:217|72:217|7:201,1,152.999995330811,6|10,3:2|0:2,0:0:0:0:
71,363,6039,2,0,P|107:354|150:344,1,76.4999976654053,2|0,3:2|0:0,0:0:0:0:
320,278,6332,1,2,3:2:0:0:
247,203,6478,1,8,0:2:0:0:
296,366,6625,6,0,P|327:310|424:311,1,152.999995330811,2|2,0:0|0:0,0:0:0:0:
507,344,7064,1,8,0:2:0:0:
441,199,7210,2,0,L|357:183,1,76.4999976654053,2|0,3:2|0:0,0:0:0:0:
499,73,7503,1,2,3:2:0:0:
417,20,7649,2,0,B|396:58|396:58|413:100,1,76.4999976654053,10|0,0:2|0:0,0:0:0:0:
250,27,7942,6,0,P|162:31|148:99,1,152.999995330811,2|10,3:2|0:2,0:0:0:0:
97,218,8381,2,0,L|14:228,1,76.4999976654053,2|0,3:2|0:0,0:0:0:0:
100,371,8673,1,2,3:2:0:0:
200,317,8820,1,8,0:2:0:0:
306,373,8966,6,0,P|383:358|474:353,1,152.999995330811,2|2,0:0|0:0,0:0:0:0:
382,251,9405,1,8,0:2:0:0:
495,179,9551,2,0,P|515:215|511:252,1,76.4999976654053,2|0,3:2|0:0,0:0:0:0:
306,176,9844,1,2,3:2:0:0:
397,121,9990,2,0,P|408:64|420:8,1,114.749996498108,10|0,0:2|0:0,0:0:0:0:
305,49,10283,6,0,B|232:31|231:85|158:69,1,152.999995330811,6|10,3:2|0:2,0:0:0:0:
74,183,10722,2,0,L|-5:197,1,76.4999976654053,2|0,3:2|0:0,0:0:0:0:
45,316,11015,1,2,3:2:0:0:
45,316,11161,1,8,0:2:0:0:
164,264,11307,6,0,P|247:255|274:336,1,152.999995330811,2|2,0:0|0:0,0:0:0:0:
226,379,11746,1,8,0:2:0:0:
443,333,11893,1,2,3:2:0:0:
375,260,12039,1,0,0:0:0:0:
439,168,12186,1,2,3:2:0:0:
340,76,12332,2,0,P|348:39|360:3,1,76.4999976654053,10|0,0:2|0:0,0:0:0:0:
113,119,12625,6,0,P|159:59|243:86,1,152.999995330811,2|10,3:2|0:2,0:0:0:0:
353,200,13064,1,10,0:2:0:0:
353,200,13137,1,8,0:2:0:0:
353,200,13210,1,8,0:2:0:0:
260,159,13356,1,10,0:2:0:0:
153,208,13503,1,10,0:2:0:0:
18,131,13649,1,8,0:2:0:0:
59,241,13795,6,0,L|33:357,1,114.749996498108,6|0,3:2|0:0,0:0:0:0:
40,367,14088,1,8,0:2:0:0:
198,283,14234,2,0,L|188:195,1,76.4999976654053,6|0,3:2|0:0,0:0:0:0:
348,335,14527,1,8,0:2:0:0:
308,150,14673,2,0,L|328:37,1,114.749996498108,6|0,3:2|0:0,0:0:0:0:
340,28,14966,1,8,0:2:0:0:
130,149,15112,6,0,P|50:138|42:71,1,152.999995330811,6|8,3:2|0:3,0:0:0:0:
117,45,15478,1,8,0:3:0:0:
126,38,15551,2,0,P|176:24|246:9,1,114.749996498108,10|0,3:2|0:0,0:0:0:0:
295,73,15844,2,0,P|318:51|322:-2,1,76.4999976654053,10|0,3:2|0:0,0:0:0:0:
223,148,16137,6,0,L|233:228,1,63.7500024318696,6|0,3:2|0:0,0:0:0:0:
193,308,16429,1,8,0:0:0:0:
343,207,16576,2,0,P|403:213|424:269,1,127.500004863739,2|0,3:2|3:2,0:0:0:0:
401,361,17015,2,0,P|364:349|353:318,1,63.7500024318696,10|0,0:0|0:0,0:0:0:0:
343,207,17307,6,0,L|356:138,1,63.7500024318696,2|0,3:2|0:0,0:0:0:0:
476,79,17600,2,0,L|470:10,1,63.7500024318696,10|0,0:0|3:2,0:0:0:0:
341,44,17893,1,2,0:0:0:0:
341,44,18039,2,0,P|305:39|283:9,1,63.7500024318696,2|8,3:2|0:0,0:0:0:0:
150,84,18332,1,2,0:0:0:0:
150,84,18478,6,0,L|164:19,1,63.7500024318696,0|0,3:2|0:0,0:0:0:0:
30,99,18771,1,8,0:0:0:0:
107,253,18917,2,0,P|67:206|-5:211,1,127.500004863739,0|0,3:2|3:2,0:0:0:0:
121,355,19356,2,0,P|167:335|219:329,1,95.6250036478044,10|0,0:0|0:0,0:0:0:0:
285,374,19649,6,0,P|301:346|296:314,1,63.7500024318696,2|0,3:2|0:0,0:0:0:0:
181,214,19942,2,0,L|115:223,1,63.7500024318696,10|0,0:0|3:2,0:0:0:0:
196,105,20234,1,2,0:0:0:0:
196,105,20381,2,0,P|201:68|226:38,1,63.7500024318696,2|8,3:2|0:0,0:0:0:0:
350,149,20673,6,0,P|337:221|327:283,1,127.500004863739,2|0,0:0|0:0,0:0:0:0:
247,352,21112,1,8,0:0:0:0:
159,293,21259,2,0,P|94:292|57:340,1,127.500004863739,0|0,3:2|3:2,0:0:0:0:
60,161,21698,2,0,L|77:57,1,95.6250036478044,10|0,0:0|0:0,0:0:0:0:
146,10,21990,6,0,P|181:6|207:25,1,63.7500024318696,2|0,3:2|0:0,0:0:0:0:
303,95,22283,2,0,L|366:103,1,63.7500024318696,10|0,0:0|3:2,0:0:0:0:
407,247,22576,2,0,L|470:238,1,63.7500024318696,2|0,0:0|3:2,0:0:0:0:
307,206,22868,2,0,P|262:204|230:243,1,95.6250036478044,10|0,0:0|0:0,0:0:0:0:
258,315,23161,6,0,L|247:380,1,63.7500024318696,2|0,3:2|0:0,0:0:0:0:
60,303,23454,1,10,0:0:0:0:
129,222,23600,2,0,P|138:159|128:97,1,127.500004863739,2|0,3:2|3:2,0:0:0:0:
201,21,24039,1,8,0:0:0:0:
201,21,24186,1,0,0:0:0:0:
296,63,24332,6,0,L|362:73,1,63.7500024318696,0|0,3:2|0:0,0:0:0:0:
426,207,24625,1,8,0:0:0:0:
426,207,24771,1,0,3:2:0:0:
320,220,24917,2,0,P|321:187|340:156,1,63.7500024318696,2|0,0:0|3:2,0:0:0:0:
417,298,25210,2,0,P|409:330|401:382,1,63.7500024318696,10|0,0:0|0:0,0:0:0:0:
217,315,25503,6,0,P|150:325|87:341,1,127.500004863739,6|8,3:2|0:0,0:0:0:0:
149,208,25942,2,0,L|160:144,1,63.7500024318696,0|0,3:2|0:0,0:0:0:0:
291,67,26234,1,2,3:2:0:0:
291,67,26381,2,0,P|270:91|268:122,1,63.7500024318696,10|2,0:0|0:0,0:0:0:0:
392,177,26673,6,0,P|424:167|462:162,1,63.7500024318696,2|0,3:2|0:0,0:0:0:0:
462,303,26966,2,0,L|452:366,1,63.7500024318696,10|0,0:0|3:2,0:0:0:0:
287,306,27259,2,0,L|277:243,1,63.7500024318696,2|0,0:0|0:0,0:0:0:0:
414,137,27551,2,0,P|369:138|339:99,1,95.6250036478044,10|0,0:0|0:0,0:0:0:0:
299,22,27844,6,0,L|215:8,1,63.7500024318696,2|0,3:2|0:0,0:0:0:0:
71,113,28137,2,0,L|156:100,1,63.7500024318696,10|0,0:0|3:2,0:0:0:0:
234,213,28429,1,2,0:0:0:0:
234,213,28576,2,0,P|245:186|235:147,1,63.7500024318696,2|8,3:2|0:0,0:0:0:0:
91,224,28868,6,0,P|76:294|67:357,1,127.500004863739,2|0,0:0|0:0,0:0:0:0:
179,329,29307,1,8,0:0:0:0:
179,329,29454,1,0,3:2:0:0:
272,364,29600,2,0,L|334:374,1,63.7500024318696,2|0,0:0|3:2,0:0:0:0:
420,276,29893,2,0,L|484:270,1,63.7500024318696,10|0,0:0|0:0,0:0:0:0:
322,155,30186,6,0,P|306:185|309:236,1,63.7500024318696,2|0,3:2|0:0,0:0:0:0:
420,276,30478,1,10,0:0:0:0:
491,172,30625,2,0,L|503:107,1,63.7500024318696,2|0,3:2|0:0,0:0:0:0:
400,15,30917,1,2,3:2:0:0:
310,62,31064,2,0,P|271:67|241:72,1,63.7500024318696,10|2,0:0|0:0,0:0:0:0:
105,112,31356,6,0,P|74:101|60:74,1,63.7500024318696,2|0,3:2|0:0,0:0:0:0:
151,18,31649,1,10,0:0:0:0:
151,18,31795,1,0,3:2:0:0:
198,150,31942,2,0,L|183:228,1,63.7500024318696,2|0,0:0|3:2,0:0:0:0:
151,347,32234,2,0,L|43:355,1,95.6250036478044,10|0,0:0|0:0,0:0:0:0:
10,280,32527,6,0,P|2:242|27:207,1,63.7500024318696,2|0,3:2|0:0,0:0:0:0:
119,255,32820,1,10,0:0:0:0:
111,148,32966,2,0,L|133:22,1,127.500004863739,2|0,3:2|3:2,0:0:0:0:
230,111,33405,1,8,0:0:0:0:
230,111,33551,1,0,0:0:0:0:
303,25,33698,6,0,L|397:43,1,95.6250036478044,0|0,3:2|0:0,0:0:0:0:
412,53,33990,2,0,L|480:43,2,63.7500024318696,8|0|0,0:0|3:2|0:0,0:0:0:0:
273,162,34429,1,8,0:0:0:0:
363,177,34576,1,8,0:0:0:0:
453,191,34722,1,8,0:0:0:0:
348,350,34868,6,0,P|354:316|359:284,1,63.7500024318696,6|0,3:2|0:0,0:0:0:0:
500,268,35161,1,8,0:0:0:0:
378,130,35307,2,0,P|316:145|253:156,1,127.500004863739,2|0,3:2|3:2,0:0:0:0:
71,204,35746,2,0,P|115:192|148:236,1,95.6250036478044,10|0,0:0|0:0,0:0:0:0:
182,302,36039,6,0,L|171:365,1,63.7500024318696,2|0,3:2|0:0,0:0:0:0:
315,213,36332,2,0,L|323:276,1,63.7500024318696,10|0,0:0|3:2,0:0:0:0:
196,147,36625,1,2,0:0:0:0:
196,147,36771,2,0,P|187:116|200:88,1,63.7500024318696,2|8,3:2|0:0,0:0:0:0:
381,55,37064,1,2,0:0:0:0:
305,0,37210,6,0,P|295:32|291:63,1,63.7500024318696,0|0,3:2|0:0,0:0:0:0:
374,154,37503,1,8,0:0:0:0:
297,238,37649,2,0,P|230:237|213:167,1,127.500004863739,0|0,3:2|3:2,0:0:0:0:
72,202,38088,2,0,L|55:308,1,95.6250036478044,10|0,0:0|0:0,0:0:0:0:
102,369,38381,6,0,P|122:354|160:354,1,63.7500024318696,2|0,3:2|0:0,0:0:0:0:
207,215,38673,2,0,L|217:149,1,63.7500024318696,10|0,0:0|3:2,0:0:0:0:
300,267,38966,1,2,0:0:0:0:
407,145,39112,2,0,L|396:77,1,63.7500024318696,2|8,3:2|0:0,0:0:0:0:
510,232,39405,6,0,B|442:228|451:269|365:248,1,127.500004863739,2|0,0:0|0:0,0:0:0:0:
313,168,39844,1,8,0:0:0:0:
487,76,39990,2,0,P|426:69|406:12,1,127.500004863739,0|0,3:2|3:2,0:0:0:0:
285,79,40429,2,0,P|233:63|188:55,1,95.6250036478044,10|0,0:0|0:0,0:0:0:0:
105,73,40722,6,0,P|105:31|122:6,1,63.7500024318696,2|0,3:2|0:0,0:0:0:0:
201,150,41015,2,0,P|193:184|185:228,1,63.7500024318696,10|0,0:0|3:2,0:0:0:0:
24,316,41307,2,0,P|48:293|83:293,1,63.7500024318696,2|0,0:0|3:2,0:0:0:0:
206,360,41600,2,0,L|270:346,1,63.7500024318696,10|0,0:0|0:0,0:0:0:0:
450,274,41893,6,0,L|461:204,1,63.7500024318696,2|0,3:2|0:0,0:0:0:0:
460,87,42186,1,10,0:0:0:0:
342,117,42332,2,0,P|282:114|257:56,1,127.500004863739,2|0,3:2|0:0,0:0:0:0:
170,134,42771,1,8,0:0:0:0:
170,134,42917,1,0,0:0:0:0:
70,26,43064,6,0,L|49:151,1,127.500004863739,0|8,3:2|0:0,0:0:0:0:
136,230,43503,1,0,3:2:0:0:
32,344,43649,2,0,L|20:281,1,63.7500024318696,2|0,0:0|3:2,0:0:0:0:
213,368,43942,2,0,L|219:304,1,63.7500024318696,10|0,0:0|0:0,0:0:0:0:
352,212,44234,6,0,P|410:231|475:246,1,127.500004863739,6|8,3:2|0:0,0:0:0:0:
403,338,44673,2,0,P|371:342|338:367,1,63.7500024318696,0|0,3:2|0:0,0:0:0:0:
512,329,44966,1,2,3:2:0:0:
474,245,45112,2,0,L|489:183,1,63.7500024318696,10|2,0:0|0:0,0:0:0:0:
345,73,45405,6,0,L|335:9,1,63.7500024318696,2|0,3:2|0:0,0:0:0:0:
194,78,45698,2,0,L|184:141,1,63.7500024318696,10|0,0:0|3:2,0:0:0:0:
269,233,45990,1,2,0:0:0:0:
269,233,46137,1,0,3:2:0:0:
188,337,46283,2,0,P|152:303|107:311,1,95.6250036478044,10|0,0:0|0:0,0:0:0:0:
32,346,46576,6,0,P|26:314|21:283,1,63.7500024318696,2|0,3:2|0:0,0:0:0:0:
120,118,46868,2,0,P|138:152|133:185,1,63.7500024318696,10|0,0:0|3:2,0:0:0:0:
8,104,47161,1,2,0:0:0:0:
115,12,47307,2,0,L|179:23,1,63.7500024318696,2|8,3:2|0:0,0:0:0:0:
309,104,47600,6,0,L|442:87,1,127.500004863739,2|0,0:0|0:0,0:0:0:0:
439,208,48039,1,8,0:0:0:0:
327,254,48186,1,8,0:0:0:0:
327,254,48259,1,8,0:0:0:0:
327,254,48332,1,10,0:0:0:0:
414,321,48478,1,8,0:0:0:0:
302,362,48625,1,10,0:0:0:0:
214,290,48771,1,8,0:0:0:0:
342,169,48917,6,0,B|431:172|387:111|484:105,1,152.999995330811,6|2,3:2|3:2,0:0:0:0:
486,198,49503,1,8,0:0:0:0:
486,198,49942,1,8,0:0:0:0:
396,253,50088,6,0,L|388:312,1,50.9999984436036,2|0,3:2|0:0,0:0:0:0:
277,358,50381,2,0,L|283:307,1,50.9999984436036,2|0,3:2|0:0,0:0:0:0:
193,244,50673,1,10,0:0:0:0:
99,294,50820,2,0,P|47:274|-9:270,1,101.999996887207,0|0,3:2|0:0,0:0:0:0:
277,171,51259,5,6,3:2:0:0:
96,41,51551,1,8,0:0:0:0:
195,278,51844,1,10,0:0:0:0:
393,47,52137,1,8,0:0:0:0:
487,347,52429,5,10,0:0:0:0:
340,259,52722,1,8,0:0:0:0:
243,350,52868,1,8,0:3:0:0:
243,350,52942,1,8,0:3:0:0:
243,350,53015,1,10,0:3:0:0:
173,281,53161,1,8,0:3:0:0:
239,207,53307,1,6,0:3:0:0:
183,115,53454,1,4,0:3:0:0:
245,24,53600,5,10,3:2:0:0:
98,187,53746,1,10,3:2:0:0:
360,129,54039,5,10,3:2:0:0:
348,124,54332,5,10,3:2:0:0:
117,198,54478,1,10,3:2:0:0:
254,24,54771,6,2,L|219:315,1,280.49999143982,2|0,0:1|0:1,0:1:0:0:
193,378,55649,6,0,P|231:318|330:335,1,178.499994552612,4|0,0:1|0:0,0:0:0:0:
400,376,55942,5,6,3:2:0:0:
465,194,56088,1,2,0:0:0:0:
508,268,56234,1,10,0:0:0:0:
355,177,56381,1,2,3:2:0:0:
486,67,56527,2,0,L|387:46,1,85,2|0,0:0|3:2,0:0:0:0:
214,0,56820,5,10,0:0:0:0:
163,79,56966,1,2,0:0:0:0:
13,217,57112,6,0,L|145:199,1,127.5,2|0,3:2|0:0,0:0:0:0:
224,231,57405,2,0,B|236:188|236:188|203:142,1,85,10|0,0:0|3:2,0:0:0:0:
67,372,57698,6,0,P|92:310|159:323,1,127.5,2|0,0:0|0:0,0:0:0:0:
223,361,57990,2,0,L|307:345,1,85,10|0,0:0|0:0,0:0:0:0:
500,202,58283,6,0,B|409:194|450:133|355:126,1,170,2|10,3:2|0:0,0:0:0:0:
145,214,58722,2,0,P|159:137|175:36,1,170,2|0,3:2|3:2,0:0:0:0:
352,262,59161,2,0,P|328:228|274:233,1,85,10|0,0:0|0:0,0:0:0:0:
106,314,59454,6,0,P|65:298|18:287,1,85,2|0,3:2|0:0,0:0:0:0:
160,112,59746,2,0,P|181:150|168:196,1,85,10|0,0:0|3:2,0:0:0:0:
5,103,60039,2,0,P|15:61|28:3,1,85,2|0,0:0|3:2,0:0:0:0:
92,169,60332,1,10,0:0:0:0:
92,169,60478,1,2,0:0:0:0:
274,46,60625,6,0,P|241:16|192:18,1,85,0|0,3:2|0:0,0:0:0:0:
239,183,60917,1,8,0:0:0:0:
389,123,61064,2,0,P|397:82|407:40,1,85,0|0,3:2|0:0,0:0:0:0:
503,185,61356,1,0,3:2:0:0:
415,291,61503,2,0,P|346:279|318:333,1,127.5,10|0,0:0|0:0,0:0:0:0:
233,364,61795,6,0,P|191:355|149:348,1,85,2|0,3:2|0:0,0:0:0:0:
9,192,62088,2,0,P|43:163|88:175,1,85,10|0,0:0|3:2,0:0:0:0:
212,249,62381,1,2,0:0:0:0:
212,249,62527,1,0,3:2:0:0:
266,79,62673,2,0,P|207:65|141:53,1,127.5,10|0,0:0|0:0,0:0:0:0:
67,0,62966,6,0,P|36:35|48:87,1,85,6|0,3:2|0:0,0:0:0:0:
169,157,63259,1,10,0:0:0:0:
169,157,63405,1,2,0:0:0:0:
59,362,63551,6,0,P|47:291|30:219,1,127.5,4|0,3:2|0:0,0:0:0:0:
152,293,63844,2,0,P|182:265|232:272,1,85,8|0,0:0|0:0,0:0:0:0:
429,357,64137,5,12,0:0:0:0:
378,271,64283,1,8,0:0:0:0:
436,178,64429,1,8,0:0:0:0:
364,74,64576,1,4,3:2:0:0:
375,80,64868,5,4,3:2:0:0:
231,34,65015,2,0,B|277:22|277:22|145:-2,1,152.999995330811,8|0,0:0|0:0,0:0:0:0:
89,47,65307,5,6,3:2:0:0:
201,177,65454,1,2,0:0:0:0:
118,141,65600,1,10,0:0:0:0:
8,291,65746,1,2,3:2:0:0:
108,272,65893,2,0,P|146:284|189:310,1,85,2|0,0:0|3:2,0:0:0:0:
378,167,66186,5,10,0:0:0:0:
317,248,66332,1,2,0:0:0:0:
210,89,66478,6,0,L|83:105,1,127.5,2|0,3:2|2:0,2:0:0:0:
156,187,66771,2,0,P|186:217|224:210,1,85,10|0,0:0|3:2,0:0:0:0:
501,354,67064,6,0,P|442:329|371:316,1,127.5,2|0,0:0|0:0,0:0:0:0:
297,340,67356,2,0,P|291:296|335:260,1,85,10|0,0:0|0:0,0:0:0:0:
448,181,67649,6,0,B|410:162|406:112|406:112|384:159|325:155,1,170,2|10,3:2|0:0,0:0:0:0:
195,32,68088,2,0,P|213:127|226:209,1,170,2|0,3:2|3:2,0:0:0:0:
86,348,68527,2,0,P|113:309|157:311,1,85,10|0,0:0|0:0,0:0:0:0:
306,365,68820,6,0,P|351:350|398:341,1,85,2|0,3:2|0:0,0:0:0:0:
305,176,69112,2,0,P|277:213|282:256,1,85,10|0,0:0|3:2,0:0:0:0:
418,125,69405,2,0,P|411:82|400:37,1,85,2|0,0:0|3:2,0:0:0:0:
261,99,69698,1,10,0:0:0:0:
261,99,69844,1,2,0:0:0:0:
86,5,69990,6,0,P|105:45|148:53,1,85,2|0,3:2|0:0,0:0:0:0:
243,5,70283,1,8,0:0:0:0:
162,155,70429,2,0,P|175:199|182:239,1,85,0|0,3:2|0:0,0:0:0:0:
102,339,70722,1,0,3:2:0:0:
280,218,70868,2,0,P|339:208|373:266,1,127.5,10|0,0:0|0:0,0:0:0:0:
353,342,71161,6,0,B|395:353|395:353|429:324,1,85,2|0,3:2|0:0,0:0:0:0:
280,218,71454,2,0,L|196:201,1,85,10|0,0:0|3:2,0:0:0:0:
375,33,71746,2,0,B|347:71|347:71|365:127,1,85,2|0,0:0|3:2,0:0:0:0:
227,12,72039,1,10,0:0:0:0:
227,12,72186,1,2,0:0:0:0:
61,145,72332,6,0,P|88:98|167:111,1,127.5,6|0,3:2|0:0,0:0:0:0:
213,161,72625,1,10,0:0:0:0:
212,173,72698,1,8,0:0:0:0:
210,185,72771,1,10,0:0:0:0:
352,147,72917,6,0,L|369:20,1,127.5,4|0,3:2|0:0,0:0:0:0:
275,61,73210,1,8,0:0:0:0:
262,61,73283,1,8,0:0:0:0:
249,57,73356,1,8,0:0:0:0:
122,110,73503,5,12,0:0:0:0:
133,193,73649,1,10,0:3:0:0:
150,277,73795,1,6,0:3:0:0:
265,159,73942,5,6,3:2:0:0:
458,362,74234,6,0,P|428:290|354:312,1,170,6|2,3:2|0:0,0:0:0:0:
410,151,74673,6,0,L|396:67,1,85,6|0,3:2|0:0,0:0:0:0:
301,151,74966,1,10,0:0:0:0:
192,13,75112,2,0,L|164:184,1,170,2|0,3:2|3:2,0:0:0:0:
104,359,75551,2,0,P|131:332|186:338,1,85,8|0,0:0|0:0,0:0:0:0:
421,253,75844,6,0,B|386:210|333:212|333:212|312:251|264:246,1,170,2|8,3:2|0:0,0:0:0:0:
77,112,76283,2,0,L|248:84,1,170,2|0,3:2|3:2,0:0:0:0:
411,133,76722,2,0,B|426:90|426:90|403:51,1,85,10|0,0:0|0:0,0:0:0:0:
268,176,77015,6,0,L|250:281,1,85,2|0,3:2|0:0,0:0:0:0:
188,366,77307,1,10,0:0:0:0:
105,202,77454,2,0,L|81:33,1,170,2|0,3:2|3:2,0:0:0:0:
216,115,77893,1,8,0:0:0:0:
216,115,78039,1,0,0:0:0:0:
335,29,78186,6,0,P|383:22|416:61,1,85,0|0,3:2|0:0,0:0:0:0:
312,157,78478,1,10,0:0:0:0:
312,157,78625,1,0,3:2:0:0:
418,270,78771,2,0,L|430:181,1,85,2|0,0:0|3:2,0:0:0:0:
294,299,79064,2,0,P|255:253|183:263,1,127.5,10|0,0:0|0:0,0:0:0:0:
119,313,79356,6,0,P|79:299|35:290,1,85,2|0,3:2|0:0,0:0:0:0:
118,189,79649,1,10,0:0:0:0:
41,56,79795,2,0,P|122:42|208:23,1,170,2|0,3:2|3:2,0:0:0:0:
316,94,80234,2,0,P|337:56|330:13,1,85,8|0,0:0|0:0,0:0:0:0:
190,132,80527,6,0,P|177:188|167:258,1,127.5,2|0,3:2|0:0,0:0:0:0:
122,332,80820,1,8,0:0:0:0:
277,275,80966,1,2,0:0:0:0:
432,354,81112,1,8,3:2:0:0:
430,341,81186,1,8,0:0:0:0:
426,328,81259,1,8,0:0:0:0:
417,318,81332,1,8,0:0:0:0:
405,313,81405,2,0,L|351:328,1,42.5,10|8,3:2|0:0,0:0:0:0:
440,212,81551,2,0,L|399:200,1,42.5,8|8,0:0|0:0,0:0:0:0:
277,175,81698,5,10,3:2:0:0:
99,37,82137,1,8,3:2:0:0:
276,178,82576,5,8,3:2:0:0:
99,37,83015,1,8,3:2:0:0:
80,345,83454,6,0,B|83:310|101:277|135:257|135:257|120:290|122:314,1,152.999995330811,8|8,3:2|0:0,0:0:0:0:
309,349,84039,5,10,3:2:0:0:
396,160,84478,1,8,3:2:0:0:
309,349,84917,5,8,3:2:0:0:
396,160,85356,1,8,3:2:0:0:
147,0,85795,6,0,B|89:58|89:58|122:131,1,152.999995330811,8|8,3:2|0:0,0:0:0:0:
254,267,86381,6,2,L|293:33,3,229.499992996216,10|10|10|10,3:2|3:2|3:2|3:2,0:1:0:0:
