osu file format v14

[General]
AudioFilename: audio.mp3
AudioLeadIn: 0
PreviewTime: 55868
Countdown: 0
SampleSet: Soft
StackLeniency: 0.4
Mode: 0
LetterboxInBreaks: 0
WidescreenStoryboard: 1

[Editor]
Bookmarks: 65015
DistanceSpacing: 1
BeatDivisor: 4
GridSize: 16
TimelineZoom: 2.2

[Metadata]
Title:ViViD (TV Size)
TitleUnicode:ViViD (TV Size)
Artist:May'n
ArtistUnicode:May'n
Creator:Xandit
Version:ScReAM
Source:ブラッドラッド
Tags:blood lad opening japanese pop j-pop Nakabayashi Mei 中林芽依 o.s.t.2 door weapon xiced female vocals anime ヴィヴィッド jubeat gitadora dog food
BeatmapID:2678655
BeatmapSetID:1290371

[Difficulty]
HPDrainRate:5.6
CircleSize:3.8
OverallDifficulty:8.7
ApproachRate:9.2
SliderMultiplier:2
SliderTickRate:1

[Events]
//Background and Video events
0,0,"living living vi viidsaa.jpg",0,0
//Break Periods
//Storyboard Layer 0 (Background)
//Storyboard Layer 1 (Fail)
//Storyboard Layer 2 (Pass)
//Storyboard Layer 3 (Foreground)
//Storyboard Layer 4 (Overlay)
//Storyboard Sound Samples

[TimingPoints]
-253,292.682926829268,4,2,1,60,1,0
917,-166.666666666667,4,2,1,60,0,0
5307,-66.6666666666667,4,2,1,60,0,0
5527,-166.666666666667,4,2,1,5,0,0
5600,-111.111111111111,4,2,1,100,0,0
16137,-133.333333333333,4,2,1,80,0,0
48917,-166.666666666667,4,2,1,80,0,0
51186,-166.666666666667,4,2,1,5,0,0
51259,-166.666666666667,4,2,1,80,0,0
55942,-111.111111111111,4,2,1,100,0,1
72551,-111.111111111111,4,2,1,5,0,1
72625,-111.111111111111,4,2,1,100,0,1
73137,-111.111111111111,4,2,1,5,0,1
73210,-111.111111111111,4,2,1,100,0,1
81698,-111.111111111111,4,2,1,100,0,0
83966,-111.111111111111,4,2,1,5,0,0
84039,-111.111111111111,4,2,1,100,0,0
86307,-111.111111111111,4,2,1,5,0,0
86381,-111.111111111111,4,2,1,100,0,0

[Colours]
Combo1 : 105,105,105
Combo2 : 176,72,72

[HitObjects]
160,32,917,5,2,0:0:0:0:
114,98,1064,1,2,0:0:0:0:
114,98,1356,2,0,L|128:222,1,119.999996337891,2|2,0:0|0:0,0:0:0:0:
86,294,1795,1,2,0:0:0:0:
142,360,1942,6,0,P|184:363|209:353,1,59.9999981689454,2|0,0:0|0:0,0:0:0:0:
261,297,2234,2,0,P|303:294|328:304,1,59.9999981689454,2|0,0:0|0:0,0:0:0:0:
386,358,2527,2,0,B|427:375|427:375|510:352,1,119.999996337891,2|2,0:0|0:0,0:0:0:0:
435,288,2966,1,2,0:0:0:0:
435,288,3259,6,0,L|444:223,1,59.9999981689454,2|2,0:0|0:0,0:0:0:0:
457,150,3551,1,0,0:0:0:0:
469,72,3698,2,0,B|422:65|422:65|393:80|393:80|351:74,1,119.999996337891,2|2,0:0|0:0,0:0:0:0:
295,21,4137,1,2,0:0:0:0:
211,68,4283,6,0,P|184:114|206:183,1,119.999996337891,2|2,0:0|0:0,0:0:0:0:
199,175,4722,1,0,0:0:0:0:
281,201,4868,1,2,0:0:0:0:
360,216,5015,2,0,L|383:213,6,14.9999995422363,2|0|2|0|2|0|2,0:0|0:0|0:0|0:0|0:0|0:0|0:0,0:0:0:0:
401,212,5307,6,0,B|436:249|476:258|476:258|425:301|403:378,1,225.000008583069,4|0,0:1|0:0,0:0:0:0:
333,323,5600,6,0,B|230:287|271:391|127:350,1,179.999994506836,6|10,3:2|0:2,0:0:0:0:
157,134,6039,2,0,P|252:157|270:247,1,179.999994506836,2|2,3:2|3:2,0:0:0:0:
54,331,6478,1,8,0:2:0:0:
185,219,6625,1,2,0:0:0:0:
258,362,6771,6,0,L|160:372,1,89.9999972534181,0|2,3:2|0:0,0:0:0:0:
14,251,7064,1,8,0:2:0:0:
168,112,7210,2,0,L|141:296,1,179.999994506836,2|2,3:2|3:2,0:0:0:0:
66,73,7649,1,10,0:2:0:0:
231,190,7795,1,0,0:0:0:0:
426,65,7942,6,0,B|311:43|311:43|256:84,1,179.999994506836,2|10,3:2|0:2,0:0:0:0:
347,289,8381,2,0,P|388:228|348:134,1,179.999994506836,2|2,3:2|3:2,0:0:0:0:
264,292,8820,1,8,0:2:0:0:
396,369,8966,1,2,0:0:0:0:
302,209,9112,6,0,L|205:222,1,89.9999972534181,0|2,3:2|0:0,0:0:0:0:
315,354,9405,1,8,0:2:0:0:
458,260,9551,2,0,L|486:44,1,179.999994506836,2|2,3:2|3:2,0:0:0:0:
328,30,9990,2,0,L|341:127,1,89.9999972534181,10|0,0:2|0:0,0:0:0:0:
371,285,10283,6,0,P|307:244|207:268,1,179.999994506836,6|10,3:2|0:2,0:0:0:0:
106,384,10722,2,0,B|123:316|123:316|108:274|108:274|124:208,1,179.999994506836,2|2,3:2|3:2,0:0:0:0:
30,343,11161,1,8,0:2:0:0:
206,265,11307,1,2,0:0:0:0:
53,167,11454,6,0,L|30:262,1,89.9999972534181,0|2,3:2|0:0,0:0:0:0:
148,364,11746,1,8,0:2:0:0:
381,271,11893,2,0,B|313:260|313:260|271:275|271:275|204:264,1,179.999994506836,2|2,3:2|3:2,0:0:0:0:
449,329,12332,2,0,P|470:275|457:232,1,89.9999972534181,10|0,0:2|0:0,0:0:0:0:
427,65,12625,6,0,P|390:130|284:130,1,179.999994506836,2|10,3:2|0:2,0:0:0:0:
173,53,13064,1,10,0:2:0:0:
173,53,13137,1,8,0:2:0:0:
173,53,13210,1,8,0:2:0:0:
284,21,13356,1,10,0:2:0:0:
110,142,13503,1,10,0:2:0:0:
258,210,13649,1,8,0:2:0:0:
52,225,13795,6,0,B|24:113|24:113|72:69,1,179.999994506836,6|8,3:2|0:2,0:0:0:0:
283,144,14234,2,0,B|216:134|216:134|180:153|180:153|92:139,1,179.999994506836,6|8,3:2|0:2,0:0:0:0:
358,208,14673,6,0,P|386:125|340:51,1,179.999994506836,6|8,3:2|0:2,0:0:0:0:
198,244,15112,2,0,B|297:228|247:318|374:306,1,179.999994506836,6|8,3:2|0:3,0:0:0:0:
394,292,15478,1,4,0:3:0:0:
394,292,15551,2,0,L|408:187,1,89.9999972534181,10|0,3:2|0:0,0:0:0:0:
199,356,15844,2,0,L|187:266,1,89.9999972534181,10|0,3:2|0:0,0:0:0:0:
194,38,16137,6,0,P|243:93|221:171,1,150.000005722046,6|8,3:2|0:0,0:0:0:0:
20,126,16576,2,0,B|57:95|57:95|169:114,1,150.000005722046,2|0,3:2|3:2,0:0:0:0:
259,241,17015,2,0,L|342:224,1,75.0000028610231,10|0,0:0|0:0,0:0:0:0:
77,229,17307,6,0,L|-6:212,1,75.0000028610231,2|0,3:2|0:0,0:0:0:0:
145,171,17600,2,0,P|167:210|163:256,1,75.0000028610231,10|0,0:0|3:2,0:0:0:0:
107,371,17893,1,2,0:0:0:0:
8,251,18039,2,0,P|47:229|93:233,1,75.0000028610231,2|8,3:2|0:0,0:0:0:0:
171,329,18332,1,2,0:0:0:0:
271,248,18478,6,0,P|299:285|397:295,1,150.000005722046,0|8,3:2|0:0,0:0:0:0:
512,221,18917,2,0,L|361:199,1,150.000005722046,0|0,3:2|3:2,0:0:0:0:
396,295,19356,2,0,L|484:309,1,75.0000028610231,10|0,0:0|0:0,0:0:0:0:
496,131,19649,6,0,L|408:117,1,75.0000028610231,2|0,3:2|0:0,0:0:0:0:
271,189,19942,2,0,P|313:163|330:132,1,75.0000028610231,10|0,0:0|3:2,0:0:0:0:
357,50,20234,1,2,0:0:0:0:
231,30,20381,2,0,L|252:113,1,75.0000028610231,2|8,3:2|0:0,0:0:0:0:
277,218,20673,1,2,0:0:0:0:
120,187,20820,6,0,P|86:140|122:52,1,150.000005722046,0|8,3:2|0:0,0:0:0:0:
198,225,21259,2,0,L|178:383,1,150.000005722046,0|0,3:2|3:2,0:0:0:0:
24,227,21698,2,0,L|104:214,1,75.0000028610231,10|0,0:0|0:0,0:0:0:0:
179,373,21990,6,0,L|99:360,1,75.0000028610231,2|0,3:2|0:0,0:0:0:0:
146,144,22283,2,0,P|186:188|191:219,1,75.0000028610231,10|0,0:0|3:2,0:0:0:0:
34,136,22576,1,2,0:0:0:0:
193,71,22722,1,0,3:2:0:0:
110,288,22868,2,0,L|97:208,1,75.0000028610231,10|0,0:0|0:0,0:0:0:0:
226,67,23161,6,0,B|301:52|285:123|375:110,1,150.000005722046,2|10,3:2|0:0,0:0:0:0:
505,26,23600,2,0,B|462:4|462:4|360:31,1,150.000005722046,2|0,3:2|3:2,0:0:0:0:
434,174,24039,2,0,P|454:129|450:85,1,75.0000028610231,8|0,0:0|0:0,0:0:0:0:
353,230,24332,6,0,L|365:309,1,75.0000028610231,0|0,3:2|0:0,0:0:0:0:
449,248,24625,1,8,0:0:0:0:
280,323,24771,1,0,3:2:0:0:
438,359,24917,2,0,L|517:371,1,75.0000028610231,2|0,0:0|3:2,0:0:0:0:
353,230,25210,2,0,L|274:242,1,75.0000028610231,10|0,0:0|0:0,0:0:0:0:
74,384,25503,6,0,B|45:326|45:326|74:231,1,150.000005722046,6|8,3:2|0:0,0:0:0:0:
187,151,25942,2,0,L|196:236,1,75.0000028610231,0|0,3:2|0:0,0:0:0:0:
163,324,26234,1,2,3:2:0:0:
89,230,26381,1,10,0:0:0:0:
258,262,26527,1,2,0:0:0:0:
69,244,26673,6,0,L|78:159,1,75.0000028610231,2|0,3:2|0:0,0:0:0:0:
218,61,26966,2,0,L|209:146,1,75.0000028610231,10|0,0:0|3:2,0:0:0:0:
44,34,27259,1,2,0:0:0:0:
158,0,27405,1,0,3:2:0:0:
72,109,27551,2,0,P|29:112|-4:99,1,75.0000028610231,10|0,0:0|0:0,0:0:0:0:
194,166,27844,6,0,L|276:155,1,75.0000028610231,2|0,3:2|0:0,0:0:0:0:
349,44,28137,2,0,L|267:33,1,75.0000028610231,10|0,0:0|3:2,0:0:0:0:
353,172,28429,1,2,0:0:0:0:
434,88,28576,2,0,L|445:6,1,75.0000028610231,2|8,3:2|0:0,0:0:0:0:
330,178,28868,1,2,0:0:0:0:
445,305,29015,6,0,P|477:224|445:170,1,150.000005722046,0|8,3:2|0:0,0:0:0:0:
334,287,29454,1,0,3:2:0:0:
424,384,29600,2,0,L|505:376,1,75.0000028610231,2|0,0:0|3:2,0:0:0:0:
349,271,29893,2,0,L|268:279,1,75.0000028610231,10|0,0:0|0:0,0:0:0:0:
139,112,30186,6,0,P|179:144|170:235,1,150.000005722046,2|10,3:2|0:0,0:0:0:0:
0,159,30625,2,0,L|20:0,1,150.000005722046,2|2,3:2|3:2,0:0:0:0:
218,84,31064,1,10,0:0:0:0:
85,166,31210,1,2,0:0:0:0:
172,18,31356,6,0,P|216:5|254:13,1,75.0000028610231,2|0,3:2|0:0,0:0:0:0:
400,155,31649,2,0,P|354:167|318:160,1,75.0000028610231,10|0,0:0|3:2,0:0:0:0:
441,55,31942,1,2,0:0:0:0:
490,200,32088,1,0,3:2:0:0:
358,81,32234,2,0,L|367:3,1,75.0000028610231,10|0,0:0|0:0,0:0:0:0:
241,167,32527,6,0,B|198:202|198:202|216:303,1,150.000005722046,2|10,3:2|0:0,0:0:0:0:
428,284,32966,2,0,P|384:238|279:250,1,150.000005722046,2|0,3:2|3:2,0:0:0:0:
185,384,33405,2,0,L|269:370,1,75.0000028610231,8|0,0:0|0:0,0:0:0:0:
241,167,33698,6,0,L|157:181,1,75.0000028610231,0|0,3:2|0:0,0:0:0:0:
49,317,33990,1,8,0:0:0:0:
202,266,34137,1,0,3:2:0:0:
53,217,34283,1,0,0:0:0:0:
201,106,34429,5,8,0:0:0:0:
133,308,34576,1,8,0:0:0:0:
47,81,34722,1,8,0:0:0:0:
258,203,34868,6,0,P|325:236|407:183,1,150.000005722046,6|8,3:2|0:0,0:0:0:0:
315,0,35307,2,0,L|326:156,1,150.000005722046,2|0,3:2|3:2,0:0:0:0:
495,246,35746,2,0,L|489:168,1,75.0000028610231,10|0,0:0|0:0,0:0:0:0:
331,308,36039,6,0,L|336:386,1,75.0000028610231,2|0,3:2|0:0,0:0:0:0:
392,240,36332,2,0,P|353:219|317:218,1,75.0000028610231,10|0,0:0|3:2,0:0:0:0:
205,323,36625,1,2,0:0:0:0:
336,382,36771,2,0,L|331:308,1,75.0000028610231,2|8,3:2|0:0,0:0:0:0:
254,191,37064,1,2,0:0:0:0:
185,338,37210,6,0,B|137:352|137:352|34:332,1,150.000005722046,0|8,3:2|0:0,0:0:0:0:
119,128,37649,2,0,P|148:170|124:263,1,150.000005722046,0|0,3:2|3:2,0:0:0:0:
57,200,38088,1,10,0:0:0:0:
213,124,38234,1,0,0:0:0:0:
199,277,38381,6,0,L|105:256,1,75.0000028610231,2|0,3:2|0:0,0:0:0:0:
37,87,38673,2,0,L|131:108,1,75.0000028610231,10|0,0:0|3:2,0:0:0:0:
244,143,38966,1,2,0:0:0:0:
45,295,39112,2,0,P|35:247|53:205,1,75.0000028610231,2|8,3:2|0:0,0:0:0:0:
110,103,39405,1,2,0:0:0:0:
253,158,39551,6,0,B|307:149|307:149|341:166|341:166|414:155,1,150.000005722046,0|8,3:2|0:0,0:0:0:0:
512,31,39990,2,0,B|411:12|411:12|364:41,1,150.000005722046,0|0,3:2|3:2,0:0:0:0:
489,216,40429,2,0,L|503:122,1,75.0000028610231,10|0,0:0|0:0,0:0:0:0:
306,108,40722,6,0,L|317:182,1,75.0000028610231,2|0,3:2|0:0,0:0:0:0:
348,345,41015,1,10,0:0:0:0:
410,216,41161,1,0,3:2:0:0:
234,192,41307,2,0,L|159:180,1,75.0000028610231,2|0,0:0|3:2,0:0:0:0:
51,307,41600,2,0,L|125:318,1,75.0000028610231,10|0,0:0|0:0,0:0:0:0:
286,125,41893,6,0,B|319:164|319:164|300:266,1,150.000005722046,2|10,3:2|0:0,0:0:0:0:
190,98,42332,2,0,P|233:42|335:45,1,150.000005722046,2|0,3:2|3:2,0:0:0:0:
224,196,42771,2,0,L|130:177,1,75.0000028610231,8|0,0:0|0:0,0:0:0:0:
53,9,43064,6,0,L|147:28,1,75.0000028610231,0|0,3:2|0:0,0:0:0:0:
280,118,43356,1,8,0:0:0:0:
150,181,43503,1,0,3:2:0:0:
234,38,43649,2,0,P|278:26|321:39,1,75.0000028610231,2|0,0:0|3:2,0:0:0:0:
432,172,43942,2,0,P|388:184|345:171,1,75.0000028610231,10|0,0:0|0:0,0:0:0:0:
217,24,44234,6,0,L|234:209,1,150.000005722046,6|8,3:2|0:0,0:0:0:0:
286,324,44673,2,0,L|294:231,1,75.0000028610231,0|0,3:2|0:0,0:0:0:0:
306,95,44966,1,2,3:2:0:0:
197,236,45112,1,8,0:0:0:0:
382,250,45259,1,2,0:0:0:0:
238,157,45405,6,0,P|194:147|147:160,1,75.0000028610231,2|0,3:2|0:0,0:0:0:0:
280,292,45698,1,10,0:0:0:0:
395,226,45844,1,0,3:2:0:0:
197,236,45990,2,0,L|178:342,1,75.0000028610231,2|0,0:0|3:2,0:0:0:0:
364,383,46283,2,0,L|383:277,1,75.0000028610231,10|0,0:0|0:0,0:0:0:0:
463,167,46576,6,0,P|485:206|482:249,1,75.0000028610231,2|0,3:2|0:0,0:0:0:0:
321,159,46868,2,0,L|335:72,1,75.0000028610231,10|0,0:0|3:2,0:0:0:0:
405,224,47161,1,2,0:0:0:0:
268,266,47307,2,0,L|181:280,1,75.0000028610231,2|8,3:2|0:0,0:0:0:0:
53,211,47600,1,2,0:0:0:0:
155,77,47746,6,0,P|179:114|135:213,1,150.000005722046,0|8,3:2|0:0,0:0:0:0:
66,42,48186,1,8,0:0:0:0:
66,42,48259,1,8,0:0:0:0:
66,42,48332,1,10,0:0:0:0:
264,105,48478,1,8,0:0:0:0:
31,140,48625,1,10,0:0:0:0:
247,215,48771,1,8,0:0:0:0:
46,351,48917,6,0,B|18:318|18:318|33:240,1,119.999996337891,6|2,3:2|0:0,0:0:0:0:
54,141,49356,1,2,3:2:0:0:
229,186,49503,2,0,L|106:203,1,119.999996337891,8|2,0:0|0:0,0:0:0:0:
179,115,49942,1,8,0:0:0:0:
303,136,50088,6,0,P|318:175|315:208,1,59.9999981689454,2|0,3:2|0:0,0:0:0:0:
281,327,50381,2,0,P|266:288|269:255,1,59.9999981689454,2|0,3:2|0:0,0:0:0:0:
428,173,50673,1,10,0:0:0:0:
356,289,50820,1,0,3:2:0:0:
356,289,50966,2,0,L|343:187,1,89.9999972534181,2|0,0:0|0:0,0:0:0:0:
316,92,51259,5,6,3:2:0:0:
244,43,51551,1,8,0:0:0:0:
139,75,51844,1,10,0:0:0:0:
89,203,52137,1,8,0:0:0:0:
310,120,52429,5,10,0:0:0:0:
76,10,52722,1,8,0:0:0:0:
202,266,52868,5,8,0:3:0:0:
202,266,52942,1,8,0:3:0:0:
202,266,53015,1,10,0:3:0:0:
304,39,53161,1,8,0:3:0:0:
96,171,53307,1,6,0:3:0:0:
321,256,53454,1,4,0:3:0:0:
73,90,53600,5,10,3:2:0:0:
401,210,53746,1,10,3:2:0:0:
49,333,54039,5,10,3:2:0:0:
187,43,54332,5,10,3:2:0:0:
276,347,54478,1,10,3:2:0:0:
256,192,54551,12,4,55649,0:1:0:0:
162,61,55942,5,6,3:2:0:0:
202,206,56088,1,2,0:0:0:0:
255,44,56234,1,10,0:0:0:0:
107,135,56381,1,2,3:2:0:0:
279,198,56527,2,0,P|326:207|377:186,1,89.9999972534181,2|0,0:0|3:2,0:0:0:0:
444,56,56820,1,10,0:0:0:0:
320,125,56966,1,2,0:0:0:0:
477,284,57112,6,0,L|490:181,1,89.9999972534181,2|0,3:2|0:0,0:0:0:0:
331,35,57405,2,0,L|318:138,1,89.9999972534181,10|0,0:0|3:2,0:0:0:0:
370,372,57698,2,0,L|383:269,1,89.9999972534181,2|0,0:0|3:2,0:0:0:0:
239,0,57991,2,0,L|226:103,1,89.9999972534181,10|0,0:0|0:0,0:0:0:0:
32,280,58283,6,0,B|-1:262|-1:262|46:200|129:224,1,179.999994506836,2|10,3:2|0:0,0:0:0:0:
293,349,58722,2,0,P|218:374|137:299,1,179.999994506836,2|0,3:2|3:2,0:0:0:0:
187,127,59161,1,10,0:0:0:0:
230,275,59307,1,0,0:0:0:0:
108,79,59454,6,0,P|138:50|198:41,1,89.9999972534181,2|0,3:2|0:0,0:0:0:0:
366,212,59746,1,10,0:0:0:0:
187,127,59893,1,0,3:2:0:0:
402,29,60039,2,0,L|382:135,1,89.9999972534181,2|0,0:0|3:2,0:0:0:0:
344,298,60332,1,10,0:0:0:0:
278,99,60478,1,2,0:0:0:0:
107,331,60625,6,0,B|216:300|169:388|286:361,1,179.999994506836,0|8,3:2|0:0,0:0:0:0:
473,220,61064,2,0,P|420:163|311:194,1,179.999994506836,0|0,3:2|3:2,0:0:0:0:
274,363,61503,1,10,0:0:0:0:
389,247,61649,1,0,0:0:0:0:
202,104,61795,6,0,L|215:212,1,89.9999972534181,2|0,3:2|0:0,0:0:0:0:
378,336,62088,2,0,L|388:246,1,89.9999972534181,10|0,0:0|3:2,0:0:0:0:
143,251,62381,2,0,P|193:281|226:279,1,89.9999972534181,2|0,0:0|3:2,0:0:0:0:
388,56,62673,2,0,P|343:58|307:84,1,89.9999972534181,10|0,0:0|0:0,0:0:0:0:
59,32,62966,6,0,B|114:0|114:0|251:29,1,179.999994506836,6|10,3:2|0:0,0:0:0:0:
381,142,63405,1,2,0:0:0:0:
122,255,63551,2,0,P|89:172|145:98,1,179.999994506836,4|8,3:2|0:0,0:0:0:0:
304,264,63990,1,0,0:0:0:0:
52,362,64137,5,12,0:0:0:0:
192,182,64283,1,8,0:0:0:0:
328,374,64429,1,8,0:0:0:0:
107,269,64576,2,0,L|90:177,1,89.9999972534181,4|0,3:2|0:0,0:0:0:0:
352,19,64868,1,4,3:2:0:0:
319,176,65015,2,0,L|302:268,1,89.9999972534181,8|0,0:0|0:0,0:0:0:0:
434,130,65307,5,6,3:2:0:0:
226,211,65454,1,2,0:0:0:0:
433,317,65600,1,10,0:0:0:0:
372,82,65746,1,2,3:2:0:0:
185,291,65893,2,0,P|229:298|272:285,1,89.9999972534181,2|0,0:0|3:2,0:0:0:0:
444,137,66186,1,10,0:0:0:0:
226,211,66332,1,2,0:0:0:0:
443,329,66478,6,0,L|466:219,1,89.9999972534181,2|0,3:2|0:0,0:0:0:0:
254,43,66771,2,0,L|277:153,1,89.9999972534181,10|0,0:0|3:2,0:0:0:0:
350,384,67064,6,0,L|373:274,1,89.9999972534181,2|0,0:0|3:2,0:0:0:0:
157,14,67356,2,0,L|180:124,1,89.9999972534181,10|0,0:0|0:0,0:0:0:0:
78,347,67649,6,0,B|39:289|39:289|76:175,1,179.999994506836,2|10,3:2|0:0,0:0:0:0:
297,238,68088,2,0,P|237:280|140:250,1,179.999994506836,2|0,3:2|3:2,0:0:0:0:
287,145,68527,1,10,0:0:0:0:
367,318,68673,1,0,0:0:0:0:
216,193,68820,6,0,P|202:151|212:108,1,89.9999972534181,2|0,3:2|0:0,0:0:0:0:
438,253,69112,1,10,0:0:0:0:
267,317,69259,1,0,3:2:0:0:
386,151,69405,2,0,L|483:165,1,89.9999972534181,2|0,0:0|3:2,0:0:0:0:
355,324,69698,1,10,0:0:0:0:
285,164,69844,1,2,0:0:0:0:
464,327,69990,6,0,B|501:283|501:283|472:152,1,179.999994506836,0|8,3:2|0:0,0:0:0:0:
295,0,70429,2,0,B|258:44|258:44|287:175,1,179.999994506836,0|0,3:2|3:2,0:0:0:0:
474,59,70868,2,0,P|428:49|386:62,1,89.9999972534181,10|0,0:0|0:0,0:0:0:0:
246,240,71161,6,0,P|292:250|334:237,1,89.9999972534181,2|0,3:2|0:0,0:0:0:0:
167,131,71454,1,10,0:0:0:0:
68,228,71600,1,0,3:2:0:0:
284,163,71746,2,0,L|300:65,1,89.9999972534181,2|0,0:0|3:2,0:0:0:0:
71,150,72039,1,10,0:0:0:0:
246,240,72186,1,2,0:0:0:0:
12,377,72332,6,0,L|-5:218,1,134.999995880127,6|0,3:2|0:0,0:0:0:0:
4,218,72625,2,0,L|53:229,2,44.999998626709,10|8|10,0:0|0:0|0:0,0:0:0:0:
186,9,72917,6,0,L|169:168,1,134.999995880127,4|0,3:2|0:0,0:0:0:0:
198,179,73210,1,8,0:0:0:0:
241,189,73283,1,8,0:0:0:0:
285,182,73356,1,8,0:0:0:0:
325,163,73429,1,8,0:0:0:0:
356,129,73503,5,12,0:0:0:0:
137,70,73649,1,10,0:3:0:0:
211,283,73795,1,6,0:3:0:0:
118,50,73942,6,0,L|97:155,1,89.9999972534181,6|0,3:2|0:0,0:0:0:0:
406,190,74234,2,0,L|371:14,1,179.999994506836,6|2,3:2|0:0,0:0:0:0:
509,308,74673,6,0,B|451:341|451:341|319:307,1,179.999994506836,6|10,3:2|0:0,0:0:0:0:
244,72,75112,2,0,P|278:101|264:226,1,179.999994506836,2|0,3:2|3:2,0:0:0:0:
85,328,75551,1,8,0:0:0:0:
198,156,75698,1,0,0:0:0:0:
317,366,75844,6,0,B|252:351|252:351|233:316|233:316|147:295,1,179.999994506836,2|8,3:2|0:0,0:0:0:0:
34,130,76283,2,0,B|1:95|1:95|137:134,1,179.999994506836,2|0,3:2|3:2,0:0:0:0:
11,370,76722,2,0,P|1:318|23:272,1,89.9999972534181,10|0,0:0|0:0,0:0:0:0:
245,137,77015,6,0,L|145:151,1,89.9999972534181,2|0,3:2|0:0,0:0:0:0:
13,284,77307,1,10,0:0:0:0:
211,384,77454,2,0,P|241:319|182:225,1,179.999994506836,2|0,3:2|3:2,0:0:0:0:
45,167,77893,1,8,0:0:0:0:
143,319,78039,1,0,0:0:0:0:
327,126,78186,6,0,B|259:110|259:110|212:126|212:126|146:111,1,179.999994506836,0|10,3:2|0:0,0:0:0:0:
259,215,78625,1,0,3:2:0:0:
381,55,78771,2,0,L|291:31,1,89.9999972534181,2|0,0:0|3:2,0:0:0:0:
83,180,79064,2,0,L|173:204,1,89.9999972534181,10|0,0:0|0:0,0:0:0:0:
432,123,79356,6,0,B|474:169|474:169|428:307,1,179.999994506836,2|10,3:2|0:0,0:0:0:0:
222,340,79795,1,2,3:2:0:0:
334,169,79942,2,0,L|353:280,1,89.9999972534181,0|0,0:0|3:2,0:0:0:0:
146,384,80234,2,0,L|127:273,1,89.9999972534181,8|0,0:0|0:0,0:0:0:0:
192,62,80527,6,0,P|235:111|184:227,1,179.999994506836,2|8,3:2|0:0,0:0:0:0:
64,78,80966,1,2,0:0:0:0:
261,13,81112,1,8,3:2:0:0:
293,2,81185,1,8,0:0:0:0:
326,3,81258,1,8,0:0:0:0:
357,16,81331,1,8,0:0:0:0:
383,38,81404,1,10,3:2:0:0:
415,48,81478,1,8,0:0:0:0:
448,47,81551,1,8,0:0:0:0:
479,34,81624,1,8,0:0:0:0:
505,12,81698,6,0,L|473:198,1,179.999994506836,10|0,3:2|0:0,0:0:0:0:
390,383,82137,2,0,L|358:197,1,179.999994506836,8|0,3:2|0:0,0:0:0:0:
288,8,82576,2,0,L|256:194,1,179.999994506836,8|0,3:2|0:0,0:0:0:0:
173,379,83015,2,0,L|141:193,1,179.999994506836,8|0,3:2|0:0,0:0:0:0:
57,17,83454,2,0,L|34:136,1,89.9999972534181,8|0,3:2|0:0,0:0:0:0:
173,379,83746,2,0,L|205:208,1,134.999995880127,8|0,0:0|0:0,0:0:0:0:
208,224,84039,6,0,L|21:256,1,179.999994506836,10|0,3:2|0:0,0:0:0:0:
313,73,84478,2,0,L|126:41,1,179.999994506836,8|0,3:2|0:0,0:0:0:0:
350,299,84917,2,0,L|163:331,1,179.999994506836,8|0,3:2|0:0,0:0:0:0:
512,30,85356,2,0,L|325:-2,1,179.999994506836,8|0,3:2|0:0,0:0:0:0:
509,338,85795,2,0,L|397:357,1,89.9999972534181,8|0,3:2|0:0,0:0:0:0:
210,232,86088,2,0,L|377:203,1,134.999995880127,8|0,0:0|0:0,0:0:0:0:
370,201,86381,5,10,3:2:0:0:
161,351,86820,5,10,3:2:0:0:
146,116,87259,5,10,3:2:0:0:
354,368,87698,5,10,3:2:0:0:
