osu file format v14

[General]
AudioFilename: audio.mp3
AudioLeadIn: 0
PreviewTime: 55868
Countdown: 0
SampleSet: Soft
StackLeniency: 0.4
Mode: 0
LetterboxInBreaks: 0
WidescreenStoryboard: 1

[Editor]
Bookmarks: 5600,16137,25503,34868,44234,48917,55942,65307,74673,81771
DistanceSpacing: 0.8
BeatDivisor: 2
GridSize: 32
TimelineZoom: 3.099999

[Metadata]
Title:ViViD (TV Size)
TitleUnicode:ViViD (TV Size)
Artist:May'n
ArtistUnicode:May'n
Creator:Xandit
Version:NoRmAl
Source:ブラッドラッド
Tags:blood lad opening japanese pop j-pop Nakabayashi Mei 中林芽依 o.s.t.2 door weapon xiced female vocals anime ヴィヴィッド jubeat gitadora dog food
BeatmapID:2678654
BeatmapSetID:1290371

[Difficulty]
HPDrainRate:3.5
CircleSize:3.2
OverallDifficulty:4
ApproachRate:6
SliderMultiplier:1.1
SliderTickRate:1

[Events]
//Background and Video events
0,0,"living living vi viidsaa.jpg",0,0
//Break Periods
//Storyboard Layer 0 (Background)
//Storyboard Layer 1 (Fail)
//Storyboard Layer 2 (Pass)
//Storyboard Layer 3 (Foreground)
//Storyboard Layer 4 (Overlay)
//Storyboard Sound Samples

[TimingPoints]
-253,292.682926829268,4,2,1,60,1,0
5600,-100,4,2,1,100,0,0
16137,-100,4,2,1,80,0,0
48917,-111.111111111111,4,2,1,80,0,0
55942,-100,4,2,1,100,0,1
81698,-100,4,2,1,100,0,0

[Colours]
Combo1 : 105,105,105
Combo2 : 176,72,72

[HitObjects]
48,62,5600,6,0,P|93:43|155:54,1,110,6|10,3:2|0:2,0:0:0:0:
186,80,6039,2,0,P|231:99|293:88,1,110,2|2,3:2|3:2,0:0:0:0:
327,66,6478,1,8,0:2:0:0:
402,21,6771,1,0,3:2:0:0:
462,84,7064,1,8,0:2:0:0:
462,84,7210,2,0,L|449:202,1,110,2|2,3:2|3:2,0:0:0:0:
469,232,7649,1,10,0:2:0:0:
423,307,7942,6,0,B|371:324|371:324|318:303,1,110,2|10,3:2|0:2,0:0:0:0:
281,326,8381,2,0,B|229:309|229:309|176:330,1,110,2|2,3:2|3:2,0:0:0:0:
138,349,8820,1,8,0:2:0:0:
53,374,9112,1,0,3:2:0:0:
2,301,9405,1,8,0:2:0:0:
2,301,9551,2,0,L|22:171,1,110,2|2,3:2|3:2,0:0:0:0:
51,162,9990,1,10,0:2:0:0:
16,81,10283,6,0,P|73:45|147:62,1,110,6|10,3:2|0:2,0:0:0:0:
150,21,10722,2,0,P|207:57|281:40,1,110,2|2,3:2|3:2,0:0:0:0:
281,84,11161,1,8,0:2:0:0:
327,159,11454,2,0,L|316:298,1,110,0|8,3:2|0:2,0:0:0:0:
314,312,11893,2,0,P|252:345|193:327,1,110,2|2,3:2|3:2,0:0:0:0:
176,318,12332,1,10,0:2:0:0:
88,328,12625,6,0,L|106:211,1,110,2|10,3:2|0:2,0:0:0:0:
111,179,13064,1,10,0:2:0:0:
111,179,13210,2,0,L|167:171,1,55,8|10,0:2|0:2,0:0:0:0:
209,166,13503,1,10,0:2:0:0:
284,121,13795,6,0,P|337:106|403:142,1,110,6|8,3:2|0:2,0:0:0:0:
418,155,14234,1,6,3:2:0:0:
484,230,14527,1,8,0:2:0:0:
484,230,14673,2,0,L|465:360,1,110,6|8,3:2|0:2,0:0:0:0:
433,366,15112,1,6,3:2:0:0:
343,269,15551,1,10,3:2:0:0:
257,249,15844,1,10,3:2:0:0:
169,235,16137,6,0,P|150:297|212:374,1,165,6|2,3:2|3:2,0:0:0:0:
335,350,17015,1,10,0:0:0:0:
421,335,17307,2,0,L|440:220,1,110,2|10,3:2|0:0,0:0:0:0:
485,153,17893,1,2,0:0:0:0:
485,153,18040,1,2,3:2:0:0:
434,81,18332,6,0,P|376:48|264:87,1,165,2|8,0:0|0:0,0:0:0:0:
256,102,18917,1,0,3:2:0:0:
152,19,19356,1,10,0:0:0:0:
82,73,19649,2,0,L|96:189,1,110,2|10,3:2|0:0,0:0:0:0:
111,273,20235,1,2,0:0:0:0:
111,273,20381,1,2,3:2:0:0:
186,317,20673,6,0,P|257:344|334:300,1,165,2|8,0:0|0:0,0:0:0:0:
351,265,21259,1,0,3:2:0:0:
395,140,21698,1,10,0:0:0:0:
350,64,21990,2,0,B|294:49|294:49|221:68,1,110,2|10,3:2|0:0,0:0:0:0:
176,120,22576,2,0,L|185:240,1,110,2|10,0:0|0:0,0:0:0:0:
241,296,23161,5,2,3:2:0:0:
318,253,23454,1,10,0:0:0:0:
318,253,23600,1,2,3:2:0:0:
433,317,24039,1,8,0:0:0:0:
484,245,24332,2,0,L|497:130,1,110,0|8,3:2|0:0,0:0:0:0:
472,50,24917,2,0,P|411:30|353:50,1,110,2|10,0:0|0:0,0:0:0:0:
339,135,25503,6,0,L|319:317,1,165,6|0,3:2|3:2,0:0:0:0:
234,315,26234,2,0,L|229:369,2,55,2|10|2,3:0|0:0|0:0,0:0:0:0:
209,278,26673,2,0,L|93:263,1,110,2|10,3:2|0:0,0:0:0:0:
25,310,27259,2,0,P|9:246|29:199,1,110,2|10,0:0|0:0,0:0:0:0:
105,173,27844,5,2,3:2:0:0:
67,93,28137,1,10,0:0:0:0:
108,15,28429,2,0,L|179:22,1,55,2|2,0:0|3:2,0:0:0:0:
190,61,28722,1,8,0:0:0:0:
190,61,28868,2,0,L|368:44,1,165,2|8,0:0|0:0,0:0:0:0:
441,47,29600,1,2,0:0:0:0:
482,124,29893,1,10,0:0:0:0:
499,210,30186,6,0,L|477:345,1,110,2|10,3:2|0:0,0:0:0:0:
461,357,30625,2,0,P|390:372|334:343,1,110,2|2,3:2|3:2,0:0:0:0:
325,332,31064,1,10,0:0:0:0:
240,354,31356,2,0,L|254:239,1,110,2|10,3:2|0:0,0:0:0:0:
205,170,31942,2,0,L|219:55,1,110,2|10,0:0|0:0,0:0:0:0:
292,12,32527,6,0,P|340:42|411:31,1,110,2|10,3:2|0:0,0:0:0:0:
429,17,32966,1,2,3:2:0:0:
476,97,33259,1,0,3:2:0:0:
476,97,33405,1,8,0:0:0:0:
430,172,33698,2,0,B|404:220|404:220|420:297,1,110,0|8,3:2|0:0,0:0:0:0:
397,314,34137,1,0,3:2:0:0:
321,359,34429,1,8,0:0:0:0:
321,359,34576,2,0,L|249:348,1,55,8|8,0:0|0:0,0:0:0:0:
223,345,34868,6,0,P|256:287|236:215,1,110,6|8,3:2|0:0,0:0:0:0:
223,212,35307,1,2,3:2:0:0:
196,82,35746,1,10,0:0:0:0:
107,50,36039,1,2,3:2:0:0:
22,75,36332,1,10,0:0:0:0:
54,156,36625,2,0,L|30:270,1,110,2|8,0:0|0:0,0:0:0:0:
20,351,37210,5,0,3:2:0:0:
150,367,37649,2,0,P|214:377|256:356,1,110,0|0,3:2|3:2,0:0:0:0:
265,315,38088,1,10,0:0:0:0:
350,339,38381,1,2,3:2:0:0:
432,367,38673,1,10,0:0:0:0:
491,302,38966,2,0,L|510:182,1,110,2|8,0:0|0:0,0:0:0:0:
487,107,39551,5,0,3:2:0:0:
393,13,39990,2,0,P|328:-5|265:15,1,110,0|0,3:2|3:2,0:0:0:0:
263,40,40429,1,10,0:0:0:0:
224,119,40722,2,0,L|93:106,1,110,2|10,3:2|0:0,0:0:0:0:
105,198,41307,2,0,L|236:211,1,110,2|10,0:0|0:0,0:0:0:0:
268,278,41893,6,0,P|333:296|396:276,1,110,2|10,3:2|0:0,0:0:0:0:
413,307,42332,2,0,L|431:190,1,110,2|0,3:2|3:2,0:0:0:0:
459,165,42771,1,8,0:0:0:0:
511,94,43064,2,0,B|459:74|459:74|382:94,1,110,0|8,3:2|0:0,0:0:0:0:
323,58,43649,1,2,0:0:0:0:
253,112,43942,1,10,0:0:0:0:
171,78,44234,6,0,P|198:142|170:201,1,110,6|8,3:2|0:0,0:0:0:0:
167,217,44673,1,0,3:2:0:0:
58,292,45112,1,8,0:0:0:0:
2,223,45405,2,0,L|18:110,1,110,2|10,3:2|0:0,0:0:0:0:
28,26,45990,2,0,L|141:10,1,110,2|10,0:0|0:0,0:0:0:0:
191,79,46576,5,2,3:2:0:0:
268,38,46868,1,10,0:0:0:0:
349,71,47161,2,0,L|405:60,1,55,2|2,0:0|3:2,0:0:0:0:
490,73,47600,2,0,P|508:150|483:208,1,110,2|0,0:0|0:0,0:0:0:0:
478,216,48039,1,8,0:0:0:0:
407,268,48332,2,0,L|348:257,1,55,10|8,0:0|0:0,0:0:0:0:
318,229,48625,2,0,L|259:218,1,55,10|8,0:0|0:0,0:0:0:0:
227,243,48917,6,0,B|126:219|147:338|4:298,1,197.99999395752,6|8,3:2|0:0,0:0:0:0:
34,217,49795,1,2,0:0:0:0:
41,128,50088,2,0,L|55:11,1,98.9999969787599,2|2,3:2|3:2,0:0:0:0:
141,23,50673,2,0,L|126:142,1,98.9999969787599,10|2,0:0|0:0,0:0:0:0:
181,205,51259,6,0,P|199:259|174:324,2,98.9999969787599,6|8|10,3:2|0:0|0:0,0:0:0:0:
256,157,52137,1,8,0:0:0:0:
337,121,52429,1,10,0:0:0:0:
337,31,52722,1,8,0:0:0:0:
260,10,53015,2,0,L|189:-1,1,49.4999984893799,10|8,0:3|0:3,0:0:0:0:
179,26,53307,2,0,L|107:38,1,49.4999984893799,6|4,0:3|0:3,0:0:0:0:
97,54,53600,5,10,3:2:0:0:
97,54,53746,1,10,3:2:0:0:
75,130,54039,1,10,3:2:0:0:
59,210,54332,1,10,3:2:0:0:
59,210,54479,1,10,3:2:0:0:
282,376,55649,5,4,0:1:0:0:
224,310,55942,6,0,L|214:244,1,55,6|2,3:2|0:0,0:0:0:0:
184,224,56234,2,0,L|174:158,1,55,10|2,0:0|3:2,0:0:0:0:
173,125,56527,2,0,P|226:99|298:122,1,110,2|10,0:0|0:0,0:0:0:0:
306,75,56966,1,2,0:0:0:0:
306,75,57112,1,2,3:2:0:0:
393,70,57405,1,10,0:0:0:0:
449,137,57698,1,2,0:0:0:0:
444,224,57990,1,10,0:0:0:0:
381,286,58283,6,0,L|267:273,1,110,2|10,3:2|0:0,0:0:0:0:
240,246,58722,2,0,L|126:233,1,110,2|0,3:2|3:2,0:0:0:0:
89,250,59161,1,10,0:0:0:0:
42,175,59454,1,2,3:2:0:0:
81,96,59746,2,0,L|151:108,1,55,10|0,0:0|3:2,0:0:0:0:
170,78,60039,2,0,P|220:95|284:74,1,110,2|10,0:0|0:0,0:0:0:0:
299,45,60478,1,2,0:0:0:0:
299,45,60625,5,0,3:2:0:0:
375,87,60917,1,8,0:0:0:0:
375,87,61064,2,0,L|355:201,1,110,0|0,3:2|3:2,0:0:0:0:
380,232,61503,1,10,0:0:0:0:
352,315,61795,1,2,3:2:0:0:
265,298,62088,1,10,0:0:0:0:
189,343,62381,1,2,0:0:0:0:
103,323,62673,1,10,0:0:0:0:
50,251,62966,6,0,P|30:183|47:135,1,110,6|10,3:2|0:0,0:0:0:0:
73,118,63405,1,2,0:0:0:0:
73,118,63551,2,0,L|65:41,2,55,4|0|8,3:2|3:2|0:0,0:0:0:0:
152,156,64137,2,0,L|213:150,1,55,12|8,0:0|0:0,0:0:0:0:
250,145,64429,1,8,0:0:0:0:
250,145,64576,1,4,3:2:0:0:
336,131,64868,1,4,3:2:0:0:
336,131,65015,1,8,0:0:0:0:
407,182,65307,6,0,P|424:143|422:109,1,55,6|2,3:2|0:0,0:0:0:0:
451,95,65600,2,0,L|458:27,1,55,10|2,0:0|3:2,0:0:0:0:
429,5,65893,2,0,B|372:-11|372:-11|308:10,1,110,2|10,0:0|0:0,0:0:0:0:
304,46,66332,1,2,0:0:0:0:
304,46,66478,1,2,3:2:0:0:
222,79,66771,1,10,0:0:0:0:
140,113,67064,1,2,0:0:0:0:
57,141,67356,1,10,0:0:0:0:
12,217,67649,6,0,P|-4:282|24:340,1,110,2|10,3:2|0:0,0:0:0:0:
53,326,68088,2,0,L|173:313,1,110,2|0,3:2|3:2,0:0:0:0:
200,335,68527,1,10,0:0:0:0:
275,290,68820,2,0,L|395:277,1,110,2|10,3:2|0:0,0:0:0:0:
432,286,69259,1,0,3:2:0:0:
432,286,69405,2,0,L|443:223,1,55,2|0,0:0|3:2,0:0:0:0:
468,196,69698,1,10,0:0:0:0:
487,110,69990,6,0,P|427:74|376:83,1,110,0|8,3:2|0:0,0:0:0:0:
359,44,70429,2,0,P|299:80|248:71,1,110,0|0,3:2|3:2,0:0:0:0:
225,51,70868,1,10,0:0:0:0:
143,83,71161,1,2,3:2:0:0:
153,170,71454,1,10,0:0:0:0:
166,256,71746,1,2,0:0:0:0:
179,343,72039,2,0,L|239:337,1,55,10|2,0:0|0:0,0:0:0:0:
267,309,72332,6,0,P|320:355|375:355,1,110,6|10,3:2|0:0,0:0:0:0:
397,339,72771,1,10,0:0:0:0:
397,339,72917,2,0,L|412:272,1,55,4|0,3:2|3:2,0:0:0:0:
397,242,73210,1,8,0:0:0:0:
439,165,73503,2,0,P|460:161|500:168,2,55,12|10|6,0:0|0:3|0:3,0:0:0:0:
401,140,73942,1,6,3:2:0:0:
348,69,74234,1,6,3:2:0:0:
273,116,74527,1,2,0:0:0:0:
273,116,74673,6,0,L|141:101,1,110,6|10,3:2|0:0,0:0:0:0:
123,122,75112,2,0,P|110:52|133:10,1,110,2|0,3:2|3:2,0:0:0:0:
168,11,75551,1,8,0:0:0:0:
255,20,75844,2,0,L|364:32,1,110,2|8,3:2|0:0,0:0:0:0:
407,42,76283,2,0,B|434:88|434:88|420:178,1,110,2|0,3:2|3:2,0:0:0:0:
418,187,76722,1,10,0:0:0:0:
407,274,77015,6,0,P|346:304|266:274,1,110,2|10,3:2|0:0,0:0:0:0:
272,270,77454,2,0,L|152:261,1,110,2|0,3:2|3:2,0:0:0:0:
120,275,77893,1,8,0:0:0:0:
64,206,78186,1,0,3:2:0:0:
7,138,78478,2,0,L|18:76,1,55,10|0,0:0|3:2,0:0:0:0:
11,39,78771,2,0,B|65:21|65:21|129:39,1,110,2|10,0:0|0:0,0:0:0:0:
153,116,79356,6,0,P|211:126|260:103,1,110,2|10,3:2|0:0,0:0:0:0:
296,88,79795,2,0,L|286:211,1,110,2|0,3:2|3:2,0:0:0:0:
285,241,80234,1,8,0:0:0:0:
235,313,80527,6,0,B|184:291|184:291|124:312,1,110,2|8,3:2|0:0,0:0:0:0:
92,327,80966,1,2,0:0:0:0:
92,327,81112,2,0,L|86:256,1,55,8|8,3:2|0:0,0:0:0:0:
116,239,81405,2,0,L|122:168,1,55,10|8,3:2|0:0,0:0:0:0:
128,140,81698,6,0,B|190:133|190:133|239:151|239:151|302:142,1,165,10|8,3:2|3:2,0:0:0:0:
420,133,82576,2,0,P|467:203|443:293,1,165,8|8,3:2|3:2,0:0:0:0:
345,353,83454,1,8,3:2:0:0:
264,317,83746,1,8,0:0:0:0:
186,359,84039,6,0,B|75:376|75:376|25:346,1,165,10|8,3:2|3:2,0:0:0:0:
4,219,84917,2,0,L|23:50,1,165,8|8,3:2|3:2,0:0:0:0:
133,125,85795,1,8,3:2:0:0:
216,95,86088,1,8,0:0:0:0:
296,59,86381,6,0,L|468:87,1,165,10|10,3:2|3:2,0:0:0:0:
420,211,87259,1,10,3:2:0:0:
382,337,87698,1,10,3:2:0:0:
