osu file format v14

[General]
AudioFilename: audio.mp3
AudioLeadIn: 0
PreviewTime: 55868
Countdown: 0
SampleSet: Soft
StackLeniency: 0.4
Mode: 0
LetterboxInBreaks: 0
WidescreenStoryboard: 1

[Editor]
Bookmarks: 5600,16137,25503,34868,44234,48917,55942,65307,74673,81771
DistanceSpacing: 1.5
BeatDivisor: 4
GridSize: 32
TimelineZoom: 2.6

[Metadata]
Title:ViViD (TV Size)
TitleUnicode:ViViD (TV Size)
Artist:May'n
ArtistUnicode:May'n
Creator:Xandit
Version:HaRd
Source:ブラッドラッド
Tags:blood lad opening japanese pop j-pop Nakabayashi Mei 中林芽依 o.s.t.2 door weapon xiced female vocals anime ヴィヴィッド jubeat gitadora dog food
BeatmapID:2678653
BeatmapSetID:1290371

[Difficulty]
HPDrainRate:4.5
CircleSize:3.4
OverallDifficulty:6.3
ApproachRate:8
SliderMultiplier:1.5
SliderTickRate:1

[Events]
//Background and Video events
0,0,"living living vi viidsaa.jpg",0,0
//Break Periods
//Storyboard Layer 0 (Background)
//Storyboard Layer 1 (Fail)
//Storyboard Layer 2 (Pass)
//Storyboard Layer 3 (Foreground)
//Storyboard Layer 4 (Overlay)
//Storyboard Sound Samples

[TimingPoints]
-253,292.682926829268,4,2,1,60,1,0
5600,-100,4,2,1,100,0,0
16137,-125,4,2,1,80,0,0
55942,-100,4,2,1,100,0,1
72551,-100,4,2,1,5,0,1
72625,-100,4,2,1,100,0,1
73137,-100,4,2,1,5,0,1
73210,-100,4,2,1,100,0,1
81698,-133.333333333333,4,2,1,100,0,0

[Colours]
Combo1 : 105,105,105
Combo2 : 176,72,72

[HitObjects]
70,44,5307,5,4,0:1:0:0:
70,44,5600,6,0,P|141:20|221:52,1,150,6|10,3:2|0:2,0:0:0:0:
258,119,6039,2,0,P|301:125|343:111,1,75,2|0,3:2|0:0,0:0:0:0:
377,39,6332,2,0,L|454:53,1,75,2|8,3:2|0:2,0:0:0:0:
504,124,6625,6,0,P|512:160|505:197,1,75,2|0,0:0|3:2,0:0:0:0:
438,256,6917,2,0,L|364:242,1,75,2|8,0:0|0:2,0:0:0:0:
294,299,7210,2,0,L|135:271,1,150,2|2,3:2|3:2,0:0:0:0:
58,248,7649,1,10,0:0:0:0:
113,108,7942,6,0,P|160:141|254:116,1,150,2|10,3:2|0:2,0:0:0:0:
290,44,8381,2,0,L|386:53,1,75,2|0,3:2|0:0,0:0:0:0:
420,121,8673,2,0,P|437:177|420:224,1,75,2|8,3:2|0:2,0:0:0:0:
364,248,8966,6,0,P|347:304|364:351,1,75,2|0,0:0|3:2,0:0:0:0:
275,379,9259,1,2,0:0:0:0:
195,335,9405,1,8,0:0:0:0:
109,372,9551,2,0,L|128:210,1,150,2|2,3:2|3:2,0:0:0:0:
164,141,9990,1,10,0:0:0:0:
276,48,10283,6,0,P|332:76|417:47,1,150,6|10,3:2|0:2,0:0:0:0:
480,110,10722,2,0,L|462:212,1,75,2|0,3:2|0:0,0:0:0:0:
408,252,11015,2,0,L|390:354,1,75,2|8,3:2|0:2,0:0:0:0:
318,278,11307,6,0,P|269:268|231:279,1,75,2|0,0:0|3:2,0:0:0:0:
179,335,11600,2,0,P|142:339|106:329,1,75,2|8,0:0|0:2,0:0:0:0:
15,335,11893,2,0,L|6:175,1,150,2|2,3:2|3:2,0:0:0:0:
7,94,12332,1,10,0:0:0:0:
151,19,12625,6,0,B|185:42|221:47|221:47|255:15|292:12,1,150,2|10,3:2|0:2,0:0:0:0:
299,95,13064,2,0,L|289:162,2,37.5,10|8|8,0:2|0:2|0:2,0:0:0:0:
368,38,13356,1,10,0:2:0:0:
427,106,13503,1,10,0:2:0:0:
488,171,13649,1,8,0:2:0:0:
488,171,13795,6,0,L|452:329,1,150,6|8,3:2|0:2,0:0:0:0:
358,291,14234,2,0,P|294:330|210:309,1,150,6|8,3:2|0:2,0:0:0:0:
127,276,14673,2,0,B|157:233|157:233|139:133,1,150,6|8,3:2|0:2,0:0:0:0:
87,42,15112,2,0,P|157:84|234:62,1,150,6|8,3:2|0:3,0:0:0:0:
285,134,15551,2,0,L|275:229,1,75,10|0,3:2|0:0,0:0:0:0:
191,238,15844,2,0,L|201:143,1,75,10|0,3:2|0:0,0:0:0:0:
139,309,16137,6,0,P|195:325|250:301,1,120,6|8,3:2|0:0,0:0:0:0:
296,229,16576,2,0,L|311:84,1,120,2|0,3:2|3:2,0:0:0:0:
275,31,17015,1,10,0:0:0:0:
116,86,17307,6,0,L|124:166,1,60,2|0,3:2|0:0,0:0:0:0:
176,210,17600,2,0,L|167:290,1,60,10|0,0:0|3:2,0:0:0:0:
211,342,17893,1,2,0:0:0:0:
274,287,18039,2,0,P|316:277|349:283,1,60,2|8,3:2|0:0,0:0:0:0:
401,326,18332,1,2,0:0:0:0:
469,278,18478,6,0,B|498:238|498:238|481:165,1,120,0|8,3:2|0:0,0:0:0:0:
509,89,18917,2,0,P|466:114|396:93,1,120,0|0,3:2|3:2,0:0:0:0:
343,35,19356,1,10,0:0:0:0:
343,35,19649,6,0,L|263:26,1,60,2|0,3:2|0:0,0:0:0:0:
194,46,19942,2,0,P|177:88|183:124,1,60,10|0,0:0|3:2,0:0:0:0:
134,182,20234,1,2,0:0:0:0:
134,182,20381,2,0,P|131:211|117:237,1,60,2|8,3:2|0:0,0:0:0:0:
52,300,20673,1,2,0:0:0:0:
113,366,20820,6,0,L|238:355,1,120,0|8,3:2|0:0,0:0:0:0:
319,381,21259,2,0,L|444:370,1,120,0|0,3:2|3:2,0:0:0:0:
503,307,21698,1,10,0:0:0:0:
503,307,21990,6,0,L|510:240,1,60,2|0,3:2|0:0,0:0:0:0:
452,176,22283,2,0,L|445:109,1,60,10|0,0:0|3:2,0:0:0:0:
414,31,22576,2,0,P|375:25|347:36,1,60,2|0,0:0|3:2,0:0:0:0:
276,72,22868,2,0,P|237:78|209:67,1,60,10|0,0:0|0:0,0:0:0:0:
146,16,23161,6,0,B|175:54|175:54|155:134,1,120,2|10,3:2|0:0,0:0:0:0:
80,170,23600,2,0,P|48:198|52:282,1,120,2|0,3:2|3:2,0:0:0:0:
123,316,24039,1,8,0:0:0:0:
123,316,24332,6,0,L|262:299,1,120,0|8,3:2|0:0,0:0:0:0:
319,348,24771,1,0,3:2:0:0:
390,300,24917,2,0,P|404:261|398:217,1,60,2|0,0:0|3:2,0:0:0:0:
345,182,25210,2,0,P|331:143|337:99,1,60,10|0,0:0|0:0,0:0:0:0:
390,37,25503,6,0,B|465:29|465:29|502:55,1,120,6|8,3:2|0:0,0:0:0:0:
447,119,25942,2,0,L|430:247,1,120,0|2,3:2|3:2,0:0:0:0:
466,314,26381,2,0,P|467:359|460:382,1,60,10|2,0:0|0:0,0:0:0:0:
385,342,26673,5,2,3:2:0:0:
231,321,26966,2,0,L|159:316,1,60,10|0,0:0|3:2,0:0:0:0:
99,364,27259,2,0,P|83:311|90:285,1,60,2|0,0:0|3:2,0:0:0:0:
129,237,27551,2,0,P|145:184|138:158,1,60,10|0,0:0|0:0,0:0:0:0:
94,112,27844,6,0,P|163:132|217:99,1,120,2|10,3:2|0:0,0:0:0:0:
269,58,28283,1,0,3:2:0:0:
269,58,28429,2,0,L|261:-14,2,60,2|2|8,0:0|3:2|0:0,0:0:0:0:
335,109,28868,6,0,B|378:87|378:87|457:106,1,120,2|0,0:0|0:0,0:0:0:0:
495,173,29307,2,0,L|502:237,1,60,8|0,0:0|3:2,0:0:0:0:
469,310,29600,2,0,P|430:321|395:310,1,60,2|0,0:0|3:2,0:0:0:0:
336,356,29893,2,0,P|297:345|262:356,1,60,10|0,0:0|0:0,0:0:0:0:
217,289,30186,6,0,L|194:143,1,120,2|10,3:2|0:0,0:0:0:0:
187,86,30625,2,0,P|244:53|300:71,1,120,2|2,3:2|3:2,0:0:0:0:
362,114,31064,2,0,L|352:173,1,60,10|2,0:0|0:0,0:0:0:0:
339,255,31356,6,0,L|320:373,1,120,2|10,3:2|0:0,0:0:0:0:
244,337,31795,1,0,3:2:0:0:
244,337,31942,2,0,P|200:328|159:338,1,60,2|0,0:0|3:2,0:0:0:0:
110,366,32234,2,0,P|66:375|25:365,1,60,10|0,0:0|0:0,0:0:0:0:
3,304,32527,6,0,B|14:229|14:229|55:204,1,120,2|10,3:2|0:0,0:0:0:0:
92,132,32966,2,0,P|134:160|209:149,1,120,2|0,3:2|3:2,0:0:0:0:
257,91,33405,1,8,0:0:0:0:
398,0,33698,6,0,L|413:132,1,120,0|8,3:2|0:0,0:0:0:0:
470,179,34137,1,0,3:2:0:0:
470,179,34283,2,0,P|480:225|475:250,1,60,0|8,0:0|0:0,0:0:0:0:
396,256,34576,1,8,0:0:0:0:
315,279,34722,1,8,0:0:0:0:
220,343,34868,6,0,P|229:275|190:221,1,120,6|8,3:2|0:0,0:0:0:0:
132,188,35307,2,0,L|8:206,1,120,2|0,3:2|3:2,0:0:0:0:
13,289,35746,1,10,0:0:0:0:
166,357,36039,6,0,L|251:344,1,60,2|0,3:2|0:0,0:0:0:0:
287,290,36332,2,0,L|372:303,1,60,10|0,0:0|3:2,0:0:0:0:
412,350,36625,1,2,0:0:0:0:
412,350,36771,2,0,P|460:356|481:346,1,60,2|8,3:2|0:0,0:0:0:0:
507,276,37064,1,2,0:0:0:0:
462,198,37210,6,0,L|474:74,1,120,0|8,3:2|0:0,0:0:0:0:
409,20,37649,2,0,P|342:20|298:64,1,120,0|0,3:2|3:2,0:0:0:0:
226,105,38088,2,0,L|233:178,1,60,10|0,0:0|0:0,0:0:0:0:
184,234,38381,6,0,L|191:307,1,60,2|0,3:2|0:0,0:0:0:0:
240,360,38673,2,0,P|280:359|308:343,1,60,10|0,0:0|3:2,0:0:0:0:
360,294,38966,1,2,0:0:0:0:
360,294,39112,2,0,L|367:220,1,60,2|8,3:2|0:0,0:0:0:0:
370,150,39405,1,2,0:0:0:0:
379,66,39551,6,0,B|311:51|327:107|251:85,1,120,0|8,3:2|0:0,0:0:0:0:
194,134,39990,2,0,P|152:99|74:105,1,120,0|0,3:2|3:2,0:0:0:0:
25,153,40429,1,10,0:0:0:0:
25,153,40722,6,0,L|30:232,1,60,2|0,3:2|0:0,0:0:0:0:
39,296,41015,2,0,P|70:303|108:292,1,60,10|0,0:0|3:2,0:0:0:0:
168,340,41307,2,0,P|199:333|237:344,1,60,2|0,0:0|3:2,0:0:0:0:
301,376,41600,2,0,L|306:297,1,60,10|0,0:0|0:0,0:0:0:0:
375,270,41893,6,0,L|367:150,1,120,2|10,3:2|0:0,0:0:0:0:
366,65,42332,2,0,P|325:39|248:50,1,120,2|0,3:2|3:2,0:0:0:0:
193,101,42771,2,0,L|133:97,1,60,8|0,0:0|0:0,0:0:0:0:
48,100,43064,6,0,B|17:134|17:134|34:221,1,120,0|8,3:2|0:0,0:0:0:0:
47,289,43503,1,0,3:2:0:0:
68,369,43649,2,0,P|104:369|136:357,1,60,2|0,0:0|3:2,0:0:0:0:
172,291,43942,2,0,P|208:291|240:303,1,60,10|0,0:0|0:0,0:0:0:0:
298,374,44234,6,0,P|283:310|330:251,1,120,6|8,3:2|0:0,0:0:0:0:
375,213,44673,2,0,L|520:232,1,120,0|2,3:2|3:2,0:0:0:0:
508,311,45112,2,0,L|435:301,1,60,8|2,0:0|0:0,0:0:0:0:
364,297,45405,6,0,L|304:289,1,60,2|0,3:2|0:0,0:0:0:0:
220,282,45698,2,0,P|213:243|220:215,1,60,10|0,0:0|3:2,0:0:0:0:
252,147,45990,2,0,L|244:87,1,60,2|0,0:0|3:2,0:0:0:0:
283,12,46283,2,0,P|326:7|363:22,1,60,10|0,0:0|0:0,0:0:0:0:
413,55,46576,6,0,L|429:179,1,120,2|10,3:2|0:0,0:0:0:0:
375,239,47015,1,0,3:2:0:0:
304,193,47161,2,0,P|258:182|232:186,1,60,2|2,0:0|3:2,0:0:0:0:
174,228,47454,1,8,0:0:0:0:
99,265,47600,6,0,B|74:223|74:223|95:153,1,120,2|0,0:0|0:0,0:0:0:0:
118,74,48039,2,0,P|151:65|182:69,1,60,8|8,0:0|0:0,0:0:0:0:
210,92,48259,1,8,0:0:0:0:
210,92,48332,2,0,L|282:85,1,60,10|8,0:0|0:0,0:0:0:0:
336,138,48625,2,0,L|408:131,1,60,10|8,0:0|0:0,0:0:0:0:
501,83,48917,6,0,B|482:157|482:157|510:220|510:220|479:320,1,240,6|8,3:2|0:0,0:0:0:0:
322,364,49795,1,2,0:0:0:0:
189,260,50088,2,0,P|167:205|190:136,1,120,2|2,3:2|3:2,0:0:0:0:
234,82,50527,1,0,0:0:0:0:
234,82,50673,2,0,L|360:78,1,120,10|2,0:0|0:0,0:0:0:0:
257,216,51259,5,6,3:2:0:0:
141,94,51551,1,8,0:0:0:0:
91,254,51844,1,10,0:0:0:0:
257,216,52137,1,8,0:0:0:0:
97,165,52429,5,10,0:0:0:0:
204,281,52722,1,8,0:0:0:0:
257,216,52868,1,8,0:3:0:0:
257,216,52942,1,8,0:3:0:0:
257,216,53015,2,0,L|326:209,1,60,10|8,0:3|0:3,0:0:0:0:
344,289,53307,2,0,L|275:296,1,60,6|4,0:3|0:3,0:0:0:0:
238,365,53600,5,10,3:2:0:0:
238,365,53746,1,10,3:2:0:0:
124,241,54039,5,10,3:2:0:0:
216,100,54332,5,10,3:2:0:0:
216,100,54478,1,10,3:2:0:0:
207,358,55649,5,4,0:1:0:0:
207,358,55942,6,0,L|304:349,1,75,6|2,3:2|0:0,0:0:0:0:
346,298,56234,1,10,0:0:0:0:
410,351,56381,1,2,3:2:0:0:
473,297,56527,2,0,P|508:238|470:164,1,150,2|10,0:0|0:0,0:0:0:0:
402,133,56966,1,2,0:0:0:0:
402,133,57112,6,0,L|305:142,1,75,2|0,3:2|0:0,0:0:0:0:
275,75,57405,2,0,L|178:66,1,75,10|0,0:0|3:2,0:0:0:0:
118,52,57698,2,0,P|95:92|97:138,1,75,2|0,0:0|3:2,0:0:0:0:
137,189,57990,2,0,P|132:225|112:257,1,75,10|0,0:0|0:0,0:0:0:0:
54,316,58283,6,0,B|105:284|105:284|192:304,1,150,2|10,3:2|0:0,0:0:0:0:
264,344,58722,2,0,P|339:372|390:332,1,150,2|0,3:2|3:2,0:0:0:0:
427,260,59161,2,0,L|431:181,1,75,10|0,0:0|0:0,0:0:0:0:
433,102,59454,6,0,B|361:70|361:70|272:104,1,150,2|10,3:2|0:0,0:0:0:0:
232,150,59893,1,0,3:2:0:0:
232,150,60039,2,0,L|147:138,1,75,2|0,0:0|3:2,0:0:0:0:
124,217,60332,1,10,0:0:0:0:
169,294,60478,1,2,0:0:0:0:
251,307,60625,6,0,B|287:327|334:318|316:289|375:287|403:312,1,150,0|8,3:2|0:0,0:0:0:0:
467,266,61064,1,0,3:2:0:0:
467,266,61210,2,0,P|480:218|472:183,1,75,0|0,0:0|3:2,0:0:0:0:
418,134,61503,2,0,P|414:96|427:61,1,75,10|0,0:0|0:0,0:0:0:0:
353,24,61795,6,0,L|262:13,1,75,2|0,3:2|0:0,0:0:0:0:
213,65,62088,2,0,L|138:55,1,75,10|0,0:0|3:2,0:0:0:0:
69,101,62381,2,0,P|56:149|66:185,1,75,2|0,0:0|3:2,0:0:0:0:
122,227,62673,2,0,L|196:236,1,75,10|0,0:0|0:0,0:0:0:0:
283,315,62966,6,0,P|326:285|440:323,1,150,6|10,3:2|0:0,0:0:0:0:
479,243,63405,1,2,0:0:0:0:
479,243,63551,2,0,L|486:165,1,75,4|0,3:2|3:2,0:0:0:0:
404,112,63844,2,0,L|397:190,1,75,8|0,0:0|0:0,0:0:0:0:
484,67,64137,5,12,0:0:0:0:
416,19,64283,1,8,0:0:0:0:
340,49,64429,1,8,0:0:0:0:
266,87,64576,2,0,L|175:73,1,75,4|0,3:2|0:0,0:0:0:0:
164,153,64868,2,0,L|255:167,1,75,4|8,3:2|0:0,0:0:0:0:
402,182,65307,6,0,P|414:225|406:268,1,75,6|2,3:2|0:0,0:0:0:0:
368,326,65600,1,10,0:0:0:0:
299,280,65746,1,2,3:2:0:0:
226,319,65893,2,0,B|143:299|164:369|70:343,1,150,2|10,0:0|0:0,0:0:0:0:
25,287,66332,1,2,0:0:0:0:
25,287,66478,6,0,L|34:205,1,75,2|0,3:2|0:0,0:0:0:0:
86,148,66771,2,0,L|77:66,1,75,10|0,0:0|3:2,0:0:0:0:
139,17,67064,2,0,P|182:6|230:20,1,75,2|0,0:0|3:2,0:0:0:0:
266,72,67356,2,0,P|309:83|357:69,1,75,10|0,0:0|0:0,0:0:0:0:
408,33,67649,6,0,P|444:72|422:178,1,150,2|10,3:2|0:0,0:0:0:0:
382,227,68088,2,0,B|319:218|319:218|290:233|290:233|222:222,1,150,2|0,3:2|3:2,0:0:0:0:
167,269,68527,2,0,P|153:215|161:185,1,75,10|0,0:0|0:0,0:0:0:0:
188,120,68820,6,0,B|233:93|233:93|335:110,1,150,2|10,3:2|0:0,0:0:0:0:
415,124,69259,1,0,3:2:0:0:
415,124,69405,2,0,P|435:172|427:216,1,75,2|0,0:0|3:2,0:0:0:0:
381,258,69698,1,10,0:0:0:0:
428,324,69844,1,2,0:0:0:0:
356,364,69990,6,0,P|290:332|215:353,1,150,0|8,3:2|0:0,0:0:0:0:
150,302,70429,2,0,L|146:148,1,150,0|0,3:2|3:2,0:0:0:0:
142,69,70868,2,0,P|178:52|227:57,1,75,10|0,0:0|0:0,0:0:0:0:
285,92,71161,6,0,P|336:113|416:60,1,150,2|10,3:2|0:0,0:0:0:0:
479,126,71600,1,0,3:2:0:0:
479,126,71746,2,0,L|473:217,1,75,2|0,0:0|3:2,0:0:0:0:
438,275,72039,1,10,0:0:0:0:
367,232,72186,1,2,0:0:0:0:
277,286,72332,6,0,P|199:310|148:285,1,112.5,6|0,3:2|0:0,0:0:0:0:
138,277,72625,2,0,L|128:334,2,37.5,10|8|10,0:0|0:0|0:0,0:0:0:0:
187,204,72917,6,0,L|173:81,1,112.5,4|0,3:2|0:0,0:0:0:0:
194,55,73210,2,0,L|204:-2,2,37.5,8|8|8,0:0|0:0|0:0,0:0:0:0:
266,107,73503,6,0,P|310:115|349:104,1,75,12|10,0:0|0:3,0:0:0:0:
409,65,73795,1,6,0:3:0:0:
492,135,73942,2,0,L|480:234,1,75,6|0,3:2|0:0,0:0:0:0:
437,304,74234,2,0,P|376:346|277:326,1,150,6|2,3:2|0:0,0:0:0:0:
186,367,74673,6,0,B|215:327|215:327|186:214,1,150,6|10,3:2|0:0,0:0:0:0:
149,157,75112,2,0,L|169:6,1,150,2|0,3:2|3:2,0:0:0:0:
85,6,75551,2,0,L|74:81,1,75,8|0,0:0|0:0,0:0:0:0:
27,148,75844,6,0,P|0:192|24:294,1,150,2|8,3:2|0:0,0:0:0:0:
87,327,76283,2,0,L|243:305,1,150,2|0,3:2|3:2,0:0:0:0:
308,345,76722,2,0,P|356:356|393:350,1,75,10|0,0:0|0:0,0:0:0:0:
445,300,77015,6,0,B|465:208|465:208|450:135,1,150,2|10,3:2|0:0,0:0:0:0:
398,91,77454,2,0,P|348:124|246:90,1,150,2|0,3:2|3:2,0:0:0:0:
203,50,77893,1,8,0:0:0:0:
74,153,78186,6,0,L|87:307,1,150,0|10,3:2|0:0,0:0:0:0:
151,354,78625,1,0,3:2:0:0:
222,312,78771,2,0,P|244:263|243:226,1,75,2|0,0:0|3:2,0:0:0:0:
204,170,79064,2,0,L|198:87,1,75,10|0,0:0|0:0,0:0:0:0:
166,19,79356,6,0,P|115:6|27:55,1,150,2|10,3:2|0:0,0:0:0:0:
19,130,79795,1,2,3:2:0:0:
19,130,79942,2,0,L|29:208,1,75,0|0,0:0|3:2,0:0:0:0:
35,286,80234,2,0,P|86:307|131:293,1,75,8|0,0:0|0:0,0:0:0:0:
173,259,80527,6,0,B|212:233|212:233|326:255,1,150,2|8,3:2|0:0,0:0:0:0:
376,305,80966,1,2,0:0:0:0:
447,263,81112,2,0,L|454:216,3,37.5,8|8|8|8,3:2|0:0|0:0|0:0,0:0:0:0:
442,185,81405,2,0,L|449:138,3,37.5,10|8|8|8,3:2|0:0|0:0|0:0,0:0:0:0:
479,119,81698,6,0,P|434:76|319:98,1,168.750006437302,10|8,3:2|3:2,0:0:0:0:
148,257,82576,2,0,B|98:202|98:202|124:90,1,168.750006437302,8|8,3:2|3:2,0:0:0:0:
356,22,83454,1,8,3:2:0:0:
424,175,83746,1,8,0:0:0:0:
321,309,84039,6,0,P|246:274|148:293,1,168.750006437302,10|8,3:2|3:2,0:0:0:0:
54,56,84917,2,0,P|129:91|227:72,1,168.750006437302,8|8,3:2|3:2,0:0:0:0:
456,15,85795,1,8,3:2:0:0:
509,175,86088,1,8,0:0:0:0:
448,332,86381,6,0,B|383:316|383:316|349:334|349:334|278:318,1,168.750006437302,10|10,3:2|3:2,0:0:0:0:
105,144,87259,5,10,3:2:0:0:
343,58,87698,5,10,3:2:0:0:
