osu file format v14

[General]
AudioFilename: audio.mp3
AudioLeadIn: 0
PreviewTime: 53406
Countdown: 0
SampleSet: Soft
StackLeniency: 0.3
Mode: 0
LetterboxInBreaks: 0
WidescreenStoryboard: 0

[Editor]
Bookmarks: 89406
DistanceSpacing: 1
BeatDivisor: 2
GridSize: 16
TimelineZoom: 1

[Metadata]
Title:Kyou ni Koiiro
TitleUnicode:今日に恋色
Artist:May'n
ArtistUnicode:May'n
Creator:Momochikun
Version:Normal
Source:いなり、こんこん、恋いろは。
Tags:Inari konkon koi iroha livetune opening inari fushimi tv size
BeatmapID:1243576
BeatmapSetID:587275

[Difficulty]
HPDrainRate:4
CircleSize:3.5
OverallDifficulty:4
ApproachRate:5
SliderMultiplier:1.1
SliderTickRate:1

[Events]
//Background and Video events
0,0,"fushimi.jpg",0,0
Video,0,"video.flv"
//Break Periods
//Storyboard Layer 0 (Background)
//Storyboard Layer 1 (Fail)
//Storyboard Layer 2 (Pass)
//Storyboard Layer 3 (Foreground)
//Storyboard Sound Samples

[TimingPoints]
1524,352.941176470588,4,2,1,55,1,0
1524,-100,4,2,1,55,0,0
1612,-100,4,2,1,25,0,0
2935,-100,4,2,1,45,0,0
8582,-100,4,2,1,60,0,0
14229,-100,4,2,1,50,0,0
24818,-100,4,2,1,55,0,0
25523,-100,4,2,1,65,0,0
36818,-100,4,2,1,75,0,0
42465,-100,4,2,1,70,0,0
52171,-100,4,2,1,65,0,0
53406,-100,4,2,1,65,0,0
53759,-100,4,2,1,85,0,1
64700,-100,4,2,1,85,0,0
65053,-100,4,2,1,85,0,1
74759,-100,4,2,1,85,0,0
75112,-100,4,2,1,85,0,0
75641,-100,4,2,1,85,0,0
75994,-100,4,2,1,85,0,0
76347,-100,4,2,1,85,0,1
76435,-100,4,2,1,75,0,0
87288,-100,4,2,1,75,0,0
87729,-100,4,2,1,5,0,0

[Colours]
Combo1 : 255,255,128
Combo2 : 128,191,255
Combo3 : 128,255,128

[HitObjects]
256,64,1524,5,2,0:0:0:0:
256,64,2935,6,0,L|136:97,1,110,2|0,0:0|0:0,0:0:0:0:
95,80,3465,2,0,P|60:127|63:189,1,110,2|2,0:0|0:0,0:0:0:0:
83,225,3994,1,2,0:0:0:0:
178,279,4347,2,0,L|298:312,1,110,2|0,0:0|0:0,0:0:0:0:
336,323,4876,1,2,0:0:0:0:
336,323,5053,2,0,P|371:276|368:214,1,110,2|2,0:0|0:0,0:0:0:0:
272,177,5759,6,0,P|237:130|240:68,1,110,2|2,0:0|0:0,0:0:0:0:
255,29,6288,2,0,L|131:77,1,110,2|2,0:0|0:0,0:0:0:0:
106,100,6818,1,2,0:0:0:0:
60,200,7171,2,0,P|77:271|88:331,1,110,2|0,0:0|0:0,0:0:0:0:
131,335,7700,1,2,0:0:0:0:
131,335,7876,2,0,P|184:298|254:308,1,110,2|0,0:0|0:0,0:0:0:0:
315,230,8582,6,0,P|368:193|438:203,1,110,4|2,1:0|0:0,0:0:0:0:
464,210,9112,2,0,P|472:154|443:108,1,110,0|2,0:0|0:0,0:0:0:0:
404,72,9641,1,2,0:0:0:0:
297,43,9994,1,2,0:0:0:0:
297,43,10171,2,0,L|193:78,1,110,2|8,0:0|0:0,0:0:0:0:
86,107,10876,2,0,L|99:53,2,55,8|4|4,0:3|0:3|0:3,0:0:0:0:
59,155,11406,6,0,P|21:207|22:262,1,110,4|0,0:0|0:0,0:0:0:0:
45,299,11935,2,0,P|97:263|174:270,1,110,8|0,0:0|1:0,0:0:0:0:
194,277,12465,1,4,0:0:0:0:
459,348,13347,1,2,0:0:0:0:
459,348,13523,2,0,L|415:240,1,110,2|0,0:0|0:0,0:0:0:0:
447,199,14053,1,2,0:0:0:0:
469,149,14229,6,0,P|413:114|343:126,1,110,4|2,0:0|0:0,0:0:0:0:
288,40,14935,2,0,L|175:77,1,110,8|0,0:0|0:0,0:0:0:0:
131,93,15465,2,0,P|158:151|134:211,1,110,8|8,0:0|0:0,0:0:0:0:
85,284,16171,1,0,0:0:0:0:
85,284,16347,2,0,L|216:320,1,110,0|0,0:0|0:0,0:0:0:0:
294,275,17053,6,0,P|284:221|310:174,1,110,2|0,1:0|0:0,0:0:0:0:
412,132,17759,2,0,P|421:185|395:232,1,110,8|0,0:0|0:0,0:0:0:0:
393,287,18288,2,0,P|450:313|502:316,2,110,8|8|2,0:0|0:0|0:0,0:0:0:0:
339,301,19171,2,0,L|238:342,1,110,0|0,0:0|0:0,0:0:0:0:
153,270,19876,6,0,L|254:229,1,110,0|0,1:0|0:0,0:0:0:0:
357,188,20582,2,0,P|388:134|366:62,1,110,8|0,0:0|0:0,0:0:0:0:
360,37,21112,1,8,0:0:0:0:
252,11,21465,1,8,0:0:0:0:
168,82,21818,1,0,0:0:0:0:
168,82,21994,2,0,P|114:100|70:144,1,110,2|0,0:0|0:0,0:0:0:0:
27,234,22700,6,0,P|78:250|119:287,1,110,0|2,1:0|0:0,0:0:0:0:
195,367,23406,2,0,L|312:336,1,110,8|0,0:0|0:0,0:0:0:0:
355,347,23935,2,0,L|374:293,1,55,8|0,0:0|1:0,0:0:0:0:
407,190,24465,1,0,0:0:0:0:
303,154,24818,1,2,0:0:0:0:
106,54,25523,6,0,P|104:124|141:165,1,110,4|0,0:0|1:0,0:0:0:0:
164,193,26053,2,0,L|137:308,1,110,8|0,0:0|1:0,0:0:0:0:
127,354,26582,1,8,0:0:0:0:
234,377,26935,2,0,L|287:355,2,55,0|0|8,1:0|1:0|0:0,0:0:0:0:
261,270,27641,2,0,B|328:246|328:246|385:258,1,110,2|8,0:0|0:0,0:0:0:0:
467,210,28347,6,0,P|497:157|480:86,1,110,0|0,1:0|1:0,0:0:0:0:
465,61,28876,2,0,L|344:91,1,110,8|2,0:0|1:0,0:0:0:0:
306,106,29406,1,8,0:0:0:0:
210,51,29759,2,0,P|180:104|197:175,1,110,0|8,1:0|0:0,0:0:0:0:
242,244,30465,2,0,L|266:308,2,55,2|0|8,0:0|1:0|0:0,0:0:0:0:
140,287,31171,6,0,B|92:286|61:311|61:311|19:286|35:225,1,165,2|8,1:0|0:0,0:0:0:0:
55,191,31876,2,0,L|25:77,1,110,2|8,0:0|0:0,0:0:0:0:
114,17,32582,2,0,L|141:123,1,110,0|8,1:0|0:0,0:0:0:0:
234,183,33288,2,0,P|292:207|357:197,1,110,2|8,0:0|0:0,0:0:0:0:
386,176,33818,5,2,0:0:0:0:
386,176,33994,2,0,P|365:231|361:300,1,110,0|0,1:0|1:0,0:0:0:0:
370,335,34523,2,0,B|254:370|254:370|210:344,1,165,8|8,0:0|0:0,0:0:0:0:
131,276,35406,2,0,P|70:244|17:251,1,110,2|10,1:0|1:2,0:0:0:0:
107,167,36112,2,0,P|168:135|221:142,1,110,2|8,0:0|1:2,0:0:0:0:
300,196,36818,6,0,L|432:162,1,110,4|0,0:0|1:0,0:0:0:0:
449,202,37347,2,0,L|489:78,1,110,8|0,0:0|1:0,0:0:0:0:
448,54,37876,1,8,1:2:0:0:
342,22,38229,2,0,P|266:22|219:51,1,110,0|0,1:2|1:2,0:0:0:0:
180,131,38935,1,8,1:2:0:0:
86,72,39288,1,8,0:0:0:0:
31,167,39641,6,0,L|63:303,1,110,0|8,1:0|0:0,0:0:0:0:
73,326,40171,2,0,P|126:354|193:348,1,110,8|0,0:0|1:0,0:0:0:0:
222,324,40700,1,8,0:0:0:0:
311,260,41053,2,0,P|358:233|412:232,1,110,0|0,1:0|1:0,0:0:0:0:
501,166,41759,1,8,1:2:0:0:
449,68,42112,1,8,0:0:0:0:
341,42,42465,6,0,B|287:55|287:55|238:17|164:37,1,165,0|8,1:0|0:0,0:0:0:0:
95,99,43347,2,0,L|81:153,1,55,0|8,1:0|0:0,0:0:0:0:
67,205,43700,2,0,P|119:237|185:222,1,110,0|0,1:0|1:0,0:0:0:0:
215,208,44229,2,0,P|190:267|194:317,1,110,8|0,0:0|1:0,0:0:0:0:
301,329,44935,2,0,P|326:270|322:220,1,110,8|0,0:0|1:0,0:0:0:0:
283,122,45641,5,8,0:0:0:0:
365,48,45994,2,0,L|484:68,1,110,0|8,0:0|0:0,0:0:0:0:
489,118,46523,2,0,P|488:172|511:221,1,110,0|0,1:0|1:0,0:0:0:0:
479,267,47053,1,8,0:0:0:0:
380,316,47406,2,0,P|367:359|365:384,2,55,0|0|8,1:0|1:0|0:0,0:0:0:0:
361,207,48112,6,0,B|321:189|321:189|226:213,1,110,2|0,1:0|0:0,0:0:0:0:
210,235,48641,2,0,P|171:222|148:158,1,110,8|0,0:0|1:0,0:0:0:0:
186,122,49171,2,0,P|177:64|123:27,1,110,8|0,0:0|1:0,0:0:0:0:
33,61,49876,2,0,P|11:115|40:174,1,110,8|2,0:0|1:0,0:0:0:0:
92,251,50582,1,8,0:0:0:0:
194,291,50935,6,0,B|334:315,1,110,2|8,1:0|0:0,0:0:0:0:
404,350,51641,2,0,P|366:311|366:245,1,110,8|0,0:0|1:0,0:0:0:0:
380,205,52171,2,0,B|340:164|341:90|341:90|319:119|300:125,1,165,2|0,1:0|0:0,0:0:0:0:
218,175,53053,1,4,0:3:0:0:
166,79,53406,1,2,0:0:0:0:
65,123,53759,6,0,P|31:174|34:234,1,110,4|8,1:0|0:0,0:0:0:0:
137,247,54465,2,0,P|133:301|102:345,1,110,2|8,1:0|0:0,0:0:0:0:
54,374,54994,2,0,L|180:341,1,110,2|0,1:0|1:0,0:0:0:0:
214,333,55523,1,10,0:0:0:0:
302,267,55876,1,2,1:0:0:0:
237,183,56229,2,0,L|248:115,1,55,10|2,0:0|0:0,0:0:0:0:
263,76,56582,6,0,P|319:44|388:54,1,110,0|8,1:0|0:0,0:0:0:0:
466,84,57288,2,0,P|498:140|488:209,1,110,2|8,1:0|0:0,0:0:0:0:
455,220,57818,1,2,1:0:0:0:
455,220,57994,2,0,L|424:334,1,110,0|8,0:0|0:0,0:0:0:0:
325,370,58700,2,0,L|297:263,1,110,2|8,1:0|0:0,0:0:0:0:
287,156,59406,6,0,B|252:143|252:143|217:166|160:143,1,110,4|8,0:0|0:0,0:0:0:0:
136,119,59935,2,0,P|99:168|106:238,1,110,4|0,0:0|1:0,0:0:0:0:
124,262,60465,1,8,0:0:0:0:
208,332,60818,5,4,0:0:0:0:
319,316,61171,1,8,0:0:0:0:
319,316,61347,2,0,L|339:184,1,110,4|2,0:0|1:0,0:0:0:0:
369,163,61876,2,0,L|354:110,1,55,8|2,0:0|0:0,0:0:0:0:
315,72,62229,6,0,B|267:91|233:52|180:86,1,110,0|10,1:0|0:0,0:0:0:0:
100,33,62935,2,0,P|60:89|65:149,1,110,2|8,1:0|0:0,0:0:0:0:
83,177,63465,2,0,B|112:224|112:224|88:305,1,110,4|0,0:0|1:0,0:0:0:0:
80,329,63994,1,8,0:0:0:0:
181,375,64347,2,0,L|208:268,1,110,8|10,0:0|1:2,0:0:0:0:
225,216,64876,5,0,0:0:0:0:
225,216,65053,2,0,P|275:195|331:200,1,110,4|8,1:0|0:0,0:0:0:0:
438,216,65759,2,0,P|442:161|421:111,1,110,0|8,1:0|0:0,0:0:0:0:
378,76,66288,2,0,L|268:46,1,110,2|0,1:0|1:0,0:0:0:0:
217,34,66818,2,0,P|212:88|233:138,1,110,8|2,0:0|1:0,0:0:0:0:
203,244,67523,2,0,L|145:231,1,55,8|2,0:0|0:0,0:0:0:0:
95,222,67876,6,0,L|129:349,1,110,2|8,1:0|0:0,0:0:0:0:
232,346,68582,2,0,L|338:374,1,110,2|8,1:0|0:0,0:0:0:0:
393,366,69112,1,2,1:0:0:0:
393,366,69288,2,0,P|430:319|426:245,1,110,0|8,0:0|0:0,0:0:0:0:
348,201,69994,2,0,P|311:154|315:80,1,110,2|8,1:0|0:0,0:0:0:0:
344,65,70523,5,2,0:0:0:0:
344,65,70700,2,0,P|285:104|194:98,1,165,4|2,0:0|1:0,0:0:0:0:
87,71,71582,2,0,L|66:15,2,55,0|8|2,1:0|0:0|0:0,0:0:0:0:
52,114,72112,2,0,P|20:168|19:218,1,110,0|8,1:0|0:0,0:0:0:0:
52,257,72641,2,0,P|106:224|168:230,1,110,2|0,1:0|1:0,0:0:0:0:
199,251,73171,2,0,L|252:297,1,55,10|0,0:0|0:0,0:0:0:0:
283,320,73523,6,0,L|394:287,1,110,4|8,0:0|0:0,0:0:0:0:
417,182,74229,2,0,L|311:213,1,110,0|8,1:0|0:0,0:0:0:0:
257,200,74759,2,0,P|243:142|277:85,1,110,4|0,0:0|1:0,0:0:0:0:
179,26,75465,1,8,0:3:0:0:
179,26,75641,2,0,L|73:57,1,110,2|0,0:0|1:0,0:0:0:0:
40,162,76347,6,0,P|14:248|20:289,1,110,4|8,1:0|0:0,0:0:0:0:
121,236,77053,2,0,P|182:301|220:316,1,110,0|8,1:0|0:0,0:0:0:0:
251,329,77582,2,0,B|316:308|376:331|376:331|440:319,1,165,2|8,1:0|0:0,0:0:0:0:
489,245,78465,2,0,L|505:187,2,55,0|2|8,1:0|1:0|0:0,0:0:0:0:
438,223,78994,1,2,0:0:0:0:
389,198,79171,6,0,P|350:160|350:85,1,110,2|8,1:0|0:0,0:0:0:0:
257,37,79876,2,0,P|203:44|165:83,1,110,0|8,1:0|0:0,0:0:0:0:
157,138,80406,2,0,L|28:108,1,110,2|0,1:0|1:0,0:0:0:0:
13,154,80935,1,10,0:0:0:0:
96,225,81288,2,0,L|108:284,1,55,0|2,1:0|1:0,0:0:0:0:
160,293,81641,2,0,L|172:352,1,55,8|2,0:0|0:0,0:0:0:0:
224,362,81994,6,0,P|290:376|356:370,1,110,4|8,0:0|0:0,0:0:0:0:
409,295,82700,2,0,P|423:229|417:163,1,110,0|8,1:0|0:0,0:0:0:0:
394,138,83229,2,0,P|318:114|252:179,1,165,2|8,1:0|0:0,0:0:0:0:
155,206,84112,2,0,P|140:251|136:279,2,55,2|0|8,1:0|1:0|0:0,0:0:0:0:
73,132,84818,6,0,P|109:69|145:50,1,110,4|8,0:0|0:0,0:0:0:0:
190,74,85347,2,0,L|299:42,1,110,2|0,1:0|1:0,0:0:0:0:
350,34,85876,2,0,L|313:204,1,165,12|0,0:0|1:0,0:0:0:0:
299,248,86582,2,0,P|354:274|408:264,1,110,8|8,0:0|0:0,0:0:0:0:
495,209,87288,1,8,0:0:0:0:
475,100,87641,5,4,0:0:0:0:
256,192,87818,12,0,89406,0:0:0:0:
