osu file format v14

[General]
AudioFilename: audio.mp3
AudioLeadIn: 0
PreviewTime: 53406
Countdown: 0
SampleSet: Soft
StackLeniency: 0.3
Mode: 0
LetterboxInBreaks: 0
WidescreenStoryboard: 0

[Editor]
Bookmarks: 89406
DistanceSpacing: 1.2
BeatDivisor: 4
GridSize: 16
TimelineZoom: 1

[Metadata]
Title:Kyou ni Koiiro
TitleUnicode:今日に恋色
Artist:May'n
ArtistUnicode:May'n
Creator:Momochikun
Version:Insane
Source:いなり、こんこん、恋いろは。
Tags:Inari konkon koi iroha livetune opening inari fushimi tv size
BeatmapID:1243575
BeatmapSetID:587275

[Difficulty]
HPDrainRate:7
CircleSize:4
OverallDifficulty:7.7
ApproachRate:8.8
SliderMultiplier:1.6
SliderTickRate:1

[Events]
//Background and Video events
0,0,"fushimi.jpg",0,0
Video,0,"video.flv"
//Break Periods
//Storyboard Layer 0 (Background)
//Storyboard Layer 1 (Fail)
//Storyboard Layer 2 (Pass)
//Storyboard Layer 3 (Foreground)
//Storyboard Sound Samples

[TimingPoints]
1524,352.941176470588,4,2,1,55,1,0
1524,-200,4,2,1,55,0,0
1612,-200,4,2,1,25,0,0
2935,-111.111111111111,4,2,1,45,0,0
8582,-111.111111111111,4,2,1,60,0,0
14229,-105.263157894737,4,2,1,50,0,0
24818,-181.818181818182,4,2,1,55,0,0
25435,-181.818181818182,4,2,1,5,0,0
25523,-100,4,2,1,65,0,0
36288,-100,4,2,1,55,0,0
36818,-100,4,2,1,70,0,0
42465,-111.111111111111,4,2,1,65,0,0
43700,-100,4,2,1,65,0,0
52171,-166.666666666667,4,2,1,65,0,0
53406,-100,4,2,1,65,0,0
53759,-100,4,2,1,85,0,1
64700,-100,4,2,1,85,0,0
65053,-100,4,2,1,85,0,1
74759,-100,4,2,1,85,0,0
75112,-125,4,2,1,85,0,0
75641,-142.857142857143,4,2,1,85,0,0
75994,-166.666666666667,4,2,1,85,0,0
76347,-100,4,2,1,85,0,1
76435,-100,4,2,1,75,0,0
87288,-200,4,2,1,75,0,0
87729,-200,4,2,1,5,0,0

[Colours]
Combo1 : 255,255,128
Combo2 : 128,191,255
Combo3 : 128,255,128

[HitObjects]
256,256,1524,6,0,B|217:264|183:243|183:243|146:252|116:278|116:278|54:218|102:148,1,280,2|0,0:0|0:0,0:0:0:0:
185,80,2935,5,2,0:0:0:0:
272,116,3112,1,0,0:0:0:0:
335,188,3288,2,0,P|370:189|402:173,1,71.9999978027344,0|2,0:0|0:0,0:0:0:0:
372,37,3641,2,0,P|356:74|355:107,1,71.9999978027344,0|2,0:0|0:0,0:0:0:0:
461,234,3994,1,2,0:0:0:0:
508,130,4171,1,0,0:0:0:0:
335,188,4347,6,0,L|268:212,1,71.9999978027344,0|2,0:0|0:0,0:0:0:0:
189,174,4700,1,0,0:0:0:0:
347,276,4876,1,2,0:0:0:0:
347,276,5053,1,2,0:0:0:0:
267,212,5229,1,0,0:0:0:0:
190,329,5406,1,2,0:0:0:0:
121,262,5582,1,0,0:0:0:0:
23,292,5759,6,0,P|10:330|0:361,1,71.9999978027344,2|0,0:0|0:0,0:0:0:0:
121,262,6112,2,0,P|108:224|98:193,1,71.9999978027344,2|2,0:0|0:0,0:0:0:0:
59,74,6465,1,0,0:0:0:0:
198,114,6641,1,2,0:0:0:0:
59,74,6818,1,2,0:0:0:0:
150,36,6994,1,0,0:0:0:0:
98,193,7171,5,2,0:0:0:0:
246,228,7347,2,0,L|265:158,1,71.9999978027344,2|0,0:0|0:0,0:0:0:0:
128,272,7700,1,2,0:0:0:0:
285,349,7876,5,2,0:0:0:0:
320,341,7964,1,0,0:0:0:0:
348,353,8052,1,0,0:0:0:0:
379,373,8140,1,0,0:0:0:0:
414,377,8228,1,0,0:0:0:0:
448,367,8317,1,0,0:0:0:0:
466,341,8405,1,0,0:0:0:0:
468,305,8493,1,0,0:0:0:0:
452,272,8582,6,0,P|454:196|502:129,1,143.999995605469,4|2,1:0|0:0,0:0:0:0:
435,37,9112,2,0,P|385:55|357:65,1,71.9999978027344,0|2,0:0|0:0,0:0:0:0:
273,41,9465,1,2,0:0:0:0:
353,154,9641,2,0,P|403:172|431:182,1,71.9999978027344,2|0,0:0|0:0,0:0:0:0:
288,228,9994,1,2,0:0:0:0:
353,154,10171,1,2,0:0:0:0:
204,113,10347,1,0,0:0:0:0:
247,303,10523,6,0,P|306:312|375:248,1,143.999995605469,8|8,0:0|0:3,0:0:0:0:
353,154,11053,1,4,0:3:0:0:
288,228,11229,1,4,0:3:0:0:
501,278,11406,6,0,P|504:194|463:140,1,143.999995605469,4|0,0:0|0:0,0:0:0:0:
288,228,11935,2,0,P|285:312|326:366,1,143.999995605469,8|0,0:0|1:0,0:0:0:0:
465,374,12465,1,4,0:0:0:0:
465,374,13347,5,2,0:0:0:0:
452,360,13435,1,0,0:0:0:0:
440,346,13523,1,2,0:0:0:0:
365,171,13700,1,2,0:0:0:0:
510,254,13876,1,0,0:0:0:0:
459,147,14053,1,2,0:0:0:0:
452,322,14229,5,4,0:0:0:0:
452,322,14582,1,2,0:0:0:0:
373,358,14759,1,0,0:0:0:0:
256,288,14935,2,0,P|237:221|299:167,1,151.999995941162,8|0,0:0|0:0,0:0:0:0:
422,145,15465,6,0,P|416:185|405:220,1,75.9999979705811,8|0,0:0|0:0,0:0:0:0:
290,168,15818,2,0,P|278:131|273:94,1,75.9999979705811,8|0,0:0|0:0,0:0:0:0:
333,282,16171,1,0,0:0:0:0:
333,282,16259,1,8,0:0:0:0:
333,282,16347,1,0,0:0:0:0:
204,168,16523,1,8,0:0:0:0:
150,238,16700,2,0,P|186:249|225:253,1,75.9999979705811
437,360,17053,6,0,P|367:349|334:267,1,151.999995941162,2|0,1:0|0:0,0:0:0:0:
322,187,17582,1,0,0:0:0:0:
322,187,17759,2,0,P|280:197|235:208,1,75.9999979705811,8|0,0:0|0:0,0:0:0:0:
402,241,18112,1,0,0:0:0:0:
341,114,18288,6,0,L|322:187,1,75.9999979705811,8|0,0:0|0:0,0:0:0:0:
230,87,18641,2,0,L|203:12,1,75.9999979705811,8|0,0:0|0:0,0:0:0:0:
414,52,18994,1,2,0:0:0:0:
414,52,19082,1,8,0:0:0:0:
414,52,19171,1,0,0:0:0:0:
341,114,19347,5,10,0:0:0:0:
329,13,19523,1,0,0:0:0:0:
448,75,19700,1,0,1:0:0:0:
301,200,19876,1,0,1:0:0:0:
301,200,20582,2,0,P|232:172|151:185,1,151.999995941162,8|0,0:0|0:0,0:0:0:0:
73,228,21112,6,0,P|55:265|54:308,1,75.9999979705811,8|0,0:0|0:0,0:0:0:0:
132,354,21465,2,0,P|169:336|212:335,1,75.9999979705811,8|0,0:0|0:0,0:0:0:0:
307,362,21818,1,0,0:0:0:0:
307,362,21906,1,8,0:0:0:0:
307,362,21994,1,2,0:0:0:0:
363,290,22171,5,2,0:0:0:0:
445,327,22347,1,0,0:0:0:0:
495,196,22523,1,0,1:0:0:0:
420,138,22700,6,0,P|345:131|263:175,1,151.999995941162,0|2,1:0|0:0,0:0:0:0:
201,128,23229,1,0,0:0:0:0:
329,262,23406,2,0,P|254:266|175:221,1,151.999995941162,8|0,0:0|0:0,0:0:0:0:
55,189,23935,5,8,0:0:0:0:
46,176,24023,1,8,0:0:0:0:
37,163,24112,1,0,1:0:0:0:
62,77,24465,1,0,0:0:0:0:
150,98,24818,6,0,B|219:79|226:137|307:114,1,154.000004699707,2|0,0:0|0:0,0:0:0:0:
324,128,25523,6,0,L|307:220,1,80,4|0,0:0|0:0,0:0:0:0:
343,288,25876,1,0,1:0:0:0:
462,152,26053,2,0,L|447:73,1,80,8|0,0:0|0:0,0:0:0:0:
373,24,26406,1,0,1:0:0:0:
224,94,26582,1,8,0:0:0:0:
324,128,26759,5,0,0:0:0:0:
324,128,26847,1,0,1:0:0:0:
324,128,26935,1,0,1:0:0:0:
169,208,27112,1,0,1:0:0:0:
255,325,27288,2,0,P|271:288|268:237,1,80,8|0,0:0|1:0,0:0:0:0:
324,128,27641,2,0,P|284:126|247:141,1,80,2|0,0:0|1:0,0:0:0:0:
169,208,27994,1,8,0:0:0:0:
360,291,28171,5,0,1:0:0:0:
360,291,28259,1,0,1:0:0:0:
360,291,28347,2,0,P|382:258|388:219,1,80,0|0,1:0|0:0,0:0:0:0:
276,69,28700,1,0,1:0:0:0:
276,69,28876,2,0,P|253:101|247:140,1,80,8|0,0:0|0:0,0:0:0:0:
272,250,29229,1,2,1:0:0:0:
185,219,29406,1,8,0:0:0:0:
97,356,29582,5,2,0:0:0:0:
97,356,29671,1,0,1:0:0:0:
97,356,29759,1,0,1:0:0:0:
12,332,29935,1,2,1:0:0:0:
97,179,30112,2,0,L|80:98,1,80,8|0,0:0|1:0,0:0:0:0:
256,256,30465,2,0,L|239:334,1,80,2|0,0:0|1:0,0:0:0:0:
47,249,30818,1,8,0:0:0:0:
47,249,31171,6,0,P|123:256|192:181,1,160,2|0,1:0|1:0,0:0:0:0:
256,32,31700,1,8,0:0:0:0:
187,87,31876,1,2,0:0:0:0:
336,146,32053,1,0,1:0:0:0:
256,32,32229,1,8,0:0:0:0:
256,208,32406,5,0,1:0:0:0:
256,208,32494,1,0,1:0:0:0:
256,208,32582,1,0,1:0:0:0:
334,58,32759,1,2,1:0:0:0:
154,112,32935,2,0,P|133:149|139:207,1,80,8|0,0:0|1:0,0:0:0:0:
255,319,33288,2,0,P|276:282|270:224,1,80,2|0,0:0|1:0,0:0:0:0:
240,157,33641,1,8,0:0:0:0:
154,112,33818,1,2,0:0:0:0:
110,298,33994,6,0,P|172:335|255:320,1,160,0|0,1:0|1:0,0:0:0:0:
350,202,34523,2,0,P|308:211|267:222,1,80,8|0,0:0|0:0,0:0:0:0:
217,126,34876,1,0,1:0:0:0:
314,78,35053,2,0,P|352:67|391:59,1,80,8|0,0:0|0:0,0:0:0:0:
391,59,35318,1,8,0:0:0:0:
399,67,35406,1,2,1:0:0:0:
507,159,35582,5,0,1:0:0:0:
413,227,35759,2,0,P|401:188|391:149,1,80,10|0,1:2|0:0,0:0:0:0:
256,16,36112,2,0,P|243:55|234:94,1,80,2|4,0:0|1:2,0:0:0:0:
413,227,36465,1,8,1:2:0:0:
375,62,36641,1,4,1:0:0:0:
256,192,36818,6,0,P|221:241|205:316,1,120,4|0,0:0|0:0,0:0:0:0:
219,323,37171,1,0,1:0:0:0:
164,132,37347,1,8,1:2:0:0:
256,192,37523,1,0,1:0:0:0:
113,234,37700,1,0,1:0:0:0:
230,86,37876,1,8,1:2:0:0:
77,129,38053,5,8,0:2:0:0:
77,129,38141,1,8,0:0:0:0:
77,129,38229,1,0,1:0:0:0:
168,243,38406,2,0,P|208:230|256:221,1,80,8|0,1:2|1:2,0:0:0:0:
354,258,38759,1,0,1:0:0:0:
381,130,38935,2,0,P|341:143|293:152,1,80,8|0,1:2|1:2,0:0:0:0:
196,103,39288,1,8,0:0:0:0:
121,198,39465,5,8,0:0:0:0:
97,183,39553,1,0,1:0:0:0:
71,172,39641,1,0,1:0:0:0:
227,225,39818,1,0,0:0:0:0:
196,103,39994,1,8,0:0:0:0:
227,225,40171,2,0,L|251:314,1,80,8|0,1:2|1:0,0:0:0:0:
382,176,40523,2,0,L|402:98,1,80,0|8,1:0|1:2,0:0:0:0:
256,32,40876,5,0,1:0:0:0:
256,32,40965,1,8,0:0:0:0:
256,32,41053,1,0,1:0:0:0:
293,130,41229,1,8,1:2:0:0:
192,99,41406,1,0,1:0:0:0:
332,54,41582,1,0,0:0:0:0:
228,184,41759,5,8,1:2:0:0:
168,27,41935,1,0,1:0:0:0:
324,142,42112,1,8,1:2:0:0:
140,224,42288,1,0,1:0:0:0:
256,319,42465,6,0,P|339:276|409:286,1,143.999995605469,0|0,1:0|1:0,0:0:0:0:
228,184,42994,2,0,P|145:141|75:151,1,143.999995605469,8|0,0:0|1:0,0:0:0:0:
135,260,43523,1,8,0:0:0:0:
284,250,43700,6,0,P|307:222|316:165,2,80,0|0|0,1:0|0:0|1:0,0:0:0:0:
275,96,44229,2,0,P|314:89|361:78,1,80,8|0,0:0|0:0,0:0:0:0:
469,216,44582,1,0,1:0:0:0:
353,79,44759,1,0,1:0:0:0:
284,250,44935,1,8,0:0:0:0:
444,115,45112,1,0,0:0:0:0:
279,150,45288,6,0,P|238:143|197:130,1,80,0|0,1:0|0:0,0:0:0:0:
284,250,45641,2,0,P|321:235|360:229,1,80,8|8,0:0|0:0,0:0:0:0:
498,193,45994,1,0,0:0:0:0:
444,115,46171,1,0,1:0:0:0:
356,83,46347,2,0,L|274:106,1,80,8|0,0:0|1:0,0:0:0:0:
253,136,46612,5,0,1:0:0:0:
253,136,46700,1,0,1:0:0:0:
337,185,46876,1,0,1:0:0:0:
203,49,47053,2,0,L|125:27,1,80,8|0,0:0|0:0,0:0:0:0:
163,173,47406,1,0,1:0:0:0:
203,49,47582,1,0,1:0:0:0:
91,111,47759,2,0,P|41:131|-3:150,1,80,8|0,0:0|0:0,0:0:0:0:
256,320,48112,6,0,P|297:342|337:344,1,80,2|0,1:0|0:0,0:0:0:0:
402,294,48465,1,0,0:0:0:0:
244,176,48641,2,0,P|199:142|156:134,1,80,8|0,0:0|0:0,0:0:0:0:
91,111,48994,1,0,1:0:0:0:
328,55,49171,2,0,P|375:29|419:29,1,80,8|0,0:0|1:0,0:0:0:0:
400,26,49435,1,0,1:0:0:0:
400,26,49523,1,0,1:0:0:0:
399,135,49700,5,0,1:0:0:0:
269,254,49876,2,0,P|258:215|255:175,1,80,8|0,0:0|0:0,0:0:0:0:
396,239,50229,2,0,P|393:278|382:317,1,80,2|0,1:0|1:0,0:0:0:0:
171,230,50582,2,0,P|160:191|157:151,1,80,8|0,0:0|0:0,0:0:0:0:
283,18,50935,6,0,P|268:94|254:182,1,160,2|8,1:0|0:0,0:0:0:0:
171,230,51465,1,0,0:0:0:0:
256,320,51641,1,8,0:0:0:0:
284,327,51729,1,8,0:0:0:0:
313,335,51817,1,8,0:0:0:0:
342,343,51905,1,0,1:0:0:0:
371,350,51993,1,0,1:0:0:0:
458,177,52171,6,0,P|424:160|381:164,1,71.9999978027344,2|0,1:0|0:0,0:0:0:0:
369,170,52523,2,0,L|387:114,1,47.9999985351563,2|0,0:0|0:0,0:0:0:0:
405,48,52876,1,2,0:0:0:0:
342,246,53053,2,0,L|312:337,1,95.9999970703126,4|2,0:3|0:0,0:0:0:0:
327,351,53494,5,0,0:0:0:0:
327,351,53582,1,0,0:0:0:0:
327,351,53671,1,0,0:0:0:0:
327,351,53759,2,0,P|257:371|185:306,1,160,4|8,1:0|0:0,0:0:0:0:
185,129,54288,5,0,0:0:0:0:
268,291,54465,1,2,1:0:0:0:
112,236,54641,1,0,1:0:0:0:
280,191,54818,1,8,0:0:0:0:
58,298,54994,6,0,P|31:262|32:211,1,80,2|0,1:0|0:0,0:0:0:0:
90,102,55347,1,0,1:0:0:0:
214,46,55523,2,0,L|193:123,1,80,10|0,0:0|0:0,0:0:0:0:
193,124,55788,1,8,0:0:0:0:
193,124,55876,1,2,1:0:0:0:
90,102,56053,1,0,1:0:0:0:
233,265,56229,1,10,0:0:0:0:
40,307,56406,1,2,0:0:0:0:
90,102,56582,6,0,L|115:206,1,80,0|0,1:0|0:0,0:0:0:0:
233,265,56935,2,0,P|296:274|353:223,1,120,8|0,0:0|0:0,0:0:0:0:
365,217,57288,2,0,L|383:139,1,80,2|0,1:0|1:0,0:0:0:0:
302,56,57641,1,8,0:0:0:0:
256,160,57818,5,2,1:0:0:0:
168,101,57994,2,0,P|128:86|90:87,1,80,0|0,0:0|1:0,0:0:0:0:
219,265,58347,2,0,P|259:280|297:279,1,80,8|0,0:0|0:0,0:0:0:0:
363,99,58700,2,0,P|337:135|332:182,1,80,2|0,1:0|1:0,0:0:0:0:
440,318,59053,2,0,P|434:277|409:245,1,80,8|2,0:0|0:0,0:0:0:0:
435,61,59406,6,0,P|481:50|519:41,1,80,4|0,0:0|0:0,0:0:0:0:
481,176,59759,1,8,0:0:0:0:
245,136,59935,2,0,P|226:60|284:9,1,160,4|0,0:0|1:0,0:0:0:0:
341,208,60465,2,0,P|327:247|311:298,1,80,8|0,0:0|0:0,0:0:0:0:
316,284,60729,1,8,0:0:0:0:
316,284,60818,1,4,0:0:0:0:
330,95,60994,5,0,1:0:0:0:
421,137,61171,1,8,0:0:0:0:
221,309,61347,2,0,B|170:294|110:325|110:325|76:315|66:290,1,160,4|2,0:0|1:0,0:0:0:0:
183,104,61876,1,8,0:0:0:0:
258,177,62053,1,2,0:0:0:0:
147,273,62229,6,0,L|64:304,1,80,0|0,1:0|0:0,0:0:0:0:
183,104,62582,2,0,L|257:76,1,80,8|0,0:0|0:0,0:0:0:0:
105,64,62935,1,2,1:0:0:0:
258,177,63112,1,0,1:0:0:0:
72,300,63288,1,8,0:0:0:0:
257,76,63465,6,0,B|332:32|416:61,1,160,4|0,0:0|1:0,0:0:0:0:
186,152,63994,2,0,P|142:144|101:131,1,80,8|0,0:0|1:0,0:0:0:0:
310,252,64347,2,0,P|350:238|390:229,1,80,8|0,0:0|1:0,0:0:0:0:
157,336,64700,1,10,1:2:0:0:
125,335,64788,1,0,0:0:0:0:
94,340,64876,1,0,0:0:0:0:
64,350,64964,1,0,0:0:0:0:
36,365,65053,6,0,P|16:327|19:273,1,80,4|0,1:0|0:0,0:0:0:0:
140,52,65406,2,0,P|160:90|157:144,1,80,8|0,0:0|0:0,0:0:0:0:
116,258,65759,1,0,1:0:0:0:
59,114,65935,1,0,1:0:0:0:
240,154,66112,1,8,0:0:0:0:
188,285,66288,6,0,B|137:303|137:303|89:290|89:290|23:314,1,160,2|0,1:0|1:0,0:0:0:0:
201,371,66818,2,0,L|281:341,1,80,8|0,0:0|0:0,0:0:0:0:
276,343,67082,1,8,0:0:0:0:
276,343,67171,1,2,1:0:0:0:
408,276,67347,1,0,1:0:0:0:
328,242,67523,1,8,0:0:0:0:
428,367,67700,1,2,0:0:0:0:
370,126,67876,6,0,P|289:155|248:226,1,160,2|8,1:0|0:0,0:0:0:0:
343,279,68406,1,0,0:0:0:0:
245,307,68582,2,0,P|205:318|167:329,1,80,2|0,1:0|1:0,0:0:0:0:
61,290,68935,1,8,0:0:0:0:
130,149,69112,5,2,1:0:0:0:
130,149,69288,2,0,L|153:227,1,80,0|0,0:0|1:0,0:0:0:0:
224,384,69641,2,0,L|246:307,1,80,8|0,0:0|0:0,0:0:0:0:
61,290,69994,1,2,1:0:0:0:
254,222,70171,1,0,1:0:0:0:
135,316,70347,1,8,0:0:0:0:
313,358,70523,1,2,0:0:0:0:
152,225,70700,6,0,P|139:160|205:102,1,160,4|8,0:0|0:0,0:0:0:0:
321,268,71229,2,0,P|280:278|243:288,1,80,2|0,1:0|0:0,0:0:0:0:
303,137,71582,2,0,P|344:127|381:117,1,80,0|8,1:0|0:0,0:0:0:0:
256,48,71935,1,2,0:0:0:0:
144,133,72112,6,0,P|155:175|170:211,2,80,0|0|8,1:0|0:0|0:0,0:0:0:0:
336,218,72641,2,0,P|325:260|310:296,1,80,2|0,1:0|0:0,0:0:0:0:
169,208,72994,1,0,1:0:0:0:
236,331,73171,1,10,0:0:0:0:
256,353,73259,1,0,0:0:0:0:
281,368,73347,1,0,0:0:0:0:
310,376,73435,1,0,0:0:0:0:
340,375,73523,6,0,P|383:371|415:337,1,80,4|0,0:0|0:0,0:0:0:0:
351,215,73876,2,0,P|332:180|333:135,1,80,8|0,0:0|0:0,0:0:0:0:
474,69,74229,1,0,1:0:0:0:
378,50,74406,1,0,1:0:0:0:
494,180,74582,1,8,0:0:0:0:
351,215,74759,6,0,P|291:198|214:172,1,120,4|0,0:0|0:0,0:0:0:0:
165,151,75112,2,0,P|126:95|142:31,1,128,0|8,1:0|0:3,0:0:0:0:
351,215,75641,6,0,P|346:268|319:297,1,83.9999974365235,2|0,0:0|0:0,0:0:0:0:
301,327,75994,2,0,P|339:307|374:307,1,71.9999978027344,0|0,1:0|0:0,0:0:0:0:
367,305,76347,6,0,B|311:276|277:324|196:279,1,160,4|8,1:0|0:0,0:0:0:0:
104,137,76876,1,0,0:0:0:0:
24,184,77053,2,0,P|34:228|51:282,1,80,0|2,1:0|1:0,0:0:0:0:
104,137,77406,1,8,0:0:0:0:
256,192,77582,6,0,P|325:210|403:164,1,160,2|0,1:0|1:0,0:0:0:0:
508,240,78112,2,0,L|417:267,1,80,8|2,0:0|0:0,0:0:0:0:
432,263,78376,1,0,1:0:0:0:
432,263,78465,1,0,1:0:0:0:
477,164,78641,1,2,1:0:0:0:
325,287,78818,1,8,0:0:0:0:
395,343,78994,1,2,0:0:0:0:
223,196,79171,6,0,P|163:241|148:343,1,160,0|8,1:0|0:0,0:0:0:0:
305,147,79700,2,0,P|294:101|293:48,1,80,2|0,0:0|1:0,0:0:0:0:
464,206,80053,2,0,P|459:248|448:283,1,80,2|8,1:0|0:0,0:0:0:0:
223,196,80406,6,0,P|294:228|380:207,1,160,2|0,1:0|1:0,0:0:0:0:
305,147,80935,1,10,0:0:0:0:
447,283,81112,1,0,0:0:0:0:
404,114,81288,1,0,1:0:0:0:
256,272,81465,1,2,1:0:0:0:
226,286,81553,1,0,0:0:0:0:
193,287,81641,1,8,0:0:0:0:
160,280,81729,1,0,0:0:0:0:
128,267,81817,1,2,0:0:0:0:
95,272,81906,1,0,0:0:0:0:
66,288,81994,6,0,L|46:370,1,80,4|0,0:0|0:0,0:0:0:0:
228,205,82347,2,0,L|209:127,1,80,8|0,0:0|0:0,0:0:0:0:
296,82,82700,1,0,1:0:0:0:
228,205,82877,1,0,1:0:0:0:
360,263,83053,1,8,0:0:0:0:
164,343,83229,6,0,B|130:353|130:353|108:344|108:344|46:356|10:306,1,160,2|0,1:0|1:0,0:0:0:0:
62,220,83759,2,0,P|111:237|145:239,1,80,8|0,0:0|0:0,0:0:0:0:
214,169,84112,1,2,1:0:0:0:
214,169,84288,1,0,1:0:0:0:
271,359,84465,2,0,P|266:319|251:282,1,80,8|0,0:0|0:0,0:0:0:0:
128,86,84818,6,0,B|153:162|153:162|128:200|138:239,1,160,4|8,0:0|0:0,0:0:0:0:
326,255,85347,2,0,P|281:271|223:291,1,80,2|0,1:0|0:0,0:0:0:0:
123,317,85700,1,0,1:0:0:0:
257,375,85876,6,0,P|335:370|400:318,1,160,12|0,0:0|0:0,0:0:0:0:
469,191,86406,1,0,1:0:0:0:
374,83,86582,1,8,0:0:0:0:
374,247,86759,1,0,1:0:0:0:
467,49,86935,5,8,0:0:0:0:
281,131,87112,1,0,1:0:0:0:
480,277,87288,2,0,L|505:357,1,80,8|4,0:0|0:0,0:0:0:0:
256,192,87729,12,0,89406,0:0:0:0:
