osu file format v14

[General]
AudioFilename: audio.mp3
AudioLeadIn: 0
PreviewTime: 53406
Countdown: 0
SampleSet: Soft
StackLeniency: 0.3
Mode: 0
LetterboxInBreaks: 0
WidescreenStoryboard: 0

[Editor]
Bookmarks: 89406
DistanceSpacing: 1.2
BeatDivisor: 4
GridSize: 16
TimelineZoom: 1

[Metadata]
Title:Kyou ni Koiiro
TitleUnicode:今日に恋色
Artist:May'n
ArtistUnicode:May'n
Creator:Momochikun
Version:Hard
Source:いなり、こんこん、恋いろは。
Tags:Inari konkon koi iroha livetune opening inari fushimi tv size
BeatmapID:1243574
BeatmapSetID:587275

[Difficulty]
HPDrainRate:6
CircleSize:4
OverallDifficulty:6
ApproachRate:7.7
SliderMultiplier:1.4
SliderTickRate:1

[Events]
//Background and Video events
0,0,"fushimi.jpg",0,0
Video,0,"video.flv"
//Break Periods
//Storyboard Layer 0 (Background)
//Storyboard Layer 1 (Fail)
//Storyboard Layer 2 (Pass)
//Storyboard Layer 3 (Foreground)
//Storyboard Sound Samples

[TimingPoints]
1524,352.941176470588,4,2,1,55,1,0
1524,-200,4,2,1,55,0,0
1612,-200,4,2,1,25,0,0
2935,-111.111111111111,4,2,1,45,0,0
8582,-100,4,2,1,60,0,0
14229,-100,4,2,1,50,0,0
24818,-181.818181818182,4,2,1,55,0,0
25523,-100,4,2,1,65,0,0
36818,-100,4,2,1,75,0,0
42465,-100,4,2,1,70,0,0
52171,-125,4,2,1,65,0,0
53406,-100,4,2,1,65,0,0
53759,-100,4,2,1,85,0,1
64700,-100,4,2,1,85,0,0
65053,-100,4,2,1,85,0,1
74759,-100,4,2,1,85,0,0
75112,-125,4,2,1,85,0,0
75641,-142.857142857143,4,2,1,85,0,0
75994,-166.666666666667,4,2,1,85,0,0
76347,-100,4,2,1,85,0,1
76435,-100,4,2,1,75,0,0
87288,-200,4,2,1,75,0,0
87729,-200,4,2,1,5,0,0

[Colours]
Combo1 : 255,255,128
Combo2 : 128,191,255
Combo3 : 128,255,128

[HitObjects]
256,112,1524,6,0,B|223:149|223:149|163:115|94:141|94:141|122:211,1,245,2|0,0:0|0:0,0:0:0:0:
177,261,2935,6,0,P|167:307|161:338,2,62.9999980773926,2|0|0,0:0|0:0|0:0,0:0:0:0:
249,221,3465,1,2,0:0:0:0:
300,284,3641,2,0,P|331:297|365:297,1,62.9999980773926,0|2,0:0|0:0,0:0:0:0:
428,252,3994,1,2,0:0:0:0:
428,252,4171,1,0,0:0:0:0:
455,175,4347,6,0,P|445:145|426:120,1,62.9999980773926,2|0,0:0|0:0,0:0:0:0:
355,79,4700,2,0,L|294:96,1,62.9999980773926,0|2,0:0|0:0,0:0:0:0:
225,50,5053,2,0,L|164:67,2,62.9999980773926,2|0|2,0:0|0:0|0:0,0:0:0:0:
221,139,5582,5,0,0:0:0:0:
221,139,5759,2,0,L|200:202,1,62.9999980773926,2|0,0:0|0:0,0:0:0:0:
140,254,6112,1,2,0:0:0:0:
229,305,6288,1,2,0:0:0:0:
229,305,6465,2,0,P|260:318|301:312,1,62.9999980773926,0|2,0:0|0:0,0:0:0:0:
350,247,6818,2,0,P|381:234|422:240,1,62.9999980773926,2|0,0:0|0:0,0:0:0:0:
471,289,7171,5,2,0:0:0:0:
503,196,7347,2,0,P|499:163|470:132,1,62.9999980773926,2|0,0:0|0:0,0:0:0:0:
425,79,7700,1,2,0:0:0:0:
338,112,7876,2,0,L|291:98,3,31.4999990386963,2|0|0|0,0:0|0:0|0:0|0:0,0:0:0:0:
270,120,8229,2,0,L|223:106,3,31.4999990386963,0|0|0|0,0:0|0:0|0:0|0:0,0:0:0:0:
200,97,8582,6,0,P|144:139|149:216,1,140,4|2,1:0|0:0,0:0:0:0:
248,309,9112,2,0,L|230:234,1,70,0|2,0:0|0:0,0:0:0:0:
231,240,9465,1,2,0:0:0:0:
345,185,9641,2,0,L|328:253,2,70,2|0|2,0:0|0:0|0:0,0:0:0:0:
427,203,10171,5,2,0:0:0:0:
467,276,10347,1,0,0:0:0:0:
372,332,10523,2,0,B|322:349|322:349|288:343|288:343|233:366,1,140,8|8,0:0|0:3,0:0:0:0:
137,378,11053,2,0,P|115:351|109:317,1,70,4|4,0:3|0:3,0:0:0:0:
189,258,11406,6,0,P|231:208|224:136,1,140,4|0,0:0|0:0,0:0:0:0:
108,88,11935,2,0,P|66:138|73:210,1,140,8|0,0:0|1:0,0:0:0:0:
109,317,12465,1,4,0:0:0:0:
109,317,13347,6,0,L|124:370,2,35,2|0|2,0:0|0:0|0:0,0:0:0:0:
162,252,13700,1,2,0:0:0:0:
208,182,13876,2,0,L|224:108,1,70,0|2,0:0|0:0,0:0:0:0:
177,41,14229,6,0,P|239:78|322:69,1,140,4|2,0:0|0:0,0:0:0:0:
388,59,14759,1,0,0:0:0:0:
442,125,14935,2,0,P|446:195|391:256,1,140,8|0,0:0|0:0,0:0:0:0:
329,293,15465,6,0,P|289:279|248:279,1,70,8|0,0:0|0:0,0:0:0:0:
182,305,15818,2,0,P|159:275|156:237,1,70,8|0,0:0|0:0,0:0:0:0:
177,162,16171,1,0,0:0:0:0:
177,162,16259,1,8,0:0:0:0:
177,162,16347,1,0,0:0:0:0:
234,102,16523,1,8,0:0:0:0:
314,77,16700,2,0,L|397:97,1,70,0|0,0:0|0:0,0:0:0:0:
454,50,17053,6,0,P|412:97|409:190,1,140,2|0,1:0|0:0,0:0:0:0:
476,212,17582,1,0,0:0:0:0:
476,212,17759,2,0,P|403:202|336:255,1,140,8|0,0:0|0:0,0:0:0:0:
303,306,18288,6,0,P|235:332|152:313,1,140,8|8,0:0|0:0,0:0:0:0:
54,199,18994,1,2,0:0:0:0:
54,199,19082,1,8,0:0:0:0:
54,199,19171,1,0,0:0:0:0:
91,124,19347,2,0,L|72:57,2,70,10|0|0,0:0|0:0|1:0,0:0:0:0:
170,152,19876,6,0,P|237:178|304:172,1,140,0|0,1:0|0:0,0:0:0:0:
418,49,20582,2,0,P|348:43|284:69,1,140,8|0,0:0|0:0,0:0:0:0:
208,107,21112,6,0,P|171:105|139:90,1,70,8|0,0:0|0:0,0:0:0:0:
69,133,21465,2,0,P|70:178|93:212,1,70,8|0,0:0|0:0,0:0:0:0:
128,269,21818,2,0,L|118:315,2,35,0|8|2,0:0|0:0|0:0,0:0:0:0:
203,232,22171,1,2,0:0:0:0:
203,232,22347,2,0,P|241:218|277:220,1,70,0|0,0:0|1:0,0:0:0:0:
309,141,22700,6,0,P|320:229|359:267,1,140,0|2,1:0|0:0,0:0:0:0:
414,323,23229,1,0,0:0:0:0:
434,233,23406,2,0,P|359:263|325:317,1,140,8|0,0:0|0:0,0:0:0:0:
263,366,23935,5,8,0:0:0:0:
263,366,24023,1,8,0:0:0:0:
263,366,24112,1,0,1:0:0:0:
182,333,24465,1,0,0:0:0:0:
148,256,24818,2,0,B|129:183|199:165|199:165|183:181|180:205,1,154.000004699707,2|4,0:0|0:0,0:0:0:0:
83,342,25876,5,0,1:0:0:0:
158,378,26053,2,0,P|242:339|295:341,1,140,8|0,0:0|1:0,0:0:0:0:
368,316,26582,2,0,L|353:241,1,70,8|0,0:0|0:0,0:0:0:0:
461,142,26935,6,0,L|447:210,1,70,0|0,1:0|1:0,0:0:0:0:
354,247,27288,2,0,P|303:258|222:213,1,140,8|2,0:0|0:0,0:0:0:0:
202,129,27818,1,0,1:0:0:0:
283,95,27994,2,0,P|301:129|299:171,1,70,8|0,0:0|1:0,0:0:0:0:
227,220,28347,6,0,B|178:235|178:235|140:226|140:226|82:246,1,140,0|0,1:0|1:0,0:0:0:0:
33,303,28876,2,0,P|59:245|42:165,1,140,8|2,0:0|1:0,0:0:0:0:
11,94,29406,1,8,0:0:0:0:
77,41,29582,6,0,P|115:38|158:60,1,70,2|0,0:0|1:0,0:0:0:0:
211,99,29935,1,2,1:0:0:0:
258,168,30112,2,0,P|296:167|337:142,1,70,8|0,0:0|1:0,0:0:0:0:
393,104,30465,1,2,0:0:0:0:
475,117,30641,1,0,1:0:0:0:
512,194,30818,1,8,0:0:0:0:
362,285,31171,6,0,P|275:296|222:343,1,140,2|0,1:0|1:0,0:0:0:0:
159,364,31700,1,8,0:0:0:0:
103,301,31876,2,0,P|85:265|89:223,1,70,2|0,0:0|1:0,0:0:0:0:
200,121,32229,2,0,P|218:157|214:199,1,70,8|0,0:0|1:0,0:0:0:0:
179,278,32582,5,0,1:0:0:0:
85,235,32759,1,2,1:0:0:0:
137,162,32935,2,0,P|72:131|-9:153,2,140,8|2|8,0:0|0:0|0:0,0:0:0:0:
182,233,33818,1,2,0:0:0:0:
256,304,33994,6,0,P|308:322|363:315,1,105,0|0,1:0|0:0,0:0:0:0:
390,340,34347,2,0,L|416:261,1,70,0|8,1:0|0:0,0:0:0:0:
473,216,34700,2,0,L|436:140,1,70,0|0,0:0|1:0,0:0:0:0:
422,65,35053,1,8,0:0:0:0:
376,139,35229,5,0,1:0:0:0:
376,139,35318,1,0,1:0:0:0:
376,139,35406,2,0,P|409:154|449:150,1,70,2|0,1:0|1:0,0:0:0:0:
302,82,35759,2,0,P|249:124|243:193,1,140,10|2,1:2|0:0,0:0:0:0:
300,253,36288,1,4,1:2:0:0:
388,218,36465,2,0,L|373:294,1,70,8|4,1:2|1:0,0:0:0:0:
256,352,36818,6,0,B|165:322|165:322|112:344,1,140,4|0,0:0|1:0,0:0:0:0:
173,228,37347,2,0,L|84:262,1,70,8|0,0:0|1:0,0:0:0:0:
40,202,37700,1,0,1:0:0:0:
101,144,37876,2,0,P|117:111|106:65,1,70,8|0,1:2|1:0,0:0:0:0:
228,31,38229,6,0,P|212:64|223:110,1,70,0|8,1:2|1:2,0:0:0:0:
265,164,38582,2,0,P|336:138|406:150,1,140,0|8,1:2|1:2,0:0:0:0:
459,205,39112,1,0,0:0:0:0:
459,205,39288,2,0,P|474:240|471:284,1,70,8|8,0:0|0:0,0:0:0:0:
399,315,39641,6,0,L|325:333,1,70,0|0,1:0|0:0,0:0:0:0:
257,372,39994,1,8,0:0:0:0:
208,280,40171,2,0,P|137:254|67:266,1,140,8|0,0:0|1:0,0:0:0:0:
19,326,40700,5,8,0:0:0:0:
19,326,40876,2,0,P|48:250|39:178,1,140,0|8,1:0|1:2,0:0:0:0:
12,113,41406,2,0,L|26:31,1,70,0|0,1:0|0:0,0:0:0:0:
136,15,41759,2,0,L|124:84,1,70,8|0,1:2|1:0,0:0:0:0:
157,161,42112,1,8,0:0:0:0:
231,121,42288,1,0,1:0:0:0:
300,201,42465,6,0,P|362:232|438:226,1,140,0|0,1:0|1:0,0:0:0:0:
459,127,42994,2,0,P|397:96|321:102,1,140,8|0,0:0|1:0,0:0:0:0:
231,121,43523,1,8,0:0:0:0:
300,201,43700,6,0,P|353:267|349:337,1,140,0|0,1:0|1:0,0:0:0:0:
236,384,44229,2,0,P|183:318|187:248,1,140,8|0,0:0|1:0,0:0:0:0:
206,186,44759,1,0,1:0:0:0:
134,142,44935,1,8,0:0:0:0:
90,214,45112,1,0,0:0:0:0:
16,173,45288,6,0,L|50:36,1,140,0|8,1:0|0:0,0:0:0:0:
131,15,45818,1,8,0:0:0:0:
183,80,45994,2,0,P|248:80|319:48,1,140,0|8,0:0|0:0,0:0:0:0:
409,87,46523,5,0,1:0:0:0:
409,87,46612,1,0,1:0:0:0:
409,87,46700,2,0,P|387:133|381:171,1,70,0|0,1:0|1:0,0:0:0:0:
409,231,47053,1,8,0:0:0:0:
485,195,47229,1,0,0:0:0:0:
409,231,47406,2,0,P|424:279|437:315,1,70,0|0,1:0|1:0,0:0:0:0:
462,375,47759,1,8,0:0:0:0:
296,347,48112,6,0,P|203:321|142:317,1,140,2|0,1:0|0:0,0:0:0:0:
42,255,48641,2,0,P|85:243|114:231,1,70,8|0,0:0|0:0,0:0:0:0:
108,233,48994,1,0,1:0:0:0:
55,130,49171,6,0,P|148:156|208:160,1,140,8|0,0:0|1:0,0:0:0:0:
257,107,49700,1,0,1:0:0:0:
319,192,49876,2,0,L|306:264,1,70,8|0,0:0|0:0,0:0:0:0:
205,318,50229,2,0,L|217:249,1,70,2|0,1:0|1:0,0:0:0:0:
356,167,50582,2,0,L|343:239,1,70,8|0,0:0|0:0,0:0:0:0:
217,342,50935,6,0,P|149:356|81:322,1,140,2|8,1:0|0:0,0:0:0:0:
40,154,51641,2,0,L|26:108,4,35,8|8|8|0|0,0:0|0:0|0:0|1:0|1:0,0:0:0:0:
128,176,52171,6,0,B|183:186|202:155|257:174,1,112,2|2,1:0|0:0,0:0:0:0:
362,223,52700,2,0,P|336:214|318:194,1,56,0|2,0:0|0:0,0:0:0:0:
263,69,53053,2,0,P|269:125|238:169,1,112,4|2,0:3|0:0,0:0:0:0:
158,260,53582,5,0,0:0:0:0:
170,245,53671,1,0,0:0:0:0:
185,235,53759,2,0,P|252:206|328:193,1,140,4|8,1:0|0:0,0:0:0:0:
390,138,54288,1,0,0:0:0:0:
474,173,54465,2,0,P|491:199|493:241,1,70,2|0,1:0|1:0,0:0:0:0:
422,294,54818,1,8,0:0:0:0:
317,193,54994,6,0,P|255:170|172:186,1,140,2|0,1:0|1:0,0:0:0:0:
150,108,55523,2,0,P|147:181|100:243,1,140,10|2,0:0|1:0,0:0:0:0:
24,266,56053,1,0,1:0:0:0:
42,177,56229,1,10,0:0:0:0:
110,234,56406,1,2,0:0:0:0:
21,353,56582,6,0,L|1:276,1,70,0|0,1:0|0:0,0:0:0:0:
155,324,56935,2,0,P|223:332|285:302,1,140,8|2,0:0|1:0,0:0:0:0:
310,223,57465,1,0,1:0:0:0:
236,151,57641,2,0,P|219:184|219:226,1,70,8|2,0:0|1:0,0:0:0:0:
327,292,57994,6,0,L|304:197,1,70,0|0,0:0|1:0,0:0:0:0:
405,210,58347,2,0,L|382:115,1,70,8|0,0:0|0:0,0:0:0:0:
313,101,58700,2,0,P|281:87|242:88,1,70,2|0,1:0|1:0,0:0:0:0:
150,202,59053,2,0,P|182:216|221:219,1,70,8|2,0:0|0:0,0:0:0:0:
163,88,59406,6,0,P|102:58|16:68,1,140,4|8,0:0|0:0,0:0:0:0:
150,202,59935,2,0,P|211:232|297:222,1,140,4|0,0:0|1:0,0:0:0:0:
392,194,60465,2,0,P|413:231|414:268,1,70,8|0,0:0|0:0,0:0:0:0:
393,291,60729,5,8,0:0:0:0:
393,291,60818,2,0,L|322:314,1,70,4|0,0:0|1:0,0:0:0:0:
256,368,61171,1,8,0:0:0:0:
170,276,61347,2,0,P|158:216|207:158,1,140,4|2,0:0|1:0,0:0:0:0:
311,139,61876,1,8,0:0:0:0:
272,221,62053,1,2,0:0:0:0:
246,79,62229,6,0,P|289:45|382:57,1,140,0|10,1:0|0:0,0:0:0:0:
446,100,62759,1,0,0:0:0:0:
400,178,62935,2,0,P|383:235|376:262,1,70,2|0,1:0|1:0,0:0:0:0:
436,317,63288,1,8,0:0:0:0:
323,369,63465,6,0,B|266:381|234:341|185:353,1,140,4|0,0:0|1:0,0:0:0:0:
93,326,63994,2,0,P|75:292|78:255,1,70,8|0,0:0|1:0,0:0:0:0:
169,173,64347,2,0,P|187:207|184:244,1,70,8|0,0:0|1:0,0:0:0:0:
107,104,64700,2,0,P|140:83|177:80,1,70,10|0,1:2|0:0,0:0:0:0:
295,191,65053,6,0,P|230:206|161:163,1,140,4|8,1:0|0:0,0:0:0:0:
241,118,65582,1,0,0:0:0:0:
295,191,65759,2,0,P|285:227|266:278,1,70,0|0,1:0|1:0,0:0:0:0:
202,309,66112,1,8,0:0:0:0:
327,346,66288,6,0,B|377:333|420:362|420:362|445:342|441:316,1,140,2|0,1:0|1:0,0:0:0:0:
406,239,66818,2,0,P|382:198|388:127,1,105,8|8,0:0|0:0,0:0:0:0:
347,116,67171,2,0,P|382:86|425:85,1,70,2|0,1:0|1:0,0:0:0:0:
262,143,67523,2,0,P|239:116|234:73,1,70,8|2,0:0|0:0,0:0:0:0:
224,227,67876,6,0,P|149:256|82:244,2,140,2|8|2,1:0|0:0|1:0,0:0:0:0:
312,186,68759,1,0,1:0:0:0:
245,315,68935,2,0,P|286:294|316:289,1,70,8|2,0:0|1:0,0:0:0:0:
425,311,69288,6,0,L|399:239,1,70,0|0,0:0|1:0,0:0:0:0:
274,167,69641,2,0,P|275:254|319:295,1,140,8|2,0:0|1:0,0:0:0:0:
401,245,70171,1,0,1:0:0:0:
284,352,70347,2,0,P|289:316|309:289,1,70,8|2,0:0|0:0,0:0:0:0:
468,229,70700,6,0,L|323:272,1,140,4|8,0:0|0:0,0:0:0:0:
367,168,71229,2,0,L|222:211,1,140,2|0,1:0|1:0,0:0:0:0:
145,234,71759,1,8,0:0:0:0:
204,302,71935,1,2,0:0:0:0:
78,339,72112,6,0,P|23:289|26:222,1,140,0|8,1:0|0:0,0:0:0:0:
90,122,72641,2,0,P|145:172|142:239,1,140,2|0,1:0|1:0,0:0:0:0:
78,339,73171,2,0,L|97:380,3,35,10|0|0|0,0:0|0:0|0:0|0:0,0:0:0:0:
137,375,73523,6,0,B|184:383|223:351|223:351|257:352|279:379,1,140,4|8,0:0|0:0,0:0:0:0:
359,378,74053,1,0,0:0:0:0:
327,292,74229,2,0,P|365:273|405:270,1,70,0|0,1:0|1:0,0:0:0:0:
476,303,74582,1,8,0:0:0:0:
458,199,74759,6,0,P|403:171|323:177,1,140,4|0,0:0|1:0,0:0:0:0:
167,284,75465,1,8,0:3:0:0:
136,205,75641,2,0,P|138:156|182:108,1,97.9999970092774,2|0,0:0|1:0,0:0:0:0:
166,117,76347,6,0,P|107:127|48:66,2,140,4|8|0,1:0|0:0|1:0,0:0:0:0:
244,86,77229,2,0,L|319:101,1,70,2|8,1:0|0:0,0:0:0:0:
382,53,77582,6,0,P|342:110|345:186,1,140,2|0,1:0|1:0,0:0:0:0:
402,237,78112,2,0,P|387:292|381:320,1,70,8|2,0:0|0:0,0:0:0:0:
318,356,78465,2,0,P|275:375|241:373,1,70,0|2,1:0|1:0,0:0:0:0:
172,348,78818,1,8,0:0:0:0:
116,284,78994,1,2,0:0:0:0:
140,203,79171,6,0,P|211:157|288:155,1,140,2|8,1:0|0:0,0:0:0:0:
428,113,79876,2,0,L|405:35,1,70,0|2,1:0|1:0,0:0:0:0:
503,53,80229,1,8,0:0:0:0:
483,177,80406,6,0,P|448:270|453:332,1,140,2|0,1:0|1:0,0:0:0:0:
381,359,80935,2,0,P|346:351|311:340,1,70,10|0,0:0|0:0,0:0:0:0:
239,299,81288,1,0,1:0:0:0:
330,224,81465,1,2,1:0:0:0:
330,224,81553,1,0,0:0:0:0:
330,224,81641,2,0,L|306:168,3,35,8|0|2|0,0:0|0:0|0:0|0:0,0:0:0:0:
310,149,81994,6,0,P|368:111|448:109,1,140,4|8,0:0|0:0,0:0:0:0:
298,11,82700,1,0,1:0:0:0:
237,68,82876,1,0,1:0:0:0:
161,43,83053,1,8,0:0:0:0:
81,16,83229,6,0,P|75:89|130:138,1,140,2|0,1:0|1:0,0:0:0:0:
65,229,83759,2,0,P|127:265|204:251,1,140,8|2,0:0|1:0,0:0:0:0:
283,245,84288,1,0,1:0:0:0:
351,184,84465,2,0,P|367:152|370:111,1,70,8|0,0:0|0:0,0:0:0:0:
283,245,84818,6,0,L|300:312,1,70,4|0,0:0|0:0,0:0:0:0:
348,382,85171,1,8,0:0:0:0:
411,287,85347,2,0,P|434:206|459:147,1,140,2|0,1:0|1:0,0:0:0:0:
495,71,85876,6,0,P|451:114|367:116,1,140,12|0,0:0|0:0,0:0:0:0:
309,66,86406,1,0,1:0:0:0:
240,113,86582,2,0,P|252:164|270:191,1,70,8|0,0:0|1:0,0:0:0:0:
361,285,86935,2,0,P|376:253|381:219,1,70,8|0,0:0|1:0,0:0:0:0:
248,274,87288,6,0,L|268:340,1,70,8|4,0:0|0:0,0:0:0:0:
256,192,87729,12,0,89406,0:0:0:0:
