osu file format v14

[General]
AudioFilename: audio.mp3
AudioLeadIn: 0
PreviewTime: 131603
Countdown: 0
SampleSet: Soft
StackLeniency: 0.7
Mode: 0
LetterboxInBreaks: 0
WidescreenStoryboard: 1

[Editor]
DistanceSpacing: 1.8
BeatDivisor: 3
GridSize: 32
TimelineZoom: 1.6

[Metadata]
Title:Chase the world
TitleUnicode:Chase the world
Artist:May'n
ArtistUnicode:May'n
Creator:niii_san
Version:Normal
Source:アクセル・ワールド
Tags:Accel World maot - ex - -_ex_- nisan anime japanese pop j-pop op opening
BeatmapID:3525132
BeatmapSetID:1724125

[Difficulty]
HPDrainRate:4
CircleSize:3
OverallDifficulty:4
ApproachRate:5
SliderMultiplier:1.2
SliderTickRate:1

[Events]
//Background and Video events
0,0,"bg.jpg",0,0
//Break Periods
2,152097,154580
//Storyboard Layer 0 (Background)
//Storyboard Layer 1 (Fail)
//Storyboard Layer 2 (Pass)
//Storyboard Layer 3 (Foreground)
//Storyboard Layer 4 (Overlay)
//Storyboard Sound Samples

[TimingPoints]
839,352.941176470588,4,2,1,65,1,0
15309,-100,4,2,1,65,0,0
17780,-100,4,2,1,65,0,0
62780,-100,4,1,1,75,0,0
62956,-100,4,1,1,75,0,1
82721,-100,4,2,1,65,0,0
84133,-100,4,2,1,65,0,0
131956,-100,4,1,1,75,0,0
132133,-100,4,1,1,75,0,1
151897,-100,4,2,1,65,0,0
155956,-100,4,2,1,75,0,0
167427,-100,4,2,1,75,0,0
178721,-100,4,2,1,65,0,0
187191,-100,4,2,1,65,0,0
189838,-100,4,1,1,75,0,0
190015,-100,4,1,1,75,0,1
209780,-100,4,2,1,65,0,0
210838,-100,4,2,1,65,0,0
211191,-100,4,2,1,65,0,0
216133,-100,4,2,1,65,0,0

[Colours]
Combo1 : 17,254,176
Combo2 : 173,255,95
Combo3 : 255,88,100
Combo4 : 255,94,55

[HitObjects]
55,128,1721,6,0,L|37:198,2,60,2|2|2,0:0|0:0|0:0,0:0:0:0:
104,78,2250,2,0,B|204:28|291:111,1,180,2|2,1:2|0:0,0:0:0:0:
344,191,3133,2,0,L|326:269,2,60,2|2|2,0:0|0:0|0:0,0:0:0:0:
386,148,3662,2,0,B|424:66|424:66|354:6,1,180,2|2,0:0|0:0,0:0:0:0:
272,94,4544,6,0,L|194:104,1,60,2|2,0:0|0:0,0:0:0:0:
173,147,4897,1,2,0:0:0:0:
173,147,5074,2,0,B|127:207|174:285,1,120,2|2,0:0|0:0,0:0:0:0:
259,329,5780,2,0,B|305:269|258:191,1,120,2|2,0:0|0:0,0:0:0:0:
173,147,6486,2,0,L|63:161,2,90,2|2|2,0:0|0:0|0:0,0:0:0:0:
271,78,7368,6,0,L|349:88,1,60,2|2,0:0|0:0,0:0:0:0:
391,109,7721,1,2,0:0:0:0:
391,109,7897,2,0,B|398:166|373:217,1,90,2|2,0:0|0:0,0:0:0:0:
329,272,8427,2,0,L|345:343,1,60,2|0,0:0|0:0,0:0:0:0:
450,382,8956,1,2,0:0:0:0:
508,277,9309,1,2,0:0:0:0:
256,192,9397,12,2,10721,0:0:0:0:
508,277,12133,6,0,B|449:232|374:240,1,120,0|8,1:0|0:0,0:0:0:0:
294,301,12838,1,0,1:0:0:0:
181,258,13191,2,0,L|193:184,1,60,8|0,0:0|0:0,0:0:0:0:
236,160,13544,2,0,B|252:101|252:101|206:51,1,120,0|8,1:2|0:0,0:0:0:0:
96,91,14250,1,0,1:0:0:0:
72,208,14603,2,0,L|60:277,1,60,8|0,0:0|0:0,0:0:0:0:
78,325,14956,2,0,B|145:339|219:372,1,120,0|8,1:2|0:0,0:0:0:0:
302,312,15662,1,0,1:2:0:0:
207,237,16015,1,8,0:0:0:0:
268,134,16368,6,0,B|330:138|356:205,1,120,2|2,1:2|1:2,0:0:0:0:
302,312,17074,1,2,1:2:0:0:
402,378,17427,2,0,L|459:354,1,60,2|0,1:2|0:2,0:2:0:0:
463,294,17780,6,0,B|494:234|481:155,1,120,4|8,1:0|0:0,0:0:0:0:
411,81,18486,2,0,B|343:90|268:105,1,120,0|8,1:2|0:0,0:0:0:0:
182,51,19191,2,0,L|165:119,1,60,0|0,1:2|0:0,0:0:0:0:
115,139,19544,2,0,B|140:213|157:279,1,120,8|0,0:0|1:2,0:0:0:0:
189,367,20250,2,0,L|258:357,1,60,8|0,0:0|0:0,0:0:0:0:
307,368,20603,6,0,B|341:307|336:227,2,120,0|8|0,1:2|0:0|1:2,0:0:0:0:
239,268,21662,1,8,0:0:0:0:
298,163,22015,2,0,B|357:126|429:166,1,120,0|8,1:2|0:0,0:0:0:0:
499,241,22721,2,0,L|485:312,1,60,0|0,1:0|0:0,0:0:0:0:
458,352,23074,2,0,L|387:337,1,60,8|0,0:0|0:0,0:0:0:0:
340,329,23427,5,0,1:0:0:0:
226,364,23780,1,8,0:0:0:0:
156,266,24133,1,0,1:0:0:0:
228,170,24486,1,8,0:0:0:0:
342,207,24838,2,0,B|367:143|324:83,1,120,0|8,1:0|0:0,0:0:0:0:
228,28,25544,2,0,B|161:36|87:54,1,120,0|8,1:2|0:0,0:0:0:0:
5,109,26250,6,0,B|13:165|49:196|106:192,1,120,0|8,1:2|0:0,0:0:0:0:
196,162,26956,1,0,1:2:0:0:
264,260,27309,1,8,0:0:0:0:
380,229,27662,2,0,B|409:175|409:175|387:114,1,120,0|8,1:2|0:0,0:0:0:0:
278,73,28368,1,0,1:2:0:0:
196,162,28721,2,0,L|184:238,1,60,8|0,0:0|0:0,0:0:0:0:
155,272,29074,6,0,B|94:291|36:246,1,120,0|8,1:2|0:0,0:0:0:0:
0,137,29780,1,0,1:2:0:0:
86,54,30133,1,8,0:0:0:0:
130,166,30486,2,0,B|188:155|210:153|268:151,1,120,0|8,1:2|0:0,0:0:0:0:
346,81,31191,2,0,B|401:127|364:213,1,120,0|8,1:2|0:0,0:0:0:0:
405,306,31897,6,0,B|355:303|322:291|292:241,1,120,0|8,1:2|0:0,0:0:0:0:
249,152,32603,1,0,1:0:0:0:
138,199,32956,1,8,0:0:0:0:
28,148,33309,2,0,B|-3:197|-3:197|19:269,1,120,0|8,1:2|0:0,0:0:0:0:
121,312,34015,1,0,1:2:0:0:
229,261,34368,2,0,L|299:271,1,60,8|0,0:0|0:0,0:0:0:0:
337,304,34721,6,0,B|375:242|360:179,2,120,0|8|0,1:0|0:0|1:2,0:0:0:0:
231,361,35780,1,8,0:0:0:0:
121,312,36133,2,0,B|82:257|107:197,1,120,0|8,1:2|0:0,0:0:0:0:
175,100,36838,1,0,1:2:0:0:
293,81,37191,1,8,0:0:0:0:
399,137,37544,2,0,B|426:193|426:193|397:257,1,120,0|8,1:2|0:0,0:0:0:0:
376,300,38074,2,0,B|323:309|297:315|256:330,1,120,2|2,0:0|0:0,0:0:0:0:
200,315,38603,1,8,0:0:0:0:
101,382,38956,5,2,1:1:0:0:
10,303,39309,1,10,0:1:0:0:
89,212,39662,1,2,1:1:0:0:
180,291,40015,1,2,1:1:0:0:
290,243,40368,6,0,B|320:182|289:123,1,120,4|8,1:0|0:0,0:0:0:0:
251,82,40897,1,2,0:0:0:0:
151,25,41250,1,2,0:0:0:0:
151,25,41427,2,0,L|85:41,1,60,8|0,0:0|0:0,0:0:0:0:
32,44,41780,2,0,B|2:105|33:164,1,120,0|8,1:0|0:0,0:0:0:0:
66,207,42309,1,2,0:0:0:0:
179,244,42662,2,0,L|197:176,1,60,2|8,0:0|0:0,0:0:0:0:
224,69,43191,6,0,B|259:7|342:18,1,120,6|10,1:1|0:0,0:1:0:0:
384,10,43721,2,2,B|439:48|435:128,1,120,2|2,0:1|0:0,0:1:0:0:
492,132,44250,2,0,L|474:197,1,60,10|0,0:0|0:0,0:0:0:0:
455,246,44603,2,0,B|402:287|324:270,1,120,2|8,1:2|0:0,0:0:0:0:
226,238,45309,1,0,1:2:0:0:
146,328,45662,1,8,0:0:0:0:
29,297,46015,6,2,B|5:241|25:178,1,120,2|8,1:1|0:0,0:1:0:0:
97,83,46721,2,2,B|156:67|156:67|213:100,1,120,2|8,1:1|0:0,0:1:0:0:
300,172,47427,2,2,B|350:201|350:201|409:185,1,120,2|8,1:1|0:0,0:1:0:0:
511,121,48133,1,0,1:2:0:0:
453,15,48486,2,0,L|387:24,1,60,8|0,0:0|0:0,0:0:0:0:
336,5,48838,6,0,B|286:50|306:136,1,120,0|8,1:2|0:0,0:0:0:0:
385,201,49544,2,0,B|401:265|351:310,1,120,0|8,1:2|0:0,0:0:0:0:
251,375,50250,1,0,1:2:0:0:
160,296,50603,1,8,0:0:0:0:
41,280,50956,2,0,L|52:214,1,60,0|0,1:2|0:0,0:0:0:0:
16,171,51309,2,0,L|5:105,1,60,8|0,0:0|0:0,0:0:0:0:
31,57,51662,6,0,B|65:0|150:22,1,120,4|8,1:0|0:0,0:0:0:0:
195,29,52191,1,2,0:0:0:0:
279,114,52544,1,2,0:0:0:0:
279,114,52721,2,0,L|263:179,1,60,8|0,0:0|0:0,0:0:0:0:
236,225,53074,2,0,B|296:233|370:257,1,120,0|8,1:0|0:0,0:0:0:0:
410,269,53603,1,2,0:0:0:0:
511,205,53956,2,0,L|509:137,1,60,2|8,0:0|0:0,0:0:0:0:
466,32,54486,6,0,B|398:10|361:69,2,120,4|8|0,1:0|0:0|1:2,0:0:0:0:
509,145,55544,2,0,L|511:205,1,60,10|0,0:1|0:0,0:0:0:0:
489,261,55897,2,0,B|427:248|354:245,1,120,2|8,1:1|0:0,0:1:0:0:
319,278,56427,2,0,B|246:267|217:202|236:143,1,180,2|10,0:1|0:1,0:1:0:0:
320,60,57309,1,0,1:0:0:0:
256,192,57397,12,2,58721,1:1:0:0:
320,60,59427,6,0,B|341:118|341:118|305:175,1,120,2|8,1:0|0:0,0:0:0:0:
189,171,60133,2,0,B|157:220|157:220|178:278,1,120,2|8,1:1|0:0,0:0:0:0:
259,366,60838,1,0,1:2:0:0:
368,317,61191,2,0,L|354:251,1,60,8|0,0:0|0:0,0:0:0:0:
343,199,61544,1,0,1:2:0:0:
83,139,62956,6,0,B|90:216|172:228,1,120,6|8,0:0|0:0,0:0:0:0:
212,241,63486,1,2,0:0:0:0:
305,316,63838,2,0,L|344:269,1,60,2|10,0:0|0:0,0:0:0:0:
409,272,64191,1,2,0:0:0:0:
409,272,64368,2,0,B|441:211|402:146,1,120,6|8,0:0|0:0,0:0:0:0:
362,117,64897,1,2,0:0:0:0:
297,15,65250,6,0,L|232:24,1,60,2|10,0:0|0:0,0:0:0:0:
181,22,65603,1,0,0:0:0:0:
181,22,65780,2,0,B|151:74|151:74|173:136,1,120,6|10,0:0|0:0,0:0:0:0:
274,192,66486,2,0,B|294:248|294:248|264:300,1,120,2|10,0:0|0:0,0:0:0:0:
172,377,67191,2,2,B|53:398|29:287,1,180,6|0,0:0|0:0,0:0:0:0:
10,180,68074,5,2,0:0:0:0:
10,180,68250,2,0,L|27:114,1,60,10|2,0:0|0:0,0:0:0:0:
77,92,68603,2,0,L|53:1,2,90,6|2|2,0:0|0:0|0:0,0:0:0:0:
132,114,69309,1,2,0:0:0:0:
220,194,69662,1,10,0:0:0:0:
300,106,70015,1,6,0:0:0:0:
440,217,70544,5,2,0:0:0:0:
440,217,70721,2,0,L|427:280,1,60,2|2,0:0|0:0,0:0:0:0:
398,328,71074,2,0,L|335:315,1,60,10|0,0:0|0:0,0:0:0:0:
283,338,71427,2,2,B|228:298|253:232,1,120,6|8,0:0|0:0,0:0:0:0:
286,183,71956,1,2,0:0:0:0:
286,183,72133,2,2,B|311:117|256:77,1,120,6|8,0:0|0:0,0:0:0:0:
210,47,72662,1,2,0:0:0:0:
210,47,72838,2,2,L|84:72,1,120,6|8,0:0|0:0,0:0:0:0:
5,228,73721,5,2,0:0:0:0:
5,228,73897,2,0,B|22:289,1,60,10|2,0:0|0:0,0:0:0:0:
46,340,74250,2,0,B|109:368|161:331,1,120,14|8,0:0|0:0,0:0:0:0:
211,300,74780,1,2,0:0:0:0:
319,351,75133,2,0,L|380:341,1,60,2|10,0:0|0:0,0:0:0:0:
438,337,75486,1,2,0:0:0:0:
438,337,75662,2,0,B|456:280|456:280|425:226,1,120,6|8,0:0|0:0,0:0:0:0:
388,180,76191,1,2,0:0:0:0:
268,186,76544,6,0,L|254:119,1,60,2|10,0:0|0:0,0:0:0:0:
248,72,76897,1,2,0:0:0:0:
248,72,77074,1,6,0:0:0:0:
344,0,77427,1,10,0:0:0:0:
442,69,77780,1,2,0:0:0:0:
406,183,78133,1,10,0:0:0:0:
286,183,78486,6,0,B|218:194|184:260,1,120,6|8,0:0|0:0,0:0:0:0:
112,340,79191,1,4,0:0:0:0:
112,340,79368,2,0,L|50:321,1,60,2|10,0:0|0:0,0:0:0:0:
10,290,79721,1,2,0:0:0:0:
10,290,79897,2,0,B|-6:225|31:171,1,120,6|8,0:0|0:0,0:0:0:0:
66,128,80427,2,0,L|134:136,1,60,2|2,0:0|0:0,0:0:0:0:
228,72,80956,2,0,B|302:94|289:171,1,120,10|2,0:0|0:0,0:0:0:0:
256,192,81397,12,2,82721,0:0:0:0:
72,83,84133,6,0,B|100:148|187:153,1,120,0|8,1:0|0:0,0:0:0:0:
278,112,84838,1,0,1:2:0:0:
360,199,85191,1,8,0:0:0:0:
478,180,85544,2,0,B|515:127|479:68,1,120,0|0,1:2|1:2,0:0:0:0:
364,28,86250,1,0,1:2:0:0:
278,112,86603,2,0,L|266:177,1,60,0|0,1:2|0:0,0:0:0:0:
253,229,86956,6,0,B|207:281|130:260,1,120,4|8,1:0|0:0,0:0:0:0:
24,279,87662,2,0,B|-2:222|-2:222|33:167,1,120,0|8,1:2|0:0,0:0:0:0:
120,95,88368,2,0,L|185:105,1,60,0|0,1:2|0:0,0:0:0:0:
238,113,88721,2,0,B|258:171|228:239,1,120,8|0,0:0|1:2,0:0:0:0:
166,331,89427,2,0,L|228:351,1,60,8|0,0:0|0:0,0:0:0:0:
282,339,89780,6,0,B|350:324|409:320,2,120,0|8|0,1:2|0:0|1:2,0:0:0:0:
231,230,90838,1,8,0:0:0:0:
342,186,91191,2,0,B|362:130|362:130|334:73,1,120,0|8,1:2|0:0,0:0:0:0:
233,21,91897,2,0,L|170:34,1,60,0|0,1:0|0:0,0:0:0:0:
133,67,92250,2,0,L|70:54,1,60,8|0,0:0|0:0,0:0:0:0:
18,34,92603,5,0,1:0:0:0:
4,152,92956,1,8,0:0:0:0:
88,237,93309,1,0,1:0:0:0:
209,228,93662,1,8,0:0:0:0:
272,125,94015,2,0,B|334:132|398:148,1,120,0|8,1:0|0:0,0:0:0:0:
496,201,94721,2,0,B|512:270|468:331,1,120,0|8,1:2|0:0,0:0:0:0:
371,373,95427,6,0,B|309:366|252:351,1,120,0|8,1:2|0:0,0:0:0:0:
152,285,96133,1,0,1:2:0:0:
183,170,96486,1,8,0:0:0:0:
301,163,96838,2,0,B|344:210|344:210|335:284,1,120,0|8,1:2|0:0,0:0:0:0:
252,351,97544,1,0,1:2:0:0:
152,285,97897,2,0,L|91:303,1,60,8|0,0:0|0:0,0:0:0:0:
35,316,98250,6,0,B|0:264|8:190,1,120,0|8,1:2|0:0,0:0:0:0:
56,92,98956,1,0,1:2:0:0:
150,166,99309,1,8,0:0:0:0:
240,86,99662,2,0,B|305:90|348:96|370:99,2,120,0|8|0,1:2|0:0|1:2,0:0:0:0:
145,11,100721,1,8,0:0:0:0:
56,92,101074,6,0,B|46:157|78:214,1,120,0|8,1:2|0:0,0:0:0:0:
156,297,101780,1,0,1:0:0:0:
274,316,102133,1,8,0:0:0:0:
384,267,102486,2,0,B|405:210|405:210|380:154,1,120,0|8,1:2|0:0,0:0:0:0:
299,67,103191,1,0,1:2:0:0:
216,153,103544,2,0,L|156:140,1,60,8|0,0:0|0:0,0:0:0:0:
98,125,103897,6,0,B|74:180|74:180|108:264,2,120,0|8|0,1:0|0:0|1:2,0:0:0:0:
182,39,104956,1,8,0:0:0:0:
216,153,105309,2,0,B|287:142|312:140|343:138,1,120,0|8,1:2|0:0,0:0:0:0:
432,68,106015,2,0,B|479:119|456:197,1,120,0|8,1:2|0:0,0:0:0:0:
505,291,106721,2,0,B|454:338|376:315,1,120,0|8,1:2|0:0,0:0:0:0:
338,343,107250,2,0,B|302:293|302:293|321:235,1,120,2|2,0:0|0:0,0:0:0:0:
339,180,107780,1,8,0:0:0:0:
256,93,108133,5,2,1:1:0:0:
146,142,108486,1,10,0:1:0:0:
195,252,108838,1,2,1:1:0:0:
305,203,109191,1,2,1:1:0:0:
412,255,109544,6,0,B|440:201|428:139,1,120,4|8,1:0|0:0,0:0:0:0:
411,80,110074,1,2,0:0:0:0:
316,6,110427,1,2,0:0:0:0:
316,6,110603,2,0,L|235:18,1,60,8|0,0:0|0:0,0:0:0:0:
200,36,110956,2,0,B|181:101|217:169,1,120,0|8,1:0|0:0,0:0:0:0:
255,192,111486,1,2,0:0:0:0:
333,282,111838,2,0,L|311:349,1,60,2|8,0:0|0:0,0:0:0:0:
202,382,112368,6,0,B|147:368|72:358,1,120,6|10,1:1|0:0,0:1:0:0:
24,369,112897,2,2,B|-4:313|-4:313|22:259,1,120,2|0,0:1|0:0,0:1:0:0:
60,215,113427,2,0,L|125:226,1,60,10|0,0:0|0:0,0:0:0:0:
177,240,113780,2,0,B|260:241|258:146,1,120,2|8,1:2|0:0,0:0:0:0:
246,49,114486,1,0,1:2:0:0:
129,23,114838,1,8,0:0:0:0:
68,126,115191,6,2,B|40:186|72:256,1,120,2|8,1:1|0:0,0:1:0:0:
137,339,115897,2,2,B|201:347|264:364,1,120,2|8,1:1|0:0,0:1:0:0:
374,370,116603,2,2,B|390:306|396:252,1,120,2|8,1:1|0:0,0:1:0:0:
328,153,117309,1,0,1:2:0:0:
393,52,117662,2,0,L|455:63,1,60,8|0,0:0|0:0,0:0:0:0:
508,84,118015,6,0,B|531:147|502:211,1,120,0|8,1:2|0:0,0:0:0:0:
396,253,118721,2,0,B|339:239|269:232,1,120,0|8,1:2|0:0,0:0:0:0:
170,286,119427,2,0,B|124:239|144:176,1,120,0|8,1:2|0:0,0:0:0:0:
245,109,120133,2,0,L|258:42,1,60,0|0,1:2|0:0,0:0:0:0:
218,3,120486,2,0,L|152:11,1,60,8|0,0:0|0:0,0:0:0:0:
99,21,120838,6,0,B|19:16|0:127,1,120,4|8,1:0|0:0,0:0:0:0:
1,146,121368,1,2,0:0:0:0:
68,251,121721,1,2,0:0:0:0:
68,251,121897,2,0,L|126:264,1,60,8|0,0:0|0:0,0:0:0:0:
185,276,122250,2,0,B|229:228|206:157,1,120,0|8,1:0|0:0,0:0:0:0:
181,109,122780,1,2,0:0:0:0:
267,25,123133,2,0,L|338:35,1,60,2|8,0:0|0:0,0:0:0:0:
430,93,123662,6,0,B|475:154|408:224,2,120,4|8|0,1:0|0:0|1:2,0:0:0:0:
326,33,124721,2,0,L|267:25,1,60,10|0,0:1|0:0,0:0:0:0:
207,16,125074,2,0,B|170:63|170:63|188:128,1,120,2|8,1:1|0:0,0:1:0:0:
222,168,125603,2,0,B|294:252|214:339,1,180,2|10,0:1|0:1,0:1:0:0:
111,378,126486,1,0,1:0:0:0:
256,192,126574,12,2,127897,1:1:0:0:
476,150,128603,6,0,B|476:222|384:222,1,120,2|8,1:0|0:0,0:0:0:0:
292,280,129309,2,0,B|248:233|248:233|259:177,1,120,2|8,1:1|0:0,0:0:0:0:
357,109,130015,1,0,1:2:0:0:
397,221,130368,2,0,L|414:280,1,60,8|0,0:0|0:0,0:0:0:0:
430,336,130721,1,0,1:2:0:0:
430,336,132133,6,0,B|384:383|298:360,1,120,6|8,0:0|0:0,0:0:0:0:
263,340,132662,1,2,0:0:0:0:
173,259,133015,2,0,L|186:196,1,60,2|10,0:0|0:0,0:0:0:0:
243,185,133368,1,2,0:0:0:0:
243,185,133544,2,0,B|269:128|269:128|244:73,1,120,6|8,0:0|0:0,0:0:0:0:
210,25,134074,1,2,0:0:0:0:
90,9,134427,6,0,L|77:67,1,60,2|10,0:0|0:0,0:0:0:0:
34,108,134780,1,0,0:0:0:0:
34,108,134956,2,0,B|-10:167|55:240,1,120,6|10,0:0|0:0,0:0:0:0:
108,316,135662,2,0,B|166:305|240:295,1,120,2|10,0:0|0:0,0:0:0:0:
333,352,136368,2,2,B|400:264|331:188,1,180,6|0,0:0|0:0,0:0:0:0:
222,153,137250,5,2,0:0:0:0:
222,153,137427,2,0,L|232:88,1,60,10|2,0:0|0:0,0:0:0:0:
275,52,137780,2,0,B|359:62|387:69,2,90,6|2|2,0:0|0:0|0:0,0:0:0:0:
238,4,138486,1,2,0:0:0:0:
137,69,138838,1,10,0:0:0:0:
168,185,139191,1,6,0:0:0:0:
350,163,139721,5,2,0:0:0:0:
350,163,139897,2,0,L|337:230,1,60,2|2,0:0|0:0,0:0:0:0:
374,269,140250,2,0,L|361:336,1,60,10|0,0:0|0:0,0:0:0:0:
324,374,140603,2,2,B|267:361|194:355,1,120,6|8,0:0|0:0,0:0:0:0:
155,333,141133,1,2,0:0:0:0:
155,333,141309,2,2,B|112:279|150:222,1,120,6|8,0:0|0:0,0:0:0:0:
199,187,141838,1,2,0:0:0:0:
199,187,142015,2,2,B|237:130|194:76,1,120,6|8,0:0|0:0,0:0:0:0:
26,10,142897,5,2,0:0:0:0:
26,10,143074,2,0,L|8:79,1,60,10|2,0:0|0:0,0:0:0:0:
12,128,143427,2,0,B|25:199|110:202,1,120,14|8,0:0|0:0,0:0:0:0:
155,205,143956,1,2,0:0:0:0:
252,134,144309,2,0,L|320:146,1,60,2|10,0:0|0:0,0:0:0:0:
369,156,144662,1,2,0:0:0:0:
369,156,144838,2,0,B|392:212|392:212|358:287,1,120,6|8,0:0|0:0,0:0:0:0:
342,321,145368,1,2,0:0:0:0:
240,384,145721,6,0,L|164:367,1,60,2|10,0:0|0:0,0:0:0:0:
127,360,146074,1,2,0:0:0:0:
127,360,146250,1,6,0:0:0:0:
68,255,146603,1,10,0:0:0:0:
129,151,146956,1,2,0:0:0:0:
249,151,147309,1,10,0:0:0:0:
308,254,147662,6,0,B|360:223|440:205,1,120,6|8,0:0|0:0,0:0:0:0:
510,130,148368,1,4,0:0:0:0:
510,130,148544,2,0,L|495:67,1,60,2|10,0:0|0:0,0:0:0:0:
478,14,148897,1,2,0:0:0:0:
478,14,149074,2,0,B|400:-1|372:77,1,120,6|8,0:0|0:0,0:0:0:0:
349,113,149603,2,0,L|283:103,1,60,2|2,0:0|0:0,0:0:0:0:
172,132,150133,2,0,B|129:184|165:257,1,120,10|2,0:0|0:0,0:0:0:0:
256,192,150574,12,2,151897,0:0:0:0:
338,340,155780,5,0,3:0:0:0:
243,268,156133,2,2,B|226:197|265:152,1,120,2|8,1:0|0:0,0:1:0:0:
322,135,156662,1,0,0:0:0:0:
322,135,156838,2,0,B|340:77|340:77|299:29,1,120,0|8,1:2|0:0,0:0:0:0:
184,2,157544,2,2,B|100:-1|80:76,1,120,2|8,1:1|0:0,0:1:0:0:
30,69,158074,1,2,0:0:0:0:
30,69,158250,2,0,B|-4:132|40:190,1,120,0|8,1:0|0:0,0:0:0:0:
75,295,158956,6,2,B|143:308|196:333,1,120,2|8,1:1|0:0,0:1:0:0:
300,379,159662,2,0,B|351:328|314:265,1,120,0|8,1:2|0:0,0:0:0:0:
209,215,160368,2,0,L|226:152,1,60,2|0,1:1|0:0,0:0:0:0:
275,124,160721,2,0,L|258:61,1,60,10|0,0:1|0:0,0:0:0:0:
241,8,161074,2,2,L|121:35,1,120,2|10,1:0|0:1,0:1:0:0:
17,89,161780,6,2,B|23:176|123:167,1,120,2|8,1:0|0:0,0:1:0:0:
193,231,162486,2,0,L|243:192,1,60,0|0,1:2|0:0,0:0:0:0:
289,160,162838,1,8,0:0:0:0:
408,170,163191,2,2,B|450:221|430:306,1,120,2|8,1:0|0:0,0:1:0:0:
416,340,163721,2,2,B|353:341|282:358,1,120,2|0,0:1|0:1,0:1:0:0:
238,370,164250,1,10,0:1:0:0:
144,294,164603,2,2,B|104:170|183:66,1,240,2|0,1:0|1:2,0:1:0:0:
287,8,165662,1,8,0:0:0:0:
378,85,166015,5,2,1:1:0:0:
316,188,166368,1,10,0:1:0:0:
213,126,166721,1,2,1:0:0:0:
275,23,167074,1,10,0:1:0:0:
378,85,167427,6,2,B|448:116|442:184,1,120,2|8,1:0|0:0,0:1:0:0:
484,220,167956,2,2,B|506:290|461:346,1,120,2|0,0:1|0:0,0:1:0:0:
419,369,168486,1,10,0:1:0:0:
342,276,168838,2,2,B|220:244|124:348,1,240,2|0,1:0|1:2,0:1:0:0:
14,299,169897,2,0,L|27:235,1,60,8|0,0:0|0:0,0:0:0:0:
78,211,170250,6,2,L|52:86,1,120,2|8,1:0|0:0,0:1:0:0:
53,32,170780,2,2,B|123:-19|196:30,1,120,2|0,0:1|0:0,0:1:0:0:
223,33,171309,1,10,0:1:0:0:
339,4,171662,2,2,B|405:92|405:92|339:221,1,240,2|0,1:1|1:2,0:1:0:0:
237,260,172721,2,0,L|255:327,1,60,8|0,0:0|0:0,0:0:0:0:
272,374,173074,6,2,B|331:354|409:346,1,120,2|8,1:0|0:0,0:1:0:0:
448,353,173603,2,2,B|487:305|471:235,1,120,2|0,0:1|0:0,0:1:0:0:
441,187,174133,1,10,0:1:0:0:
351,107,174486,2,2,B|286:114|208:128,1,120,2|8,1:1|0:0,0:1:0:0:
176,146,175015,2,2,B|136:194|147:277,1,120,2|0,0:1|0:0,0:1:0:0:
168,314,175544,1,10,0:1:0:0:
272,374,175897,6,2,B|354:271|495:277,1,240,2|0,1:1|1:2,0:1:0:0:
507,159,176956,2,0,L|486:88,1,60,8|0,0:2|1:0,0:0:0:0:
472,43,177309,1,4,1:0:0:0:
256,192,177397,12,4,178721,1:0:0:0:
124,114,179603,6,0,L|108:184,2,60,2|2|2,0:0|0:0|0:0,0:0:0:0:
157,63,180133,2,0,B|258:24|331:95,1,180,2|2,0:0|0:0,0:0:0:0:
433,140,181015,2,0,L|450:70,2,60,2|2|2,0:0|0:0|0:0,0:0:0:0:
418,198,181544,1,2,0:0:0:0:
367,307,181897,1,2,0:0:0:0:
247,291,182250,1,2,0:0:0:0:
224,172,182603,1,2,0:0:0:0:
331,113,182956,1,2,0:0:0:0:
331,113,183838,6,0,L|395:120,2,60,2|2|2,0:0|0:0|0:0,0:0:0:0:
282,76,184368,2,0,B|235:82|197:116,1,90,2|2,0:0|0:0,0:0:0:0:
120,153,184897,2,0,L|138:227,1,60,2|2,0:0|0:0,0:0:0:0:
176,323,185427,1,2,0:0:0:0:
272,250,185780,1,2,0:0:0:0:
441,189,186309,5,2,0:0:0:0:
441,189,186486,2,0,B|455:119,1,60,2|2,0:0|0:0,0:0:0:0:
512,119,186838,2,0,B|488:50,1,60,2|2,0:0|0:0,0:0:0:0:
472,7,187191,2,2,B|408:12|340:49,1,120,6|2,0:1|0:0,0:1:0:0:
237,26,187897,2,2,B|242:90|279:158,1,120,6|0,0:1|0:0,0:1:0:0:
347,232,188603,2,2,B|342:296|305:364,1,120,6|0,0:1|0:0,0:1:0:0:
8,156,190015,6,0,B|44:100|113:110,1,120,6|8,0:0|0:0,0:0:0:0:
167,129,190544,1,2,0:0:0:0:
250,42,190897,2,0,L|326:56,1,60,2|10,0:0|0:0,0:0:0:0:
367,65,191250,1,2,0:0:0:0:
367,65,191427,2,0,B|394:129|356:179,1,120,6|8,0:0|0:0,0:0:0:0:
317,224,191956,1,2,0:0:0:0:
216,289,192309,6,0,L|232:361,1,60,2|10,0:0|0:0,0:0:0:0:
279,379,192662,1,0,0:0:0:0:
279,379,192838,2,0,B|336:368|414:364,1,120,6|10,0:0|0:0,0:0:0:0:
497,296,193544,2,0,B|528:244|528:244|508:178,1,120,2|10,0:0|0:0,0:0:0:0:
436,92,194250,2,2,B|335:60|278:159,1,180,6|0,0:0|0:0,0:0:0:0:
194,233,195133,5,2,0:0:0:0:
194,233,195309,2,0,L|120:219,1,60,10|2,0:0|0:0,0:0:0:0:
75,228,195662,2,0,B|84:270|88:328,2,90,6|2|2,0:0|0:0|0:0,0:0:0:0:
28,189,196368,1,2,0:0:0:0:
2,71,196721,1,10,0:0:0:0:
120,45,197074,1,6,0:0:0:0:
264,152,197603,5,2,0:0:0:0:
264,152,197780,2,0,L|255:215,1,60,2|2,0:0|0:0,0:0:0:0:
303,247,198133,2,0,L|294:310,1,60,10|0,0:0|0:0,0:0:0:0:
278,364,198486,2,2,B|216:356|153:354,1,120,6|8,0:0|0:0,0:0:0:0:
108,320,199015,1,2,0:0:0:0:
108,320,199191,2,2,B|72:260|111:204,1,120,6|8,0:0|0:0,0:0:0:0:
147,160,199721,1,2,0:0:0:0:
147,160,199897,2,2,B|209:152|272:150,1,120,6|8,0:0|0:0,0:0:0:0:
414,253,200780,5,2,0:0:0:0:
414,253,200956,2,0,L|424:184,1,60,10|2,0:0|0:0,0:0:0:0:
470,156,201309,2,0,B|499:96|444:46,1,120,14|8,0:0|0:0,0:0:0:0:
402,5,201838,1,2,0:0:0:0:
297,64,202191,2,0,L|236:54,1,60,2|10,0:0|0:0,0:0:0:0:
182,46,202544,1,2,0:0:0:0:
182,46,202721,2,0,B|131:90|143:171,1,120,6|8,0:0|0:0,0:0:0:0:
165,209,203250,1,2,0:0:0:0:
272,262,203603,6,0,L|262:328,1,60,2|10,0:0|0:0,0:0:0:0:
256,384,203956,1,2,0:0:0:0:
256,384,204133,1,6,0:0:0:0:
164,313,204486,1,10,0:0:0:0:
52,355,204838,1,2,0:0:0:0:
10,243,205191,1,10,0:0:0:0:
122,201,205544,6,0,B|183:205|242:224,1,120,6|8,0:0|0:0,0:0:0:0:
364,225,206250,1,4,0:0:0:0:
364,225,206427,2,0,L|372:165,1,60,2|10,0:0|0:0,0:0:0:0:
420,128,206780,1,2,0:0:0:0:
420,128,206956,2,0,B|443:53|374:20,1,120,6|8,0:0|0:0,0:0:0:0:
325,6,207486,2,0,L|260:34,1,60,2|2,0:0|0:0,0:0:0:0:
150,24,208015,2,0,B|124:82|161:139,1,120,10|2,0:0|0:0,0:0:0:0:
256,192,208456,12,2,209780,0:0:0:0:
325,108,211191,6,0,B|344:172|298:229,1,120,0|8,1:0|0:0,0:0:0:0:
224,312,211897,1,0,1:0:0:0:
105,295,212250,2,0,L|66:244,1,60,8|0,0:0|0:0,0:0:0:0:
25,205,212603,2,0,B|14:145|14:145|54:100,1,120,0|8,1:2|0:0,0:0:0:0:
152,32,213309,1,0,1:0:0:0:
245,107,213662,2,0,L|232:175,1,60,8|0,0:0|0:0,0:0:0:0:
279,204,214015,2,0,L|256:329,1,120,0|8,1:2|0:0,0:0:0:0:
361,382,214721,1,0,1:2:0:0:
446,298,215074,1,8,0:0:0:0:
390,191,215427,6,0,B|402:124|412:65,1,120,2|2,1:2|1:2,0:0:0:0:
310,6,216133,1,2,1:2:0:0:
200,55,216486,2,0,L|121:40,2,60,2|0|2,1:2|0:2|0:2,0:2:0:0:
285,139,217191,5,4,1:0:0:0:
256,192,217280,12,2,218250,0:0:0:0:
