osu file format v14

[General]
AudioFilename: audio.mp3
AudioLeadIn: 0
PreviewTime: 131603
Countdown: 0
SampleSet: Soft
StackLeniency: 0.8
Mode: 0
LetterboxInBreaks: 0
WidescreenStoryboard: 1

[Editor]
Bookmarks: 17780,40368,62956,86956,109544,132133,156133,167427,190015,211191
DistanceSpacing: 1.4
BeatDivisor: 4
GridSize: 32
TimelineZoom: 2.899999

[Metadata]
Title:Chase the world
TitleUnicode:Chase the world
Artist:May'n
ArtistUnicode:May'n
Creator:niii_san
Version:Ex & Maot's Hard
Source:アクセル・ワールド
Tags:Accel World maot - ex - -_ex_- nisan anime japanese pop j-pop op opening
BeatmapID:3554340
BeatmapSetID:1724125

[Difficulty]
HPDrainRate:5
CircleSize:4
OverallDifficulty:6
ApproachRate:7
SliderMultiplier:1.4
SliderTickRate:1

[Events]
//Background and Video events
0,0,"bg.jpg",0,0
//Break Periods
2,178921,186291
//Storyboard Layer 0 (Background)
//Storyboard Layer 1 (Fail)
//Storyboard Layer 2 (Pass)
//Storyboard Layer 3 (Foreground)
//Storyboard Layer 4 (Overlay)
//Storyboard Sound Samples

[TimingPoints]
839,352.941176470588,4,2,1,65,1,0
15309,-90.9090909090909,4,2,1,65,0,0
17074,-76.9230769230769,4,2,1,65,0,0
17780,-100,4,2,1,65,0,0
62780,-100,4,2,1,75,0,0
62956,-86.9565217391305,4,1,1,75,0,1
82721,-86.9565217391305,4,2,1,65,0,0
84133,-100,4,2,1,65,0,0
86956,-100,4,2,1,65,0,0
131956,-100,4,2,1,75,0,0
132133,-86.9565217391305,4,1,1,75,0,1
151897,-86.9565217391305,4,2,1,65,0,0
153309,-166.666666666667,4,2,1,65,0,0
153397,-166.666666666667,4,2,1,5,0,0
155780,-166.666666666667,4,2,1,65,0,0
155956,-100,4,2,1,75,0,0
167427,-100,4,2,1,75,0,0
178721,-133.333333333333,4,2,1,65,0,0
187191,-111.111111111111,4,2,1,65,0,0
189838,-133.333333333333,4,2,1,75,0,0
190015,-86.9565217391305,4,1,1,75,0,1
209780,-86.9565217391305,4,2,1,65,0,0
210838,-100,4,2,1,65,0,0
211191,-95.2380952380952,4,2,1,65,0,0
216133,-76.9230769230769,4,2,1,65,0,0

[Colours]
Combo1 : 17,254,176
Combo2 : 173,255,95
Combo3 : 255,88,100
Combo4 : 255,94,55

[HitObjects]
440,98,2250,6,0,P|399:132|391:207,1,105,2|0,1:2|0:0,0:0:0:0:
295,49,2780,1,2,0:0:0:0:
158,189,3133,2,0,P|191:212|228:224,2,70,2|2|2,0:0|0:0|0:0,0:0:0:0:
116,99,3662,6,0,P|83:129|60:206,1,105,2|0,0:0|0:0,0:0:0:0:
143,327,4191,1,2,0:0:0:0:
317,237,4544,2,0,P|351:288|359:323,1,70,2|2,0:0|0:0,0:0:0:0:
222,210,4897,1,2,0:0:0:0:
291,140,5074,6,0,P|348:107|437:120,1,140,2|2,0:0|0:0,0:0:0:0:
222,210,5780,2,0,P|164:177|131:93,1,140,2|2,0:0|0:0,0:0:0:0:
317,237,6486,6,0,P|328:301|340:363,1,105,2|2,0:0|0:0,0:0:0:0:
459,234,7015,2,0,P|471:184|481:143,1,70,2|2,0:0|0:0,0:0:0:0:
390,116,7368,2,0,P|378:66|368:25,1,70,2|2,0:0|0:0,0:0:0:0:
468,75,7721,1,2,0:0:0:0:
370,199,7897,6,0,L|403:311,2,105,2|2|2,0:0|0:0|0:0,0:0:0:0:
281,157,8603,2,0,P|240:145|201:136,1,70,2|0,0:0|0:0,0:0:0:0:
192,42,8956,2,0,P|151:54|112:63,1,70,2|0,0:0|0:0,0:0:0:0:
37,105,9309,5,2,0:0:0:0:
256,192,9397,12,2,10721,0:0:0:0:
443,159,11427,6,0,P|459:113|480:56,2,105,2|2|2,0:0|0:0|0:0,0:0:0:0:
384,237,12133,6,0,P|367:263|365:304,1,70,0|0,1:0|0:0,0:0:0:0:
301,376,12486,2,0,P|286:348|252:326,1,70,8|0,0:0|0:0,0:0:0:0:
166,368,12838,1,2,1:2:0:0:
166,368,12927,1,2,0:2:0:0:
166,368,13015,1,2,0:2:0:0:
103,292,13191,2,0,P|118:240|133:193,1,70,10|2,0:0|0:0,0:0:0:0:
208,176,13544,6,0,L|134:183,1,70,2|2,1:2|0:0,0:0:0:0:
73,109,13897,2,0,L|-1:102,1,70,10|0,0:0|0:0,0:0:0:0:
120,20,14250,1,2,1:2:0:0:
120,20,14338,1,2,0:2:0:0:
120,20,14427,1,2,0:2:0:0:
201,74,14603,2,0,P|230:93|287:112,1,70,8|2,0:0|0:0,0:0:0:0:
340,38,14956,6,0,P|382:18|466:31,1,105,2|0,1:2|0:0,0:0:0:0:
439,19,15309,2,0,P|456:63|465:97,1,77.0000023498536,8|0,0:0|0:0,0:0:0:0:
417,185,15662,2,0,L|370:170,2,38.5000011749268,2|2|2,1:2|0:0|0:0,0:0:0:0:
465,281,16015,2,0,L|512:266,2,38.5000011749268,10|2|2,0:0|0:0|0:0,0:0:0:0:
369,331,16368,6,0,L|381:388,2,51.3333348999024,2|2|2,1:2|0:0|0:0,0:0:0:0:
290,331,16721,2,0,L|278:388,2,51.3333348999024,2|2|2,1:2|0:0|0:0,0:0:0:0:
339,248,17074,6,0,L|327:197,3,45.4999979171754,2|2|2|2,1:2|0:0|0:2|0:0,0:2:0:0:
306,182,17427,2,0,L|318:131,3,45.4999979171754,2|2|2|2,1:2|0:0|0:2|0:0,0:2:0:0:
291,97,17780,6,0,P|216:102|142:115,1,140,4|8,1:0|0:0,0:0:0:0:
57,84,18309,1,2,0:0:0:0:
10,170,18486,2,0,P|15:204|17:239,1,70,2|0,1:2|0:0,0:0:0:0:
114,350,18838,2,0,P|108:315|106:280,1,70,8|2,0:0|0:0,0:0:0:0:
188,226,19191,5,2,1:2:0:0:
188,226,19280,1,2,0:2:0:0:
188,226,19368,1,2,0:2:0:0:
273,279,19544,2,0,L|341:291,1,70,8|2,0:0|0:0,0:0:0:0:
487,235,19897,2,0,L|418:222,1,70,2|0,1:2|0:0,0:0:0:0:
419,223,20250,1,10,0:0:0:0:
360,149,20427,5,2,0:0:0:0:
360,149,20515,1,2,0:0:0:0:
360,149,20603,2,0,P|371:44|382:-4,1,140,2|8,1:2|0:0,0:0:0:0:
452,52,21133,1,2,0:0:0:0:
452,52,21309,1,2,1:2:0:0:
275,158,21662,1,8,0:0:0:0:
275,158,21838,1,2,0:0:0:0:
193,146,22015,6,0,P|139:161|86:235,1,140,2|8,1:2|0:0,0:0:0:0:
20,153,22544,2,0,P|17:135|12:118,2,35,2|2|2,0:0|0:0|1:2,0:0:0:0:
97,92,22897,2,0,P|101:75|104:57,2,35,2|2|10,0:0|0:0|0:0,0:0:0:0:
188,27,23250,5,0,0:0:0:0:
188,27,23427,2,0,P|269:41|337:47,1,140,0|8,1:0|0:0,0:0:0:0:
413,0,23956,1,0,0:0:0:0:
489,61,24133,2,0,P|482:95|479:130,1,70,0|2,1:0|0:0,0:0:0:0:
410,253,24486,2,0,P|406:218|400:183,1,70,10|0,0:0|0:0,0:0:0:0:
315,134,24838,5,2,1:2:0:0:
315,134,24927,1,2,0:2:0:0:
315,134,25015,1,2,0:2:0:0:
238,183,25191,2,0,P|203:186|168:192,1,70,8|2,0:0|0:0,0:0:0:0:
38,285,25544,2,0,P|72:278|107:275,1,70,2|0,1:2|0:0,0:0:0:0:
107,274,25897,1,8,0:0:0:0:
196,332,26074,5,2,0:0:0:0:
196,332,26162,1,2,0:0:0:0:
196,332,26250,2,0,P|279:350|320:390,1,140,0|8,1:2|0:0,0:0:0:0:
403,338,26780,1,2,0:0:0:0:
342,261,26956,2,0,L|346:218,2,35,2|2|2,1:2|0:2|0:2,0:0:0:0:
427,155,27309,2,0,L|431:198,2,35,10|2|2,0:2|0:2|0:2,0:0:0:0:
357,85,27662,5,2,1:2:0:0:
357,85,27750,1,2,0:2:0:0:
357,85,27838,1,2,0:2:0:0:
272,133,28015,2,0,P|241:137|132:162,1,140,10|2,0:0|1:2,0:0:0:0:
136,162,28544,1,2,0:0:0:0:
57,109,28721,1,10,0:0:0:0:
57,109,28898,1,2,0:0:0:0:
1,189,29074,6,0,B|4:271|51:236|54:313,1,140,2|8,1:2|0:0,0:0:0:0:
146,360,29603,1,2,0:0:0:0:
146,360,29780,2,0,L|225:340,1,70,2|0,1:2|0:0,0:0:0:0:
285,275,30133,2,0,L|364:295,1,70,8|2,0:0|0:0,0:0:0:0:
352,292,30397,1,2,0:0:0:0:
352,292,30486,6,0,P|373:221|438:203,1,140,2|8,1:2|0:0,0:0:0:0:
481,124,31015,1,2,0:0:0:0:
416,53,31191,2,0,P|381:49|347:42,1,70,2|0,1:2|0:0,0:0:0:0:
244,77,31544,2,0,P|251:42|254:8,1,70,8|0,0:0|0:0,0:0:0:0:
170,141,31897,6,0,P|105:166|31:226,1,140,2|10,1:2|0:0,0:0:0:0:
222,225,32427,2,0,P|277:235|311:314,1,140,2|0,0:0|0:0,0:0:0:0:
393,361,32956,1,8,0:0:0:0:
475,305,33133,1,2,0:0:0:0:
475,305,33221,1,2,0:0:0:0:
475,305,33309,2,0,P|469:240|466:145,1,140,2|10,1:2|0:0,0:0:0:0:
466,165,33838,1,2,0:0:0:0:
308,36,34191,1,2,0:0:0:0:
308,36,34368,1,10,0:0:0:0:
406,14,34544,5,2,0:0:0:0:
406,14,34721,2,0,P|402:51|397:84,1,70,0|0,1:0|0:0,0:0:0:0:
298,196,35074,2,0,P|302:159|307:126,1,70,8|2,0:0|0:0,0:0:0:0:
388,243,35427,1,2,1:2:0:0:
388,243,35515,1,2,0:2:0:0:
388,243,35603,1,2,0:2:0:0:
303,299,35780,2,0,P|266:303|233:308,1,70,8|2,0:0|0:0,0:0:0:0:
233,307,36044,1,2,0:0:0:0:
233,307,36133,6,0,P|154:287|147:215,1,140,2|8,1:2|0:0,0:0:0:0:
197,158,36662,1,2,0:0:0:0:
106,121,36838,2,0,L|25:137,1,70,2|0,1:2|0:0,0:0:0:0:
183,68,37191,2,0,L|196:0,1,70,8|2,0:0|0:0,0:0:0:0:
289,52,37544,6,0,P|359:59|437:102,1,140,2|8,1:2|0:0,0:0:0:0:
462,178,38074,2,0,P|420:184|319:231,1,140,2|2,0:0|0:0,0:0:0:0:
400,292,38603,2,0,P|439:296|480:311,1,70,8|0,0:0|0:0,0:0:0:0:
286,312,38956,6,0,L|300:389,1,70,2|2,1:1|0:0,0:0:0:0:
203,252,39309,2,0,L|189:329,1,70,10|0,0:1|0:0,0:0:0:0:
251,163,39662,6,0,L|238:94,1,70,2|2,1:1|0:0,0:0:0:0:
149,17,40015,2,0,L|136:85,1,70,2|0,1:1|0:0,0:0:0:0:
67,156,40368,6,0,P|105:203|194:217,1,140,4|8,1:0|0:0,0:0:0:0:
278,226,40897,2,0,P|218:235|161:305,1,140,2|2,0:0|0:0,0:0:0:0:
111,373,41427,1,8,0:0:0:0:
326,382,41780,6,0,B|369:364|369:364|298:301,1,140,0|8,1:0|0:0,0:0:0:0:
225,237,42309,2,0,B|219:283|219:283|309:253,1,140,2|2,0:0|0:0,0:0:0:0:
401,222,42838,1,8,0:0:0:0:
315,37,43191,6,0,P|296:75|270:185,2,140,6|8|0,1:1|0:0|1:0,0:1:0:0:
315,37,44074,1,2,0:0:0:0:
398,88,44250,2,0,P|444:107|488:117,1,70,8|2,0:0|0:0,0:0:0:0:
352,185,44603,6,0,P|318:195|286:209,1,70,2|2,1:2|0:0,0:0:0:0:
212,273,44956,1,8,0:0:0:0:
113,267,45133,2,0,B|116:185|163:220|166:143,1,140,2|0,0:0|0:0,0:0:0:0:
109,62,45662,2,0,P|75:106|69:130,1,70,10|2,0:0|0:0,0:0:0:0:
4,218,46015,6,2,P|17:289|33:382,2,140,2|8|2,1:1|0:0|1:1,0:1:0:0:
120,300,46897,1,0,0:0:0:0:
120,300,47074,2,0,P|163:285|200:274,1,70,8|0,0:0|0:0,0:0:0:0:
271,228,47427,6,2,P|299:288|291:353,1,105,2|0,1:1|0:0,0:1:0:0:
298,325,47780,2,0,P|341:344|371:355,1,70,10|0,0:0|0:0,0:0:0:0:
448,304,48133,2,0,P|491:285|521:274,1,70,2|0,1:2|0:0,0:0:0:0:
391,204,48486,2,0,P|378:158|371:127,1,70,8|2,0:0|0:0,0:0:0:0:
444,69,48838,6,0,P|417:95|295:115,1,140,2|10,1:2|0:0,0:0:0:0:
320,120,49368,1,2,0:0:0:0:
239,64,49544,2,0,P|257:21|272:-7,1,70,2|2,1:2|0:0,0:0:0:0:
162,127,49897,2,0,P|119:109|91:94,1,70,10|2,0:0|0:0,0:0:0:0:
242,179,50250,6,0,P|280:236|265:325,1,140,2|8,1:2|0:0,0:0:0:0:
275,304,50780,1,0,0:0:0:0:
196,362,50956,2,0,P|143:371|111:375,1,70,2|2,1:2|0:0,0:0:0:0:
68,293,51309,2,0,P|15:284|-17:280,1,70,10|0,0:0|0:0,0:0:0:0:
141,214,51662,6,0,P|128:147|109:54,1,140,4|8,1:0|0:0,0:0:0:0:
227,146,52191,2,0,P|240:79|259:-14,1,140,2|2,0:0|0:0,0:0:0:0:
347,103,52721,1,8,0:0:0:0:
252,274,53074,6,0,P|185:243|100:260,1,140,0|8,1:0|0:0,0:0:0:0:
251,368,53603,2,0,P|318:337|403:354,1,140,2|2,0:0|0:0,0:0:0:0:
476,373,54133,1,8,0:0:0:0:
496,178,54486,6,0,B|512:127|512:127|465:41,2,140,4|8|2,1:0|0:0|1:2,0:0:0:0:
496,178,55368,1,2,0:0:0:0:
413,229,55544,2,0,P|369:214|320:207,1,70,8|2,0:0|0:0,0:0:0:0:
272,274,55897,6,2,P|295:240|273:125,1,140,2|8,1:0|0:0,0:1:0:0:
228,30,56427,2,2,P|214:97|244:158,1,140,2|0,0:1|0:0,0:1:0:0:
329,61,56956,2,0,P|368:47|406:34,1,70,10|0,0:1|0:0,0:0:0:0:
244,158,57309,6,0,P|189:145|115:131,1,105,2|0,1:0|0:0,0:0:0:0:
141,135,57662,2,0,P|113:174|104:201,1,70,10|0,0:0|0:0,0:0:0:0:
171,273,58015,1,0,1:0:0:0:
171,273,58191,1,0,0:0:0:0:
83,317,58368,2,0,P|44:345|17:354,1,70,10|2,0:0|0:0,0:0:0:0:
162,360,58721,6,0,P|217:374|315:357,1,140,2|10,1:1|0:0,0:0:0:0:
298,363,59250,1,2,0:0:0:0:
362,289,59427,2,0,P|376:239|386:204,1,70,2|0,1:0|0:0,0:0:0:0:
271,168,59780,2,0,P|257:118|247:83,1,70,8|0,0:0|0:0,0:0:0:0:
296,13,60133,5,2,1:1:0:0:
374,79,60309,1,2,0:0:0:0:
374,79,60397,1,2,0:0:0:0:
374,79,60486,2,0,P|424:92|461:99,1,70,10|2,0:0|0:0,0:0:0:0:
444,193,60838,2,0,P|494:180|531:173,1,70,2|0,1:2|0:0,0:0:0:0:
424,287,61191,2,0,P|377:278|308:267,1,105,8|2,0:0|0:0,0:0:0:0:
290,261,61544,5,2,1:2:0:0:
256,192,61633,12,2,62603,0:0:0:0:
456,305,62956,6,0,P|397:320|340:339,1,120.750002303124,6|2,0:0|0:0,0:0:0:0:
323,357,63309,1,8,0:0:0:0:
256,275,63486,2,0,P|206:263|158:251,1,80.5000015354157,2|0,0:0|0:0,0:0:0:0:
97,302,63838,1,2,0:0:0:0:
96,302,64015,2,0,P|99:342|77:380,1,80.5000015354157,10|2,0:0|0:0,0:0:0:0:
19,230,64368,6,0,L|3:110,1,120.750002303124,6|2,0:0|0:0,0:0:0:0:
20,92,64721,1,8,0:0:0:0:
116,33,64897,2,0,P|106:80|100:135,1,80.5000015354157,2|0,0:0|0:0,0:0:0:0:
199,177,65250,1,2,0:0:0:0:
199,177,65427,1,10,0:0:0:0:
283,102,65603,5,0,0:0:0:0:
283,102,65691,1,0,0:0:0:0:
283,102,65780,2,0,P|365:133|409:201,1,161.000003070831,6|10,0:0|0:0,0:0:0:0:
492,263,66309,1,0,0:0:0:0:
492,263,66486,2,0,P|503:221|513:167,1,80.5000015354157,2|0,0:0|0:0,0:0:0:0:
395,304,66838,2,0,P|402:343|413:382,1,80.5000015354157,10|0,0:0|0:0,0:0:0:0:
312,236,67191,6,2,P|258:237|167:297,1,161.000003070831,6|8,0:0|0:0,0:0:0:0:
30,115,67897,2,0,P|93:163|172:171,1,161.000003070831,0|10,0:0|0:0,0:0:0:0:
245,84,68427,1,2,0:0:0:0:
162,7,68603,6,0,P|100:29|33:35,1,120.750002303124,6|2,0:0|0:0,0:0:0:0:
100,200,69133,1,2,0:0:0:0:
100,200,69309,2,0,P|103:140|121:111,1,80.5000015354157,2|0,0:0|0:0,0:0:0:0:
216,164,69662,2,0,P|295:185|346:206,1,120.750002303124,10|0,0:0|0:0,0:0:0:0:
331,199,70015,6,0,P|339:159|346:119,1,80.5000015354157,6|0,0:0|0:0,0:0:0:0:
346,119,70280,1,0,0:0:0:0:
346,119,70368,2,0,P|386:118|425:109,1,80.5000015354157,8|2,0:0|0:0,0:0:0:0:
512,141,70721,2,0,P|503:101|502:61,1,80.5000015354157,2|2,0:0|0:0,0:0:0:0:
432,206,71074,1,10,0:0:0:0:
432,206,71250,1,0,0:0:0:0:
494,300,71427,6,2,P|409:287|331:286,1,161.000003070831,6|8,0:0|0:0,0:0:0:0:
293,198,71956,1,2,0:0:0:0:
293,198,72044,1,0,0:0:0:0:
293,198,72133,2,2,P|231:214|147:299,1,161.000003070831,6|8,0:0|0:0,0:0:0:0:
85,204,72662,5,2,0:0:0:0:
85,204,72750,1,0,0:0:0:0:
85,204,72838,2,2,P|61:303|102:372,1,161.000003070831,6|8,0:0|0:0,0:0:0:0:
176,188,73368,1,0,0:0:0:0:
176,188,73544,2,0,P|167:132|160:103,1,80.5000015354157,0|2,0:0|0:0,0:0:0:0:
225,36,73897,2,0,P|281:45|310:52,1,80.5000015354157,10|2,0:0|0:0,0:0:0:0:
118,13,74250,6,0,P|58:44|46:118,1,120.750002303124,14|2,0:0|0:0,0:0:0:0:
62,108,74603,1,8,0:0:0:0:
78,223,74780,2,0,P|19:236|-31:240,1,80.5000015354157,2|0,0:0|0:0,0:0:0:0:
158,317,75133,1,2,0:0:0:0:
158,317,75309,2,0,P|197:322|236:332,1,80.5000015354157,10|2,0:0|0:0,0:0:0:0:
274,224,75662,6,0,P|266:164|261:103,1,120.750002303124,6|2,0:0|0:0,0:0:0:0:
234,85,76015,1,8,0:0:0:0:
320,13,76191,2,0,P|359:17|400:21,1,80.5000015354157,2|0,0:0|0:0,0:0:0:0:
484,97,76544,1,2,0:0:0:0:
484,97,76721,1,10,0:0:0:0:
463,213,76897,5,2,0:0:0:0:
463,213,76986,1,0,0:0:0:0:
463,213,77074,2,0,P|394:225|343:318,1,161.000003070831,6|10,0:0|0:0,0:0:0:0:
119,277,77780,2,0,P|195:293|237:360,1,161.000003070831,2|10,0:0|0:0,0:0:0:0:
264,232,78309,5,0,0:0:0:0:
264,232,78397,1,0,0:0:0:0:
264,232,78486,2,0,B|250:136|313:182|292:46,1,161.000003070831,6|8,0:0|0:0,0:0:0:0:
295,78,79015,1,0,0:0:0:0:
201,15,79191,2,0,P|139:30|91:39,1,80.5000015354157,4|2,0:0|0:0,0:0:0:0:
11,13,79544,1,10,0:0:0:0:
50,119,79721,5,2,0:0:0:0:
50,119,79809,1,0,0:0:0:0:
50,119,79897,2,0,P|132:135|163:187,1,120.750002303124,6|2,0:0|0:0,0:0:0:0:
146,186,80250,1,8,0:0:0:0:
238,250,80427,2,0,P|246:210|260:172,1,80.5000015354157,2|2,0:0|0:0,0:0:0:0:
40,224,80956,2,0,P|73:300|91:386,1,161.000003070831,10|2,0:0|0:0,0:0:0:0:
256,192,81397,12,2,82721,0:0:0:0:
38,71,83956,5,0,1:0:0:0:
38,71,84044,1,0,1:0:0:0:
38,71,84133,2,0,P|84:71|158:97,1,105,0|0,1:0|0:0,0:0:0:0:
140,87,84486,2,0,P|129:123|120:169,1,70,8|2,0:0|0:0,0:0:0:0:
199,214,84838,2,0,P|251:196|257:195,2,35,2|2|2,1:2|0:0|0:0,0:0:0:0:
139,292,85191,2,0,P|87:274|81:273,2,35,8|0|0,0:0|0:0|0:0,0:0:0:0:
240,320,85544,6,0,P|248:343|254:365,2,46.6666666666667,2|2|2,1:2|0:2|0:2,0:0:0:0:
302,268,85897,2,0,P|324:275|346:281,2,46.6666666666667,2|2|2,1:2|0:2|0:2,0:0:0:0:
255,204,86251,6,0,L|246:163,3,35,2|2|2|2,1:2|0:0|0:0|0:0,0:0:0:0:
282,141,86603,2,0,L|291:100,3,35,2|2|2|2,1:2|0:0|0:0|0:0,0:0:0:0:
301,78,86956,6,0,P|356:58|447:46,1,140,4|8,1:0|0:0,0:0:0:0:
501,120,87486,1,2,0:0:0:0:
436,193,87662,2,0,P|424:240|415:282,1,70,2|0,1:2|0:0,0:0:0:0:
337,314,88015,2,0,P|349:361|358:403,1,70,8|0,0:0|0:0,0:0:0:0:
243,263,88368,5,2,1:2:0:0:
243,263,88456,1,2,0:0:0:0:
243,263,88544,1,2,0:0:0:0:
305,186,88721,2,0,P|317:139|326:97,1,70,10|0,0:0|0:0,0:0:0:0:
250,54,89074,2,0,P|203:66|161:75,1,70,2|2,1:2|0:0,0:0:0:0:
182,70,89427,1,8,0:0:0:0:
105,21,89603,5,2,0:0:0:0:
105,21,89691,1,2,0:0:0:0:
105,21,89780,2,0,P|58:71|57:163,1,140,2|8,1:2|0:0,0:0:0:0:
84,229,90309,1,2,0:0:0:0:
84,229,90486,1,2,1:2:0:0:
204,371,90838,1,8,0:0:0:0:
204,371,91015,1,2,0:0:0:0:
258,298,91191,6,0,P|312:273|411:271,1,140,2|10,1:2|0:0,0:0:0:0:
294,232,91721,2,0,P|277:192|272:178,2,35,2|2|2,0:0|0:0|1:2,0:0:0:0:
204,137,92074,2,0,P|220:96|226:83,2,35,2|2|10,0:0|0:0|0:0,0:0:0:0:
265,25,92427,5,2,0:0:0:0:
265,25,92603,2,0,P|204:13|121:35,1,140,0|8,1:0|0:0,0:0:0:0:
48,88,93133,1,2,0:0:0:0:
100,169,93309,2,0,P|150:159|182:153,1,70,0|2,1:0|0:0,0:0:0:0:
78,257,93662,2,0,P|28:247|-4:241,1,70,10|0,0:0|0:0,0:0:0:0:
122,352,94015,5,2,1:2:0:0:
122,352,94103,1,2,0:2:0:0:
122,352,94191,1,2,0:2:0:0:
204,299,94368,2,0,P|254:289|286:283,1,70,8|2,0:0|0:0,0:0:0:0:
338,358,94721,2,0,P|388:368|420:374,1,70,2|0,1:2|0:0,0:0:0:0:
406,371,95074,1,8,0:0:0:0:
484,311,95250,5,2,0:0:0:0:
484,311,95338,1,2,0:0:0:0:
484,311,95427,2,0,P|513:234|487:156,1,140,2|8,1:2|0:0,0:0:0:0:
413,135,95956,1,2,0:0:0:0:
454,45,96133,2,0,L|503:27,2,35,2|2|2,1:2|0:0|0:0,0:0:0:0:
355,45,96486,2,0,L|306:27,2,35,10|2|2,0:0|0:0|0:0,0:0:0:0:
413,135,96838,5,2,1:2:0:0:
413,135,96927,1,2,0:0:0:0:
413,135,97015,1,2,0:0:0:0:
329,186,97191,2,0,P|305:242|280:337,1,140,10|2,0:0|1:2,0:0:0:0:
283,318,97721,1,2,0:0:0:0:
204,373,97897,1,8,0:0:0:0:
204,373,98074,1,2,0:0:0:0:
129,309,98250,6,0,P|84:295|-31:274,1,140,0|8,1:0|0:0,0:0:0:0:
94,187,98780,1,2,0:0:0:0:
94,187,98956,2,0,P|81:135|73:101,1,70,2|0,1:2|0:0,0:0:0:0:
53,33,99309,2,0,P|105:20|139:12,1,70,8|2,0:0|0:0,0:0:0:0:
121,16,99574,1,2,0:0:0:0:
121,16,99662,6,0,P|171:51|272:60,1,140,2|10,1:2|0:0,0:0:0:0:
326,4,100191,1,2,0:0:0:0:
394,74,100368,2,0,P|453:90|484:96,1,70,2|0,1:2|0:0,0:0:0:0:
330,139,100721,2,0,P|271:155|240:161,1,70,8|0,0:0|0:0,0:0:0:0:
164,147,101074,6,0,P|124:171|122:281,1,140,0|8,1:0|0:0,0:0:0:0:
160,379,101603,2,0,P|200:355|202:245,1,140,2|2,0:0|0:0,0:0:0:0:
256,178,102133,1,8,0:0:0:0:
339,246,102309,5,2,0:0:0:0:
339,246,102397,1,2,0:0:0:0:
339,246,102486,2,0,P|406:267|485:282,1,140,2|8,1:2|0:0,0:0:0:0:
474,280,103015,1,2,0:0:0:0:
511,90,103368,1,2,0:0:0:0:
511,90,103544,1,10,0:0:0:0:
430,33,103721,5,2,0:0:0:0:
430,33,103897,2,0,P|411:94|399:132,1,70,2|2,1:2|0:0,0:0:0:0:
321,11,104250,2,0,P|302:72|290:110,1,70,10|2,0:0|0:0,0:0:0:0:
274,177,104603,1,2,1:2:0:0:
274,177,104691,1,2,0:2:0:0:
274,177,104780,1,2,0:2:0:0:
179,150,104956,2,0,P|130:138|92:130,1,70,8|2,0:0|0:0,0:0:0:0:
110,133,105221,1,2,0:0:0:0:
110,133,105309,6,0,P|77:186|66:268,1,140,2|10,1:2|0:0,0:0:0:0:
41,356,105838,1,2,0:0:0:0:
138,368,106015,2,0,P|187:357|223:351,1,70,2|0,1:2|0:0,0:0:0:0:
264,236,106368,2,0,P|313:247|349:253,1,70,8|2,0:0|0:0,0:0:0:0:
169,203,106721,6,0,P|150:142|157:37,1,140,2|8,1:2|0:0,0:0:0:0:
239,25,107250,2,0,P|308:25|375:6,1,140,2|2,0:0|0:0,0:0:0:0:
436,83,107780,2,0,P|481:99|529:102,1,70,8|0,0:0|0:0,0:0:0:0:
346,121,108133,6,0,P|329:166|326:214,1,70,2|2,1:1|0:0,0:0:0:0:
220,216,108486,2,0,P|239:259|271:295,1,70,10|0,0:1|0:0,0:0:0:0:
358,369,108838,6,0,P|376:311|388:273,1,70,2|2,1:0|0:0,0:0:0:0:
506,332,109191,2,0,P|488:274|476:236,1,70,10|0,0:1|0:0,0:0:0:0:
403,211,109544,6,0,P|333:217|266:264,1,140,4|8,1:0|0:0,0:0:0:0:
227,166,110074,2,0,P|192:157|159:148,1,70,2|2,0:0|1:2,0:0:0:0:
78,205,110427,1,0,0:0:0:0:
78,205,110603,2,0,P|40:223|17:260,1,70,8|0,0:0|0:0,0:0:0:0:
102,302,110956,6,0,P|182:326|223:397,1,140,2|10,1:2|0:0,0:0:0:0:
293,310,111486,2,0,P|291:242|300:164,1,140,2|2,0:0|0:0,0:0:0:0:
216,116,112015,2,0,P|181:119|143:115,1,70,8|0,0:0|0:0,0:0:0:0:
295,66,112368,6,2,P|375:42|416:-29,1,140,2|8,1:0|0:0,0:1:0:0:
470,75,112897,2,2,P|468:143|477:221,1,140,2|0,0:1|0:0,0:1:0:0:
410,288,113427,1,8,0:0:0:0:
410,288,113603,1,2,0:0:0:0:
341,218,113779,6,0,P|304:210|272:200,1,70,2|2,1:2|0:0,0:0:0:0:
193,256,114132,1,10,0:0:0:0:
193,256,114309,2,2,P|166:319|219:378,1,140,2|0,0:1|0:0,0:1:0:0:
186,166,114838,2,0,P|149:174|117:184,1,70,8|2,0:0|0:0,0:0:0:0:
32,136,115191,6,0,P|30:85|113:33,1,140,2|8,1:2|0:0,0:0:0:0:
184,72,115721,1,2,0:0:0:0:
268,23,115897,2,0,P|319:23|377:50,1,105,2|0,1:0|0:0,0:0:0:0:
368,44,116250,2,0,P|352:86|342:133,1,70,8|0,0:0|0:0,0:0:0:0:
506,174,116603,6,2,P|455:174|397:201,1,105,2|0,1:0|0:0,0:1:0:0:
405,194,116956,2,0,P|420:236|430:283,1,70,8|2,0:0|0:0,0:0:0:0:
353,325,117309,2,0,P|304:311|235:300,1,105,2|0,1:2|0:0,0:0:0:0:
251,302,117662,2,0,P|255:267|255:232,1,70,8|0,0:0|0:0,0:0:0:0:
177,172,118015,6,0,P|99:184|73:247,1,140,2|10,1:2|0:0,0:0:0:0:
259,141,118544,1,2,0:0:0:0:
259,141,118721,2,0,P|253:93|254:51,1,70,2|2,1:2|0:0,0:0:0:0:
358,117,119074,2,0,P|352:165|353:207,1,70,10|2,0:0|0:0,0:0:0:0:
455,268,119427,6,0,P|449:233|448:198,1,70,2|0,1:2|0:0,0:0:0:0:
360,296,119780,2,0,P|354:330|353:365,1,70,8|0,0:0|0:0,0:0:0:0:
268,255,120133,2,0,P|198:238|151:234,1,105,0|0,1:0|0:0,0:0:0:0:
165,234,120486,2,0,P|154:285|147:327,1,70,8|2,0:0|0:0,0:0:0:0:
67,216,120838,6,0,P|72:147|148:118,1,140,4|8,1:0|0:0,0:0:0:0:
215,164,121368,2,0,P|273:197|277:264,1,140,2|0,0:0|0:0,0:0:0:0:
203,329,121897,2,0,P|199:294|189:260,1,70,8|2,0:0|0:0,0:0:0:0:
292,357,122250,6,0,P|361:355|456:343,1,140,0|8,1:0|0:0,0:0:0:0:
491,277,122780,2,0,B|498:193|455:228|459:122,1,140,2|0,0:0|0:0,0:0:0:0:
383,91,123309,2,0,P|334:102|293:107,1,70,10|0,0:0|0:0,0:0:0:0:
230,69,123662,6,0,P|147:84|114:138,2,140,4|8|2,1:0|0:0|1:2,0:0:0:0:
226,160,124544,1,0,0:0:0:0:
306,202,124720,2,0,P|338:214|373:221,1,70,8|2,0:0|0:0,0:0:0:0:
454,262,125073,6,2,B|497:209|497:209|455:113,1,140,2|8,1:1|0:0,0:1:0:0:
391,21,125603,2,0,B|348:74|348:74|390:170,1,140,2|2,0:1|0:0,0:0:0:0:
303,193,126132,2,0,L|231:213,1,70,10|2,0:1|0:0,0:0:0:0:
196,129,126485,6,0,P|138:119|67:102,1,105,2|0,1:0|0:0,0:0:0:0:
93,108,126838,2,0,P|86:155|81:192,1,70,8|0,0:0|0:0,0:0:0:0:
25,259,127191,1,0,1:0:0:0:
25,259,127367,1,2,0:0:0:0:
114,299,127544,2,0,P|121:345|126:382,1,70,8|2,0:0|0:0,0:0:0:0:
124,368,127809,5,0,0:0:0:0:
124,368,127897,2,0,P|193:353|280:351,1,140,2|10,1:1|0:0,0:0:0:0:
354,383,128426,1,2,0:0:0:0:
419,309,128603,2,0,P|427:273|433:212,1,70,2|0,1:0|0:0,0:0:0:0:
350,122,128956,2,0,P|342:158|336:219,1,70,8|0,0:0|0:0,0:0:0:0:
247,230,129309,5,2,1:1:0:0:
247,230,129397,1,2,0:0:0:0:
247,230,129486,1,2,0:0:0:0:
182,156,129662,2,0,P|132:143|95:136,1,70,10|2,0:0|0:0,0:0:0:0:
32,84,130015,2,0,P|39:49|48:16,1,70,0|2,1:0|0:0,0:0:0:0:
0,181,130368,2,0,P|17:235|30:298,1,105,8|2,0:0|0:0,0:0:0:0:
20,309,130721,5,2,1:2:0:0:
256,192,130809,12,2,131779,0:0:0:0:
458,46,132133,6,0,P|449:93|440:181,1,120.750002303124,6|0,0:0|0:0,0:0:0:0:
456,191,132486,1,8,0:0:0:0:
370,264,132662,2,0,P|336:232|329:180,1,80.5000015354157,2|0,0:0|0:0,0:0:0:0:
462,295,133015,1,2,0:0:0:0:
462,295,133191,2,0,P|451:346|445:381,1,80.5000015354157,10|2,0:0|0:0,0:0:0:0:
446,373,133456,1,0,0:0:0:0:
446,373,133544,6,0,P|376:352|307:339,1,120.750002303124,6|2,0:0|0:0,0:0:0:0:
301,354,133897,1,8,0:0:0:0:
237,262,134074,2,0,P|195:274|153:282,1,80.5000015354157,2|0,0:0|0:0,0:0:0:0:
59,238,134427,1,2,0:0:0:0:
59,238,134603,1,10,0:0:0:0:
151,171,134780,5,2,0:0:0:0:
151,171,134868,1,0,0:0:0:0:
151,171,134956,2,0,P|175:109|166:11,1,161.000003070831,6|10,0:0|0:0,0:0:0:0:
64,48,135486,1,0,0:0:0:0:
64,48,135662,2,0,P|35:98|27:123,1,80.5000015354157,2|0,0:0|0:0,0:0:0:0:
6,230,136015,2,0,P|56:259|81:267,1,80.5000015354157,10|0,0:0|0:0,0:0:0:0:
181,221,136368,6,2,P|216:251|228:363,1,161.000003070831,6|8,0:0|0:0,0:0:0:0:
104,171,137074,2,0,P|112:125|203:59,1,161.000003070831,0|10,0:0|0:0,0:0:0:0:
303,14,137603,1,2,0:0:0:0:
380,95,137780,6,0,P|433:111|506:126,1,120.750002303124,6|2,0:0|0:0,0:0:0:0:
305,188,138309,1,2,0:0:0:0:
305,188,138486,2,0,P|291:139|286:100,1,80.5000015354157,2|0,0:0|0:0,0:0:0:0:
218,231,138838,2,0,P|153:223|97:201,1,120.750002303124,10|0,0:0|0:0,0:0:0:0:
101,203,139191,6,0,P|77:262|68:289,1,80.5000015354157,6|0,0:0|0:0,0:0:0:0:
71,277,139456,1,0,0:0:0:0:
71,277,139544,2,0,P|95:335|104:362,1,80.5000015354157,8|2,0:0|0:0,0:0:0:0:
204,384,139897,2,0,P|217:346|234:309,1,80.5000015354157,2|2,0:0|0:0,0:0:0:0:
294,217,140250,1,10,0:0:0:0:
294,217,140427,1,0,0:0:0:0:
381,287,140603,6,2,P|431:245|476:132,1,161.000003070831,6|8,0:0|0:0,0:0:0:0:
366,162,141133,1,2,0:0:0:0:
366,162,141221,1,0,0:0:0:0:
366,162,141309,2,2,P|371:96|323:-14,1,161.000003070831,6|8,0:0|0:0,0:0:0:0:
267,95,141839,5,2,0:0:0:0:
267,95,141927,1,0,0:0:0:0:
267,95,142015,2,2,P|225:44|112:0,1,161.000003070831,6|8,0:0|0:0,0:0:0:0:
57,74,142544,1,0,0:0:0:0:
57,74,142721,2,0,P|71:119|81:158,1,80.5000015354157,0|2,0:0|0:0,0:0:0:0:
76,264,143074,2,0,P|31:250|-8:240,1,80.5000015354157,10|2,0:0|0:0,0:0:0:0:
121,353,143427,6,0,P|185:350|240:292,1,120.750002303124,14|2,0:0|0:0,0:0:0:0:
246,289,143780,1,8,0:0:0:0:
181,197,143956,2,0,P|134:185|99:178,1,80.5000015354157,2|0,0:0|0:0,0:0:0:0:
244,103,144309,1,2,0:0:0:0:
244,103,144486,2,0,P|235:63|225:24,1,80.5000015354157,10|2,0:0|0:0,0:0:0:0:
322,128,144838,6,0,P|381:143|453:143,1,120.750002303124,6|2,0:0|0:0,0:0:0:0:
467,127,145191,1,8,0:0:0:0:
503,234,145368,2,0,P|479:271|474:323,1,80.5000015354157,2|0,0:0|0:0,0:0:0:0:
385,376,145721,1,2,0:0:0:0:
385,376,145897,1,10,0:0:0:0:
291,312,146074,5,2,0:0:0:0:
291,312,146162,1,0,0:0:0:0:
291,312,146250,2,0,P|305:239|323:147,1,161.000003070831,6|10,0:0|0:0,0:0:0:0:
127,158,146956,2,0,P|113:85|95:-7,1,161.000003070831,2|10,0:0|0:0,0:0:0:0:
200,67,147486,5,0,0:0:0:0:
200,67,147574,1,0,0:0:0:0:
200,67,147663,2,0,B|188:163|139:102|124:239,1,161.000003070831,6|8,0:0|0:0,0:0:0:0:
129,207,148191,1,0,0:0:0:0:
162,315,148368,2,0,P|217:302|264:293,1,80.5000015354157,4|2,0:0|0:0,0:0:0:0:
81,371,148721,1,10,0:0:0:0:
11,283,148897,5,2,0:0:0:0:
11,283,148986,1,0,0:0:0:0:
11,283,149074,2,0,P|3:212|4:143,1,120.750002303124,6|2,0:0|0:0,0:0:0:0:
11,132,149427,1,8,0:0:0:0:
105,70,149603,2,0,P|116:25|123:-15,1,80.5000015354157,2|2,0:0|0:0,0:0:0:0:
109,188,150133,2,0,P|171:212|281:218,1,161.000003070831,10|2,0:0|0:0,0:0:0:0:
256,192,150574,12,2,151898,0:0:0:0:
113,282,152603,6,0,P|69:246|-3:233,2,120.750002303124,2|2|2,0:2|0:2|0:2,0:0:0:0:
209,332,153309,6,0,B|297:251|312:133|250:46|140:27|140:27|94:145|190:195,1,587.999982055665,0|0,3:0|3:0,3:0:0:0:
229,274,155956,5,0,1:0:0:0:
229,274,156044,1,0,1:0:0:0:
229,274,156133,2,2,P|281:279|329:364,1,140,2|8,1:0|0:0,0:1:0:0:
422,376,156662,1,2,0:0:0:0:
497,314,156838,2,0,P|497:271|501:229,1,70,2|0,1:2|0:0,0:0:0:0:
439,179,157191,1,8,0:0:0:0:
503,104,157368,5,2,0:2:0:0:
503,104,157456,1,2,0:0:0:0:
503,104,157544,2,2,P|434:90|366:71,1,140,2|8,1:1|0:0,0:1:0:0:
286,13,158074,1,2,0:0:0:0:
208,72,158250,2,0,P|216:107|219:157,1,70,0|0,1:0|0:0,0:0:0:0:
275,217,158603,1,8,0:0:0:0:
177,264,158780,5,2,0:0:0:0:
177,264,158868,1,2,0:0:0:0:
177,264,158956,2,2,B|140:322|140:322|185:385,1,140,2|8,1:1|0:0,0:1:0:0:
293,327,159486,1,2,0:0:0:0:
293,327,159662,2,0,P|346:336|377:356,1,70,2|2,1:2|0:0,0:0:0:0:
430,274,160015,2,0,P|483:265|514:245,1,70,8|2,0:0|0:0,0:0:0:0:
496,257,160280,1,2,0:0:0:0:
496,257,160368,6,0,P|484:208|483:177,1,70,2|0,1:1|0:0,0:0:0:0:
400,101,160721,2,0,P|387:150|386:181,1,70,10|0,0:1|0:0,0:0:0:0:
290,246,161074,6,0,P|286:211|275:177,1,70,2|0,1:0|0:0,0:0:0:0:
196,297,161427,2,0,P|199:331|210:365,1,70,10|2,0:1|0:0,0:0:0:0:
210,365,161691,1,2,0:0:0:0:
210,365,161780,2,2,P|148:345|74:335,1,140,2|8,1:0|0:0,0:1:0:0:
10,260,162309,1,2,0:0:0:0:
71,183,162486,2,0,P|105:189|139:194,1,70,2|0,1:2|0:0,0:0:0:0:
205,121,162838,2,0,P|209:86|216:52,1,70,8|0,0:0|0:0,0:0:0:0:
239,211,163191,6,2,P|295:245|300:329,1,140,2|8,1:0|0:0,0:1:0:0:
376,376,163721,2,0,P|419:363|516:345,1,140,2|2,0:1|0:2,0:0:0:0:
461,265,164250,2,0,P|416:276|378:285,1,70,10|2,0:1|0:0,0:0:0:0:
392,281,164515,1,2,0:0:0:0:
392,281,164603,6,2,P|393:216|363:143,1,140,2|8,1:0|0:0,0:1:0:0:
411,59,165133,1,2,0:0:0:0:
411,59,165309,2,0,P|459:79|480:107,1,70,2|2,1:2|0:0,0:0:0:0:
317,22,165662,2,0,P|257:42|211:84,1,105,8|0,0:0|0:0,0:0:0:0:
224,67,166015,6,0,P|236:109|240:157,1,70,2|2,1:1|0:0,0:0:0:0:
140,229,166368,2,0,P|135:194|125:160,1,70,10|0,0:1|0:0,0:0:0:0:
251,239,166721,6,0,P|239:280|235:328,1,70,2|2,1:0|0:0,0:0:0:0:
347,384,167074,2,0,P|351:349|361:315,1,70,10|2,0:1|0:0,0:0:0:0:
361,315,167338,1,2,0:0:0:0:
361,315,167427,6,2,P|448:328|501:343,1,140,2|8,1:0|0:0,0:1:0:0:
395,223,167956,2,0,P|408:136|423:83,1,140,2|2,0:1|0:0,0:0:0:0:
353,14,168486,2,0,P|299:5|273:3,1,70,10|2,0:1|0:2,0:0:0:0:
196,61,168838,6,2,P|161:112|231:118,2,140,2|10|2,1:0|0:0|1:2,0:1:0:0:
110,16,169721,1,2,0:0:0:0:
110,16,169809,1,2,0:0:0:0:
110,16,169897,2,0,P|83:55|73:102,1,70,10|2,0:0|0:0,0:0:0:0:
6,155,170250,6,0,P|58:187|142:193,1,140,2|8,1:0|0:0,0:0:0:0:
217,132,170780,2,0,P|269:100|353:94,1,140,2|0,0:1|0:0,0:0:0:0:
449,115,171309,2,0,P|468:63|481:34,1,70,10|0,0:1|0:0,0:0:0:0:
381,193,171662,6,2,B|344:249|344:249|421:258,2,140,2|8|2,1:1|0:0|1:2,0:1:0:0:
296,149,172544,1,2,0:2:0:0:
296,149,172633,1,2,0:0:0:0:
296,149,172721,2,0,P|271:193|254:225,1,70,10|2,0:0|0:0,0:0:0:0:
195,292,173074,6,2,P|220:341|311:372,1,140,2|8,1:0|0:0,0:1:0:0:
118,230,173603,2,0,P|93:279|2:310,1,140,2|2,0:1|0:0,0:0:0:0:
184,166,174133,2,0,P|209:107|214:75,1,70,10|0,0:1|0:0,0:0:0:0:
140,22,174486,6,2,P|79:20|21:99,1,140,2|8,1:0|0:0,0:1:0:0:
3,179,175015,2,0,P|64:177|122:256,1,140,2|0,0:1|0:0,0:0:0:0:
123,335,175544,2,0,P|78:327|42:323,1,70,10|0,0:1|0:0,0:0:0:0:
203,375,175897,6,0,P|248:367|284:363,1,70,2|2,1:0|0:0,0:0:0:0:
272,364,176162,1,2,0:0:0:0:
272,364,176250,2,0,P|317:372|353:376,1,70,10|2,0:2|0:2,0:0:0:0:
438,330,176603,1,2,1:2:0:0:
438,330,176780,1,2,0:2:0:0:
372,247,176956,2,0,P|386:192|402:157,1,70,10|0,0:2|1:0,0:0:0:0:
443,88,177309,5,4,1:0:0:0:
256,192,177397,12,4,178721,1:0:0:0:
0,166,187191,6,0,P|42:187|134:212,1,125.999996154785,6|0,0:1|0:0,0:0:0:0:
184,291,187721,1,2,0:0:0:0:
184,291,187809,1,2,0:0:0:0:
184,291,187897,2,0,P|205:249|230:157,1,125.999996154785,6|0,0:1|0:0,0:0:0:0:
210,88,188427,1,2,0:0:0:0:
210,88,188515,1,2,0:0:0:0:
210,88,188603,2,0,P|252:67|344:42,1,125.999996154785,6|0,0:1|0:0,0:0:0:0:
407,95,189133,1,2,0:0:0:0:
500,87,189309,6,0,P|509:44|515:14,1,62.9999980773926,2|2,0:0|0:0,0:0:0:0:
439,183,189662,2,0,P|453:226|465:270,1,62.9999980773926,2|0,0:0|1:0,0:0:0:0:
457,243,189927,1,0,1:0:0:0:
457,243,190015,6,0,P|432:280|350:303,1,120.750002303124,6|0,0:0|0:0,0:0:0:0:
331,299,190368,1,8,0:0:0:0:
223,266,190544,2,0,P|229:305|229:345,1,80.5000015354157,2|0,0:0|0:0,0:0:0:0:
134,223,190897,1,2,0:0:0:0:
134,223,191074,2,0,L|42:213,1,80.5000015354157,10|2,0:0|0:0,0:0:0:0:
210,163,191426,6,0,P|221:108|295:58,1,120.750002303124,6|2,0:0|0:0,0:0:0:0:
298,76,191779,1,8,0:0:0:0:
401,119,191955,2,0,P|409:72|414:19,1,80.5000015354157,2|0,0:0|0:0,0:0:0:0:
324,180,192308,1,2,0:0:0:0:
324,180,192485,1,10,0:0:0:0:
411,265,192661,5,2,0:0:0:0:
411,265,192749,1,0,0:0:0:0:
411,265,192838,2,0,P|494:309|500:374,1,161.000003070831,6|10,0:0|0:0,0:0:0:0:
353,340,193367,1,0,0:0:0:0:
353,340,193544,2,0,P|301:342|258:351,1,80.5000015354157,2|0,0:0|0:0,0:0:0:0:
193,283,193897,2,0,P|191:231|182:188,1,80.5000015354157,10|0,0:0|0:0,0:0:0:0:
110,137,194250,6,0,P|40:169|24:245,1,161.000003070831,6|8,0:0|0:0,0:0:0:0:
203,76,194956,2,0,P|290:84|344:153,1,161.000003070831,0|10,0:0|0:0,0:0:0:0:
276,231,195485,1,2,0:0:0:0:
347,303,195661,6,0,P|409:315|481:326,1,120.750002303124,6|2,0:0|0:0,0:0:0:0:
439,154,196191,1,2,0:0:0:0:
439,154,196368,2,0,P|456:198|433:252,1,80.5000015354157,2|0,0:0|0:0,0:0:0:0:
342,193,196721,2,0,P|281:206|216:261,1,120.750002303124,10|0,0:0|0:0,0:0:0:0:
233,238,197074,6,0,P|243:279|247:318,1,80.5000015354157,6|0,0:0|0:0,0:0:0:0:
247,318,197338,1,0,0:0:0:0:
247,318,197426,2,0,P|205:308|160:306,1,80.5000015354157,8|2,0:0|0:0,0:0:0:0:
26,237,197780,2,0,P|66:234|105:224,1,80.5000015354157,2|2,0:0|0:0,0:0:0:0:
162,129,198132,1,10,0:0:0:0:
162,129,198308,1,0,0:0:0:0:
254,198,198486,6,2,P|330:188|356:116,1,161.000003070831,6|8,0:0|0:0,0:0:0:0:
457,61,199014,1,2,0:0:0:0:
457,61,199102,1,0,0:0:0:0:
457,61,199191,2,2,B|454:148|515:116|504:209,1,161.000003070831,6|8,0:0|0:0,0:0:0:0:
422,286,199721,5,2,0:0:0:0:
422,286,199809,1,0,0:0:0:0:
422,286,199897,2,2,P|368:298|266:350,1,161.000003070831,6|8,0:0|0:0,0:0:0:0:
172,306,200426,1,0,0:0:0:0:
172,306,200602,2,0,P|176:251|173:219,1,80.5000015354157,0|2,0:0|0:0,0:0:0:0:
121,127,200956,2,0,P|66:131|34:128,1,80.5000015354157,10|2,0:0|0:0,0:0:0:0:
230,117,201308,6,0,P|290:86|302:12,1,120.750002303124,14|2,0:0|0:0,0:0:0:0:
293,17,201661,1,8,0:0:0:0:
397,61,201838,2,0,P|387:100|381:139,1,80.5000015354157,2|0,0:0|0:0,0:0:0:0:
480,278,202191,1,2,0:0:0:0:
480,278,202367,2,0,P|469:239|464:199,1,80.5000015354157,10|2,0:0|0:0,0:0:0:0:
393,326,202720,6,0,P|333:334|279:374,1,120.750002303124,6|2,0:0|0:0,0:0:0:0:
273,383,203073,1,8,0:0:0:0:
176,325,203249,2,0,P|171:284|167:244,1,80.5000015354157,2|0,0:0|0:0,0:0:0:0:
91,168,203602,1,2,0:0:0:0:
91,168,203779,1,10,0:0:0:0:
192,113,203955,5,2,0:0:0:0:
192,113,204044,1,0,0:0:0:0:
192,113,204132,2,0,P|261:125|341:78,1,161.000003070831,6|10,0:0|0:0,0:0:0:0:
487,170,204838,2,0,L|456:347,1,161.000003070831,2|10,0:0|0:0,0:0:0:0:
352,213,205368,5,0,0:0:0:0:
352,213,205456,1,0,0:0:0:0:
352,213,205544,2,0,P|280:220|192:236,1,161.000003070831,6|8,0:0|0:0,0:0:0:0:
124,160,206073,1,0,0:0:0:0:
124,160,206250,2,0,P|131:112|135:62,1,80.5000015354157,4|2,0:0|0:0,0:0:0:0:
24,187,206603,2,0,P|27:227|33:266,1,80.5000015354157,10|2,0:0|0:0,0:0:0:0:
33,266,206867,5,0,0:0:0:0:
33,266,206955,2,0,P|115:282|146:334,1,120.750002303124,6|2,0:0|0:0,0:0:0:0:
136,334,207308,1,8,0:0:0:0:
232,275,207485,2,0,P|275:271|315:263,1,80.5000015354157,2|2,0:0|0:0,0:0:0:0:
377,47,208015,2,0,P|308:51|267:143,1,161.000003070831,10|2,0:0|0:0,0:0:0:0:
256,192,208455,12,2,209779,2:2:0:0:
456,100,211015,5,0,1:0:0:0:
456,100,211103,1,0,1:0:0:0:
456,100,211191,2,0,B|451:170|498:141|496:226,1,110.249996635437,4|0,1:0|0:0,0:0:0:0:
494,199,211544,2,0,P|459:228|424:245,1,73.4999977569581,8|2,0:0|0:0,0:0:0:0:
336,207,211897,2,0,L|345:156,2,36.749998878479,2|2|2,1:2|0:0|0:0,0:0:0:0:
283,296,212250,2,0,L|292:347,2,36.749998878479,10|2|2,0:0|0:0|0:0,0:0:0:0:
191,247,212603,5,2,1:2:0:0:
191,247,212691,1,2,0:0:0:0:
191,247,212780,1,2,0:0:0:0:
117,318,212956,2,0,P|79:339|38:360,1,73.4999977569581,8|0,0:0|0:0,0:0:0:0:
13,257,213309,1,2,1:2:0:0:
95,195,213486,1,2,0:0:0:0:
95,195,213574,1,2,0:0:0:0:
95,195,213662,2,0,P|85:139|78:94,1,73.4999977569581,10|2,0:0|0:0,0:0:0:0:
136,34,214015,6,0,P|202:37|241:93,1,110.249996635437,2|0,1:2|0:0,0:0:0:0:
231,65,214368,2,0,P|251:116|254:154,1,73.4999977569581,8|0,0:0|0:0,0:0:0:0:
215,231,214721,2,0,L|174:222,2,36.749998878479,2|2|2,1:2|0:0|0:0,0:0:0:0:
241,330,215074,2,0,L|200:339,2,36.749998878479,10|2|2,0:0|0:0|0:0,0:0:0:0:
315,258,215427,6,0,L|326:206,2,48.9999985046387,2|2|2,1:2|0:0|0:0,0:0:0:0:
365,320,215780,2,0,L|376:372,2,48.9999985046387,2|2|2,1:2|0:0|0:0,0:0:0:0:
434,263,216133,6,0,P|450:232|452:218,3,45.4999979171754,2|2|2|2,1:2|0:0|0:0|0:0,0:0:0:0:
469,192,216486,2,0,P|458:158|449:147,3,45.4999979171754,2|2|2|2,1:2|0:0|0:0|0:0,0:0:0:0:
255,189,217191,5,4,1:0:0:0:
256,192,217280,12,2,218250,0:0:0:0:
