osu file format v14

[General]
AudioFilename: audio.mp3
AudioLeadIn: 0
PreviewTime: 131603
Countdown: 0
SampleSet: Soft
StackLeniency: 0.8
Mode: 0
LetterboxInBreaks: 0
WidescreenStoryboard: 0

[Editor]
Bookmarks: 17780,40368,62956,86956,109544,132133,156133,167427,190015,211191
DistanceSpacing: 1.8
BeatDivisor: 3
GridSize: 32
TimelineZoom: 2.899999

[Metadata]
Title:Chase the world
TitleUnicode:Chase the world
Artist:May'n
ArtistUnicode:May'n
Creator:niii_san
Version:Collab Insane
Source:アクセル・ワールド
Tags:Accel World maot - ex - -_ex_- nisan anime japanese pop j-pop op opening
BeatmapID:3523603
BeatmapSetID:1724125

[Difficulty]
HPDrainRate:5
CircleSize:4
OverallDifficulty:8
ApproachRate:8
SliderMultiplier:1.6
SliderTickRate:1

[Events]
//Background and Video events
0,0,"bg.jpg",0,0
//Break Periods
//Storyboard Layer 0 (Background)
//Storyboard Layer 1 (Fail)
//Storyboard Layer 2 (Pass)
//Storyboard Layer 3 (Foreground)
//Storyboard Layer 4 (Overlay)
//Storyboard Sound Samples

[TimingPoints]
839,352.941176470588,4,2,1,65,1,0
2250,-125,4,2,1,65,0,0
12133,-100,4,2,1,65,0,0
15309,-90.9090909090909,4,2,1,65,0,0
17074,-76.9230769230769,4,2,1,65,0,0
17780,-100,4,2,1,65,0,0
62780,-100,4,2,1,75,0,0
62956,-86.9565217391305,4,1,1,75,0,1
82721,-86.9565217391305,4,2,1,65,0,0
84133,-100,4,2,1,65,0,0
131956,-100,4,2,1,75,0,0
132133,-86.9565217391305,4,1,1,75,0,1
151897,-86.9565217391305,4,2,1,65,0,0
153309,-200,4,2,1,65,0,0
155956,-100,4,2,1,75,0,0
167427,-100,4,2,1,75,0,0
178721,-133.333333333333,4,2,1,65,0,0
187191,-111.111111111111,4,2,1,65,0,0
189838,-133.333333333333,4,2,1,75,0,0
190015,-86.9565217391305,4,1,1,75,0,1
209780,-86.9565217391305,4,2,1,65,0,0
210838,-100,4,2,1,65,0,0
211191,-95.2380952380952,4,2,1,65,0,0
216133,-76.9230769230769,4,2,1,65,0,0

[Colours]
Combo1 : 17,254,176
Combo2 : 173,255,95
Combo3 : 255,88,100
Combo4 : 255,94,55

[HitObjects]
385,308,2250,6,0,B|419:268|404:216,1,96,2|0,1:2|0:0,0:0:0:0:
267,63,2780,2,0,B|231:104|246:158,1,96,2|0,0:0|0:0,0:0:0:0:
261,200,3133,1,2,0:0:0:0:
261,200,3309,1,2,0:0:0:0:
137,256,3486,1,2,0:0:0:0:
238,352,3662,6,0,B|293:359|354:381,1,96,2|0,0:0|0:0,0:0:0:0:
467,232,4191,2,0,B|406:254|350:261,1,96,2|0,0:0|0:0,0:0:0:0:
330,247,4544,5,2,0:0:0:0:
283,163,4721,1,2,0:0:0:0:
370,42,4897,1,2,0:0:0:0:
370,42,4986,1,2,0:0:0:0:
370,42,5074,2,0,B|401:114|363:179,1,128,2|2,0:0|0:0,0:0:0:0:
52,267,5780,2,0,B|20:194|58:129,1,128,2|2,0:0|0:0,0:0:0:0:
148,156,6309,5,2,0:0:0:0:
148,156,6397,1,2,0:0:0:0:
148,156,6486,2,0,B|155:199|166:237,1,64,2|0,0:0|0:0,0:0:0:0:
238,317,6750,2,0,B|245:274|256:236,1,64,2|0,0:0|0:0,0:0:0:0:
324,156,7015,2,0,B|334:192|341:235,1,64,2|2,0:0|0:0,0:0:0:0:
356,320,7368,1,2,0:0:0:0:
428,249,7544,1,2,0:0:0:0:
452,348,7721,1,2,0:0:0:0:
255,331,7897,6,0,B|202:331|137:353,2,96,2|2|2,0:0|0:0|0:0,0:0:0:0:
346,226,8603,1,2,0:0:0:0:
346,226,8691,1,2,0:0:0:0:
346,226,8956,2,0,B|335:170|326:91,1,128,2|2,0:0|0:0,0:0:0:0:
256,192,9397,12,2,10721,0:0:0:0:
67,177,12133,6,0,B|125:190|172:201,1,80,0|0,1:0|0:0,0:0:0:0:
294,276,12486,2,0,B|357:208|304:126,1,160,8|0,0:0|1:0,0:0:0:0:
225,82,13015,1,2,0:0:0:0:
424,53,13191,1,10,0:0:0:0:
441,95,13280,1,2,0:0:0:0:
436,140,13368,1,2,0:0:0:0:
407,176,13456,1,2,0:0:0:0:
363,189,13544,1,2,1:2:0:0:
196,175,13721,5,2,0:0:0:0:
196,175,13809,1,2,0:0:0:0:
196,175,13897,2,0,B|217:261|226:339,1,160,10|0,0:0|1:0,0:0:0:0:
322,384,14427,2,0,B|326:348|336:305,1,80,2|8,0:0|0:0,0:0:0:0:
95,247,14780,1,2,0:0:0:0:
95,247,14868,1,2,0:0:0:0:
95,247,14956,2,0,B|131:251|174:261,1,80,2|0,1:2|0:0,0:0:0:0:
455,166,15309,6,0,P|396:212|298:201,1,176.000005371094,8|2,0:0|1:2,0:0:0:0:
299,202,15750,1,2,0:0:0:0:
299,202,15838,1,2,0:0:0:0:
140,84,16015,1,10,0:0:0:0:
140,84,16103,1,2,0:0:0:0:
140,84,16191,1,2,0:0:0:0:
231,19,16368,5,2,1:2:0:0:
239,27,16486,2,0,P|235:58|228:90,1,58.6666684570313,2|2,0:2|0:0,0:0:0:0:
58,203,16721,1,2,1:2:0:0:
66,195,16838,2,0,P|62:164|55:132,1,58.6666684570313,2|2,0:2|0:0,0:0:0:0:
166,238,17074,2,0,L|158:285,5,34.6666650797527,2|2|2|2|2|2,1:2|0:2|0:2|0:2|0:2|0:2,0:2:0:0:
122,302,17427,2,0,L|129:349,5,34.6666650797527,2|2|2|2|2|2,1:2|0:2|0:2|0:2|0:2|0:2,0:2:0:0:
104,311,17780,6,0,B|193:297|261:367,1,160,4|8,1:0|0:0,0:0:0:0:
395,305,18309,1,2,0:0:0:0:
395,305,18397,1,2,0:0:0:0:
395,305,18486,2,0,B|385:343|381:383,1,80,2|0,1:2|0:0,0:0:0:0:
214,250,18838,2,0,B|224:212|228:172,1,80,8|2,0:0|0:0,0:0:0:0:
228,171,19103,1,2,0:0:0:0:
228,171,19191,6,0,B|278:175|327:211|295:289,1,160,2|8,1:2|0:0,0:0:0:0:
131,124,19721,5,2,0:0:0:0:
131,124,19809,1,2,0:0:0:0:
131,124,19897,2,0,B|88:119|52:136,1,80,2|0,1:2|0:0,0:0:0:0:
202,45,20250,1,10,0:0:0:0:
239,59,20338,1,2,0:0:0:0:
278,65,20426,1,2,0:0:0:0:
317,63,20514,1,2,0:0:0:0:
354,48,20603,6,0,B|432:85|529:79,1,160,2|8,1:2|0:0,0:0:0:0:
290,223,21133,1,2,0:0:0:0:
290,223,21221,1,2,0:0:0:0:
290,223,21309,2,0,B|301:180|303:144,1,80,2|0,1:2|0:0,0:0:0:0:
194,199,21662,1,8,0:0:0:0:
345,306,21838,5,2,0:0:0:0:
345,306,21927,1,2,0:0:0:0:
345,306,22015,2,0,B|435:300|506:365,1,160,2|8,1:2|0:0,0:0:0:0:
243,371,22544,2,0,B|241:335|230:292,1,80,2|0,0:0|1:0,0:0:0:0:
116,227,22897,1,2,0:0:0:0:
116,227,22986,1,2,0:0:0:0:
116,227,23074,2,0,B|69:236|38:263,1,80,10|0,0:0|0:0,0:0:0:0:
202,185,23427,6,0,B|236:99|159:39,2,160,0|8|0,1:0|0:0|1:0,0:0:0:0:
288,279,24309,1,2,0:0:0:0:
288,279,24397,1,2,0:0:0:0:
288,279,24486,2,0,B|289:239|313:203,1,80,10|0,0:0|0:0,0:0:0:0:
489,159,24838,6,0,B|449:158|413:133|413:133,1,80,0|0,1:0|0:0,0:0:0:0:
327,0,25191,2,0,B|326:40|301:75,1,80,8|2,0:0|0:0,0:0:0:0:
301,74,25456,1,2,0:0:0:0:
301,74,25544,2,0,B|248:68|188:92|185:173,1,160,2|8,1:2|0:0,0:0:0:0:
94,236,26074,5,2,0:0:0:0:
94,236,26162,1,2,0:0:0:0:
94,236,26250,2,0,B|96:156|77:74,1,160,2|8,1:2|0:0,0:0:0:0:
285,171,26780,1,2,0:0:0:0:
285,171,26868,1,2,0:0:0:0:
285,171,26956,2,0,B|322:182|364:179,1,80,0|0,1:2|0:0,0:0:0:0:
190,322,27309,2,0,B|201:285|198:243,1,80,8|2,0:0|0:0,0:0:0:0:
197,242,27574,5,2,0:0:0:0:
197,242,27662,1,2,1:2:0:0:
330,78,27838,1,2,0:0:0:0:
330,78,27927,1,2,0:0:0:0:
330,78,28015,2,0,B|317:28|284:1,1,80,10|0,0:0|0:0,0:0:0:0:
58,114,28368,1,2,1:2:0:0:
96,101,28456,1,2,0:0:0:0:
135,92,28544,1,2,0:0:0:0:
174,86,28632,1,2,0:0:0:0:
214,83,28720,1,10,0:0:0:0:
385,248,28897,5,2,0:0:0:0:
385,248,28986,1,2,0:0:0:0:
385,248,29074,2,0,B|312:272|263:211|270:153,1,160,2|8,1:2|0:0,0:0:0:0:
428,121,29603,1,2,0:0:0:0:
428,121,29691,1,2,0:0:0:0:
428,121,29780,2,0,B|472:134|528:139,1,80,2|0,1:2|0:0,0:0:0:0:
282,347,30133,2,0,B|284:312|297:268,1,80,8|2,0:0|0:0,0:0:0:0:
296,268,30397,5,2,0:0:0:0:
296,268,30486,2,0,B|250:247|187:269|151:312,1,160,2|8,1:2|0:0,0:0:0:0:
14,189,31015,1,2,0:0:0:0:
14,189,31103,1,2,0:0:0:0:
14,189,31191,2,0,B|48:201|92:203,1,80,2|0,1:2|0:0,0:0:0:0:
242,63,31544,2,0,B|230:97|227:143,1,80,8|0,0:0|0:0,0:0:0:0:
463,231,31897,5,2,1:2:0:0:
424,222,31985,1,2,0:0:0:0:
385,211,32073,1,2,0:0:0:0:
346,200,32161,1,2,0:0:0:0:
310,187,32249,1,10,0:0:0:0:
183,235,32427,1,2,0:0:0:0:
259,368,32603,2,0,B|271:334|274:288,1,80,0|0,1:0|0:0,0:0:0:0:
49,163,32956,2,0,B|83:151|129:148,1,80,8|0,0:0|0:0,0:0:0:0:
314,40,33309,5,2,1:2:0:0:
274,43,33397,1,2,0:0:0:0:
241,64,33485,1,2,0:0:0:0:
225,101,33573,1,2,0:0:0:0:
226,141,33661,1,10,0:0:0:0:
171,312,33838,1,2,0:0:0:0:
171,312,33927,1,2,0:0:0:0:
171,312,34015,2,0,B|168:265|156:231,1,80,2|0,1:2|0:0,0:0:0:0:
319,153,34368,2,0,B|365:155|399:167,1,80,8|0,0:0|0:0,0:0:0:0:
178,13,34721,6,0,B|174:62|126:111|59:100,1,160,0|8,1:0|0:0,0:0:0:0:
252,253,35250,1,2,0:0:0:0:
252,253,35338,1,2,0:0:0:0:
252,253,35427,2,0,B|232:208|242:148,1,80,2|0,1:2|0:0,0:0:0:0:
111,307,35780,2,0,B|134:341|124:385,1,80,8|2,0:0|0:0,0:0:0:0:
124,384,36044,5,2,0:0:0:0:
124,384,36133,2,0,B|198:365|301:364,1,160,2|8,1:2|0:0,0:0:0:0:
428,294,36662,1,2,0:0:0:0:
428,294,36750,1,2,0:0:0:0:
428,294,36838,2,0,B|385:293|348:284,1,80,2|0,1:2|0:0,0:0:0:0:
248,95,37191,2,0,B|247:137|238:174,1,80,8|2,0:0|0:0,0:0:0:0:
237,174,37456,5,2,0:0:0:0:
237,174,37544,2,0,B|184:161|124:210|135:286,1,160,2|8,1:2|0:0,0:0:0:0:
102,128,38074,1,2,0:0:0:0:
102,128,38162,1,2,0:0:0:0:
102,128,38250,2,0,B|48:125|12:103,1,80,2|0,1:2|0:0,0:0:0:0:
257,11,38603,2,0,B|242:45|238:88,1,80,8|0,0:0|0:0,0:0:0:0:
322,224,38956,5,2,1:1:0:0:
359,211,39044,1,2,0:0:0:0:
398,201,39132,1,2,0:0:0:0:
438,194,39220,1,2,0:0:0:0:
477,194,39309,2,0,B|463:139|461:105,1,80,10|0,0:1|0:0,0:0:0:0:
335,338,39662,5,2,1:1:0:0:
298,325,39750,1,2,0:0:0:0:
259,315,39838,1,2,0:0:0:0:
219,308,39926,1,2,0:0:0:0:
180,308,40015,2,0,B|194:253|196:219,1,80,2|0,1:1|0:0,0:0:0:0:
27,76,40368,6,0,P|79:136|174:140,1,160,4|8,1:0|0:0,0:0:0:0:
316,230,40897,1,2,0:0:0:0:
316,230,40986,1,2,0:0:0:0:
316,230,41074,2,0,P|325:176|332:143,1,80,2|0,1:2|0:0,0:0:0:0:
205,0,41427,2,0,P|214:54|221:87,1,80,8|0,0:0|0:0,0:0:0:0:
408,209,41780,6,0,P|426:97|441:29,1,160,0|8,1:0|0:0,0:0:0:0:
227,246,42309,1,2,0:0:0:0:
236,284,42397,1,2,0:0:0:0:
260,316,42485,1,2,1:2:0:0:
295,335,42573,1,2,0:0:0:0:
334,338,42661,1,2,0:0:0:0:
423,306,42838,2,0,B|454:309|507:322,1,80,8|0,0:0|0:0,0:0:0:0:
115,347,43191,6,2,B|79:262|140:200,1,160,6|8,1:1|0:0,0:1:0:0:
366,106,43721,2,2,B|310:180|225:158,1,160,2|2,0:1|0:0,0:1:0:0:
59,232,44250,1,8,0:0:0:0:
0,75,44427,1,2,0:0:0:0:
167,8,44603,1,2,1:2:0:0:
167,8,44691,1,2,0:0:0:0:
167,8,44780,1,2,0:0:0:0:
235,64,44956,6,0,P|247:26|261:-10,1,80,8|0,0:0|0:0,0:0:0:0:
83,148,45309,1,2,1:2:0:0:
85,187,45397,1,2,0:0:0:0:
106,221,45485,1,2,0:0:0:0:
140,242,45573,1,2,0:0:0:0:
179,245,45661,1,10,0:0:0:0:
287,211,45838,1,2,0:0:0:0:
374,371,46015,6,2,B|386:303|408:208,1,160,2|8,1:1|0:0,0:1:0:0:
330,48,46544,1,2,0:0:0:0:
330,48,46633,1,2,0:0:0:0:
330,48,46721,2,0,B|336:82|347:129,1,80,2|0,1:1|0:0,0:0:0:0:
512,248,47074,2,0,B|501:203|495:169,1,80,8|0,0:0|0:0,0:0:0:0:
247,112,47427,6,2,B|148:95|112:203,1,160,2|10,1:1|0:0,0:1:0:0:
0,261,47956,1,2,0:0:0:0:
0,261,48044,1,2,0:0:0:0:
0,261,48133,2,0,P|37:284|82:295,1,80,2|0,1:2|0:0,0:0:0:0:
217,193,48486,1,8,0:0:0:0:
154,89,48662,1,2,0:0:0:0:
256,56,48838,5,2,1:2:0:0:
256,56,48927,1,2,0:0:0:0:
256,56,49015,1,2,0:0:0:0:
256,56,49103,1,2,0:0:0:0:
256,56,49191,2,0,L|246:108,3,40,10|2|2|2,0:0|0:0|0:0|0:0,0:0:0:0:
314,157,49544,1,2,1:2:0:0:
320,181,49632,1,2,0:0:0:0:
328,206,49720,1,2,0:0:0:0:
336,231,49808,1,2,0:0:0:0:
342,256,49896,1,10,0:0:0:0:
329,279,49986,1,2,0:0:0:0:
317,302,50073,1,2,0:0:0:0:
304,325,50161,1,2,0:0:0:0:
292,350,50250,6,0,P|250:346|193:336,1,80,2|0,1:2|0:0,0:0:0:0:
3,374,50603,2,0,P|45:378|102:388,1,80,8|0,0:0|0:0,0:0:0:0:
170,230,50956,1,2,1:2:0:0:
170,230,51044,1,2,0:0:0:0:
170,230,51133,1,2,0:0:0:0:
73,212,51309,2,0,B|70:259|102:299,1,80,8|0,0:0|0:0,0:0:0:0:
366,384,51662,6,0,B|413:326|407:233,1,160,4|8,1:0|0:0,0:0:0:0:
338,50,52191,1,2,0:0:0:0:
273,111,52368,2,0,B|273:163|295:213,1,80,0|0,1:0|0:0,0:0:0:0:
487,274,52721,2,0,B|499:247|499:195,1,80,8|0,0:0|0:0,0:0:0:0:
249,264,53074,6,0,B|162:303|98:219,1,160,0|8,1:0|0:0,0:0:0:0:
38,267,53603,1,2,0:0:0:0:
38,267,53691,1,2,0:0:0:0:
38,267,53780,1,2,1:2:0:0:
156,164,53956,1,2,0:0:0:0:
330,327,54133,2,0,P|338:288|345:244,1,80,8|0,0:0|0:0,0:0:0:0:
151,67,54486,6,0,P|182:121|282:149,1,160,4|8,1:0|0:0,0:0:0:0:
422,291,55015,1,2,0:0:0:0:
450,263,55103,1,2,0:0:0:0:
466,227,55191,1,2,1:2:0:0:
464,187,55279,1,2,0:0:0:0:
447,151,55367,1,2,0:0:0:0:
372,96,55544,1,8,0:0:0:0:
187,141,55721,1,2,0:0:0:0:
285,27,55897,6,2,B|344:91|310:184,1,160,2|8,1:0|0:0,0:1:0:0:
157,360,56427,2,2,B|98:296|132:203,1,160,2|0,0:1|0:0,0:1:0:0:
409,164,56956,2,0,B|410:205|390:256,1,80,10|0,0:1|0:0,0:0:0:0:
206,268,57309,1,2,1:0:0:0:
256,192,57397,12,2,58544,0:0:0:0:
68,150,58721,5,2,1:1:0:0:
55,112,58809,1,2,0:0:0:0:
63,74,58897,1,2,0:0:0:0:
91,45,58985,1,2,0:0:0:0:
129,35,59073,1,10,0:0:0:0:
262,93,59250,1,2,0:0:0:0:
318,19,59427,2,0,P|270:10|231:6,1,80,2|0,1:0|0:0,0:0:0:0:
146,186,59780,2,0,B|147:229|167:292,1,80,8|0,0:0|0:0,0:0:0:0:
310,345,60133,5,2,1:1:0:0:
316,305,60221,1,2,0:0:0:0:
303,268,60309,1,2,0:0:0:0:
275,240,60397,1,2,0:0:0:0:
237,229,60485,1,10,0:0:0:0:
72,268,60662,1,2,0:0:0:0:
72,268,60750,1,2,0:0:0:0:
72,268,60838,2,0,B|76:310|91:345,1,80,2|0,1:2|0:0,0:0:0:0:
160,384,61191,1,8,0:0:0:0:
310,274,61368,5,2,0:0:0:0:
310,274,61456,1,2,0:0:0:0:
310,274,61544,1,2,1:2:0:0:
256,192,61633,12,2,62603,0:0:0:0:
446,60,62780,5,0,1:0:0:0:
446,60,62868,1,0,1:0:0:0:
446,60,62956,2,0,B|362:56|325:123,1,138.000002632141,6|2,0:0|0:0,0:0:0:0:
328,117,63309,2,0,L|344:171,1,46.0000008773804,8|0,0:0|0:0,0:0:0:0:
133,46,63486,2,0,B|177:44|244:28,1,92.0000017547608,2|0,0:0|0:0,0:0:0:0:
264,219,63838,5,2,0:0:0:0:
142,166,64015,1,10,0:0:0:0:
230,116,64191,1,2,0:0:0:0:
178,257,64368,6,0,B|111:263|34:290,1,138.000002632141,6|2,0:0|0:0,0:0:0:0:
43,286,64721,2,0,B|39:264|19:228,1,46.0000008773804,8|0,0:0|0:0,0:0:0:0:
156,158,64897,2,0,B|212:152|277:187|269:277,1,184.000003509522,2|2,0:0|0:0,0:0:0:0:
449,128,65427,2,0,B|400:133|357:125,1,92.0000017547608,10|0,0:0|0:0,0:0:0:0:
245,50,65780,6,0,B|237:93|242:142,1,92.0000017547608,6|0,0:0|0:0,0:0:0:0:
242,142,66044,1,0,0:0:0:0:
242,142,66133,1,10,0:0:0:0:
370,241,66309,1,0,0:0:0:0:
180,348,66486,1,2,0:0:0:0:
180,348,66575,1,0,0:0:0:0:
180,348,66662,2,0,B|185:299|177:256,1,92.0000017547608,0|10,0:0|0:0,0:0:0:0:
280,232,67015,1,0,0:0:0:0:
166,94,67191,6,2,B|101:70|30:110|29:176,1,184.000003509522,6|8,0:0|0:0,0:0:0:0:
101,216,67721,1,0,0:0:0:0:
266,135,67897,1,0,0:0:0:0:
266,135,67986,1,0,0:0:0:0:
266,135,68074,2,0,B|252:80|259:29,1,92.0000017547608,2|10,0:0|0:0,0:0:0:0:
333,0,68427,1,2,0:0:0:0:
487,286,68603,6,0,B|421:261|351:260,1,138.000002632141,6|2,0:0|0:0,0:0:0:0:
352,260,68956,2,0,B|342:282|341:304,1,46.0000008773804,8|0,0:0|0:0,0:0:0:0:
405,372,69133,1,2,0:0:0:0:
269,204,69309,2,0,B|235:226|181:228,1,92.0000017547608,2|0,0:0|0:0,0:0:0:0:
0,156,69662,2,0,B|33:133|87:131,1,92.0000017547608,10|0,0:0|0:0,0:0:0:0:
279,54,70015,6,0,B|263:10|182:-15|153:34,1,138.000002632141,6|0,0:0|0:0,0:0:0:0:
162,21,70368,2,0,P|150:65|148:87,1,46.0000008773804,8|0,0:0|0:0,0:0:0:0:
216,127,70544,1,2,0:0:0:0:
118,323,70721,2,0,B|95:289|93:235,1,92.0000017547608,2|2,0:0|0:0,0:0:0:0:
362,46,71074,2,0,B|384:79|386:133,1,92.0000017547608,10|0,0:0|0:0,0:0:0:0:
314,187,71427,6,2,B|234:157|126:151,1,184.000003509522,6|8,0:0|0:0,0:0:0:0:
299,288,71956,1,2,0:0:0:0:
299,288,72044,1,0,0:0:0:0:
299,288,72133,2,2,B|365:269|425:311|407:390,1,184.000003509522,6|8,0:0|0:0,0:0:0:0:
460,223,72662,5,2,0:0:0:0:
460,223,72750,1,0,0:0:0:0:
460,223,72838,2,2,B|454:176|470:132,1,92.0000017547608,6|0,0:0|0:0,0:0:0:0:
310,0,73191,2,0,B|316:47|300:91,1,92.0000017547608,8|0,0:0|0:0,0:0:0:0:
202,196,73544,5,0,0:0:0:0:
156,199,73632,1,0,0:0:0:0:
113,216,73720,1,2,0:0:0:0:
79,246,73808,1,0,0:0:0:0:
55,285,73896,1,10,0:0:0:0:
154,372,74074,1,2,0:0:0:0:
231,119,74250,6,0,B|295:115|365:143,1,138.000002632141,14|2,0:0|0:0,0:0:0:0:
365,143,74603,2,0,B|370:112|390:73,1,46.0000008773804,8|0,0:0|0:0,0:0:0:0:
181,39,74780,2,0,B|134:51|101:101,1,92.0000017547608,2|0,0:0|0:0,0:0:0:0:
233,249,75133,5,2,0:0:0:0:
265,149,75309,1,10,0:0:0:0:
119,223,75486,1,2,0:0:0:0:
270,341,75662,6,0,B|334:345|404:316,1,138.000002632141,6|2,0:0|0:0,0:0:0:0:
404,316,76015,2,0,B|395:302|390:272,1,46.0000008773804,8|0,0:0|0:0,0:0:0:0:
395,160,76191,6,0,B|456:148|524:191|511:275,1,184.000003509522,2|2,0:0|0:0,0:0:0:0:
307,208,76721,2,0,B|311:161|300:111,1,92.0000017547608,10|2,0:0|0:0,0:0:0:0:
387,49,77074,5,6,0:0:0:0:
386,48,77162,1,0,0:0:0:0:
386,48,77250,1,0,0:0:0:0:
199,160,77427,2,0,B|150:152|91:141,1,92.0000017547608,10|0,0:0|0:0,0:0:0:0:
17,128,77780,1,2,0:0:0:0:
17,128,77868,1,0,0:0:0:0:
17,128,77956,1,0,0:0:0:0:
151,341,78133,2,0,B|141:296|145:249,1,92.0000017547608,10|0,0:0|0:0,0:0:0:0:
272,91,78486,5,6,0:0:0:0:
316,83,78574,1,0,0:0:0:0:
361,94,78662,1,0,0:0:0:0:
396,123,78750,1,0,0:0:0:0:
417,163,78838,2,0,P|407:221|405:272,1,92.0000017547608,8|0,0:0|0:0,0:0:0:0:
182,174,79191,5,4,0:0:0:0:
138,166,79279,1,0,0:0:0:0:
93,177,79367,1,2,0:0:0:0:
58,206,79455,1,0,0:0:0:0:
37,246,79543,2,0,P|47:304|49:355,1,92.0000017547608,10|2,0:0|0:0,0:0:0:0:
251,209,79897,6,0,B|208:147|232:77,1,138.000002632141,6|2,0:0|0:0,0:0:0:0:
232,77,80250,1,8,0:0:0:0:
437,36,80427,1,2,0:0:0:0:
437,36,80515,1,0,0:0:0:0:
437,36,80603,2,0,B|465:77|449:123,1,92.0000017547608,2|0,0:0|0:0,0:0:0:0:
340,230,80956,6,0,B|269:222|203:263|231:369,1,184.000003509522,10|2,0:0|0:0,0:0:0:0:
256,192,81397,12,2,82721,0:0:0:0:
65,334,83956,5,0,1:0:0:0:
65,334,84044,1,0,1:0:0:0:
65,334,84133,2,0,B|68:239|172:229,1,160,0|8,1:0|0:0,0:0:0:0:
62,88,84662,2,0,B|70:128|56:192,1,80,2|2,0:0|1:2,0:0:0:0:
60,167,84927,1,2,0:0:0:0:
60,167,85015,1,2,0:0:0:0:
188,321,85191,2,0,B|236:311|289:307,1,80,8|0,0:0|0:0,0:0:0:0:
375,87,85544,5,2,1:2:0:0:
320,121,85662,5,2,0:2:0:0:
320,184,85779,5,2,0:2:0:0:
364,231,85897,6,0,B|384:237|415:252,2,53.3333333333333,2|2|2,1:2|0:2|0:2,0:0:0:0:
238,212,86250,6,0,L|234:238,5,26.6666666666667,2|2|2|2|2|2,1:2|0:0|0:0|0:0|0:0|0:0,0:0:0:0:
206,187,86603,2,0,L|201:152,4,26.6666666666667,2|2|2|2|2,1:2|0:0|0:0|0:0|0:0,0:0:0:0:
173,208,86956,6,0,B|114:278|28:244,1,160,4|8,1:0|0:0,0:0:0:0:
52,84,87486,1,2,0:0:0:0:
52,84,87574,1,2,0:0:0:0:
52,84,87662,2,0,B|63:125|70:175,1,80,2|0,1:2|0:0,0:0:0:0:
239,330,88015,2,0,B|243:293|255:251,1,80,8|0,0:0|0:0,0:0:0:0:
447,142,88368,5,2,1:2:0:0:
434,179,88456,1,2,0:0:0:0:
406,206,88544,1,2,0:0:0:0:
368,216,88632,1,2,0:0:0:0:
330,205,88721,2,0,B|326:168|314:126,1,80,10|0,0:0|0:0,0:0:0:0:
235,119,89074,1,2,1:2:0:0:
235,119,89162,1,2,0:0:0:0:
235,119,89250,1,2,0:0:0:0:
406,0,89427,2,0,B|397:33|390:79,1,80,8|0,0:0|0:0,0:0:0:0:
134,217,89780,6,0,B|79:144|138:68,1,160,0|8,1:0|0:0,0:0:0:0:
263,259,90309,1,2,0:0:0:0:
263,259,90397,1,2,0:0:0:0:
263,259,90486,2,0,P|219:275|178:294,1,80,2|0,1:2|0:0,0:0:0:0:
69,275,90838,1,8,0:0:0:0:
212,181,91015,1,2,0:0:0:0:
366,303,91191,5,2,1:2:0:0:
395,277,91279,1,2,0:0:0:0:
413,242,91367,1,2,0:0:0:0:
413,202,91455,1,2,0:0:0:0:
398,165,91543,1,10,0:0:0:0:
289,30,91721,1,2,0:0:0:0:
396,75,91897,1,2,1:2:0:0:
396,75,91986,1,2,0:0:0:0:
396,75,92074,2,0,P|347:95|307:119,1,80,2|8,0:0|0:0,0:0:0:0:
126,173,92427,1,2,0:0:0:0:
185,105,92603,6,0,B|241:145|247:198|222:265,2,160,0|8|0,1:0|0:0|1:0,0:0:0:0:
29,56,93486,1,2,0:0:0:0:
29,56,93574,1,2,0:0:0:0:
29,56,93662,2,0,P|64:82|118:95,1,80,10|0,0:0|0:0,0:0:0:0:
293,109,94015,2,0,B|314:77|314:28,1,80,0|0,1:0|0:0,0:0:0:0:
134,179,94368,2,0,B|113:211|113:260,1,80,8|2,0:0|0:0,0:0:0:0:
113,255,94633,1,2,0:0:0:0:
113,255,94721,2,0,B|147:347|250:318,1,160,2|8,1:2|0:0,0:0:0:0:
354,372,95250,5,2,0:0:0:0:
354,372,95338,1,2,0:0:0:0:
354,372,95427,2,0,B|389:292|339:219,1,160,2|8,1:2|0:0,0:0:0:0:
184,116,95956,1,2,0:0:0:0:
184,116,96044,1,2,0:0:0:0:
184,116,96133,2,0,P|200:159|221:194,1,80,0|0,1:2|0:0,0:0:0:0:
439,253,96486,2,0,P|453:208|460:167,1,80,8|0,0:0|0:0,0:0:0:0:
412,68,96838,5,2,1:2:0:0:
372,50,96926,1,2,0:0:0:0:
332,51,97014,1,2,0:0:0:0:
297,70,97102,1,2,0:0:0:0:
273,99,97190,1,10,0:0:0:0:
120,205,97368,2,0,P|71:191|36:184,1,80,2|2,0:0|1:2,0:0:0:0:
42,185,97633,1,2,0:0:0:0:
42,185,97721,1,2,0:0:0:0:
110,105,97897,1,8,0:0:0:0:
264,261,98074,1,2,0:0:0:0:
189,305,98250,6,0,B|152:227|196:153,1,160,0|8,1:0|0:0,0:0:0:0:
324,68,98780,1,2,0:0:0:0:
324,68,98868,1,2,0:0:0:0:
324,68,98956,2,0,P|328:123|323:152,1,80,2|0,1:2|0:0,0:0:0:0:
120,119,99309,2,0,P|122:79|133:40,1,80,8|0,0:0|0:0,0:0:0:0:
401,183,99662,5,2,1:2:0:0:
407,222,99750,1,2,0:0:0:0:
399,261,99838,1,2,0:0:0:0:
372,290,99926,1,2,0:0:0:0:
335,307,100015,1,10,0:0:0:0:
252,367,100191,1,2,0:0:0:0:
252,367,100280,1,2,0:0:0:0:
252,367,100368,2,0,P|237:313|234:284,1,80,2|0,1:2|0:0,0:0:0:0:
248,138,100721,2,0,P|213:161|173:172,1,80,8|0,0:0|0:0,0:0:0:0:
7,131,101074,6,0,B|-16:227|95:265,1,160,0|8,1:0|0:0,0:0:0:0:
329,196,101603,1,2,0:0:0:0:
329,196,101691,1,2,0:0:0:0:
329,196,101780,2,0,P|341:152|347:112,1,80,2|0,1:2|0:0,0:0:0:0:
159,2,102133,2,0,B|175:49|220:60,1,80,8|0,0:0|0:0,0:0:0:0:
461,92,102486,6,0,B|413:6|323:38,1,160,0|8,1:0|0:0,0:0:0:0:
135,110,103015,1,2,0:0:0:0:
200,222,103191,2,0,B|221:187|215:139,1,80,0|2,1:0|0:0,0:0:0:0:
216,145,103456,1,2,0:0:0:0:
216,145,103544,1,10,0:0:0:0:
39,168,103721,1,2,0:0:0:0:
0,270,103897,5,2,1:2:0:0:
3,309,103985,1,2,0:0:0:0:
20,345,104073,1,2,0:0:0:0:
52,369,104161,1,2,0:0:0:0:
91,379,104249,1,10,0:0:0:0:
239,357,104427,1,2,0:0:0:0:
239,357,104515,1,2,0:0:0:0:
239,357,104603,2,0,B|197:340|156:328,1,80,2|0,1:2|0:0,0:0:0:0:
39,168,104956,2,0,B|72:158|114:141,1,80,8|0,0:0|0:0,0:0:0:0:
309,88,105309,5,2,1:2:0:0:
337,115,105397,1,2,0:0:0:0:
351,152,105485,1,2,0:0:0:0:
345,191,105573,1,2,0:0:0:0:
325,226,105661,1,10,0:0:0:0:
225,272,105838,1,2,0:0:0:0:
225,272,105926,1,2,0:0:0:0:
225,272,106015,2,0,P|226:226|233:190,1,80,2|0,1:2|0:0,0:0:0:0:
458,29,106368,2,0,P|452:73|442:109,1,80,8|2,0:0|0:0,0:0:0:0:
443,107,106633,1,2,0:0:0:0:
443,107,106721,6,0,B|355:64|302:146,1,160,2|8,1:2|0:0,0:0:0:0:
143,196,107250,1,2,0:0:0:0:
134,156,107338,1,2,0:0:0:0:
142,118,107426,1,2,1:2:0:0:
167,87,107514,1,2,0:0:0:0:
201,66,107602,1,2,0:0:0:0:
375,209,107780,2,0,B|361:254|356:298,1,80,8|0,0:0|0:0,0:0:0:0:
209,369,108133,5,2,1:1:0:0:
172,356,108221,1,2,0:0:0:0:
133,346,108309,1,2,0:0:0:0:
93,339,108397,1,2,0:0:0:0:
54,339,108486,2,0,B|68:284|70:250,1,80,10|0,0:1|0:0,0:0:0:0:
248,228,108839,5,2,1:0:0:0:
285,215,108927,1,2,0:0:0:0:
324,205,109015,1,2,0:0:0:0:
364,198,109103,1,2,0:0:0:0:
403,198,109192,2,0,B|389:143|387:109,1,80,10|0,0:1|0:0,0:0:0:0:
254,34,109544,6,0,B|205:32|154:70|163:141,1,160,4|8,1:0|0:0,0:0:0:0:
260,306,110074,1,2,0:0:0:0:
260,306,110162,1,2,0:0:0:0:
260,306,110250,2,0,B|246:257|247:227,1,80,2|0,1:2|0:0,0:0:0:0:
90,212,110603,2,0,B|41:226|11:224,1,80,8|0,0:0|0:0,0:0:0:0:
253,121,110956,5,2,1:2:0:0:
292,123,111044,1,2,0:0:0:0:
332,126,111132,1,2,0:0:0:0:
372,131,111220,1,2,0:0:0:0:
412,136,111308,1,10,0:0:0:0:
491,24,111486,2,0,B|446:33|390:46,1,80,2|0,0:0|1:0,0:0:0:0:
342,0,111838,1,2,0:0:0:0:
162,159,112015,2,0,B|165:126|155:79,1,80,8|0,0:0|0:0,0:0:0:0:
318,178,112368,6,2,B|382:181|425:245|404:306,1,160,2|8,1:0|0:0,0:1:0:0:
234,218,112897,2,2,P|160:209|49:175,1,160,2|0,0:1|0:0,0:1:0:0:
39,264,113427,1,8,0:0:0:0:
203,133,113603,1,2,0:0:0:0:
317,276,113780,5,2,1:2:0:0:
350,254,113868,1,2,0:0:0:0:
387,238,113956,1,2,0:0:0:0:
426,229,114044,1,2,0:0:0:0:
466,228,114132,1,10,0:0:0:0:
267,378,114309,2,2,B|275:294|238:205,1,160,2|0,0:1|0:0,0:1:0:0:
410,8,114838,2,0,B|406:50|424:94,1,80,8|2,0:0|0:0,0:0:0:0:
421,86,115103,1,2,0:0:0:0:
421,86,115191,6,0,B|360:78|311:120|329:188,1,160,2|8,1:2|0:0,0:0:0:0:
232,312,115721,1,2,0:0:0:0:
232,312,115809,1,2,0:0:0:0:
232,312,115897,2,0,B|187:299|129:299,1,80,2|0,1:0|0:0,0:0:0:0:
387,384,116250,2,0,B|386:350|399:305,1,80,8|0,0:0|0:0,0:0:0:0:
208,58,116603,6,2,B|245:128|248:234,1,160,2|8,1:0|0:0,0:1:0:0:
76,374,117133,1,2,0:0:0:0:
76,374,117221,1,2,0:0:0:0:
76,374,117309,2,0,B|57:339|56:286,1,80,2|0,1:2|0:0,0:0:0:0:
246,211,117662,2,0,L|325:230,1,80,8|0,0:0|0:0,0:0:0:0:
171,56,118015,5,2,1:2:0:0:
132,65,118103,1,2,0:0:0:0:
101,90,118191,1,2,0:0:0:0:
84,126,118279,1,2,0:0:0:0:
83,166,118368,2,0,L|102:208,3,40,10|2|2|2,0:0|0:0|0:0|0:0,0:0:0:0:
175,258,118721,1,2,1:2:0:0:
212,243,118809,1,2,0:0:0:0:
250,231,118897,1,2,0:0:0:0:
288,220,118985,1,2,0:0:0:0:
327,213,119073,1,10,0:0:0:0:
366,204,119162,1,2,0:0:0:0:
405,197,119250,1,2,0:0:0:0:
444,188,119338,1,2,0:0:0:0:
483,182,119427,6,0,B|485:143|497:103,1,80,2|0,1:2|0:0,0:0:0:0:
343,0,119780,2,0,B|341:39|328:78,1,80,8|0,0:0|0:0,0:0:0:0:
421,275,120133,6,0,B|408:235|406:196,1,80,0|0,1:0|0:0,0:0:0:0:
240,107,120486,2,0,B|252:146|254:185,1,80,8|2,0:0|0:0,0:0:0:0:
254,185,120750,5,2,0:0:0:0:
254,185,120838,2,0,B|183:178|142:224|151:286,1,160,4|8,1:0|0:0,0:0:0:0:
326,295,121368,2,0,B|395:298|482:334,1,160,2|0,0:0|0:0,0:0:0:0:
499,253,121897,1,8,0:0:0:0:
499,253,122074,1,2,0:0:0:0:
248,367,122250,6,0,B|246:325|234:286,1,80,0|0,1:0|0:0,0:0:0:0:
285,224,122603,1,8,0:0:0:0:
117,152,122780,1,2,0:0:0:0:
117,152,122868,1,2,0:0:0:0:
117,152,122956,2,0,B|129:188|131:230,1,80,2|0,1:2|0:0,0:0:0:0:
240,104,123309,2,0,B|282:102|319:91,1,80,10|0,0:0|0:0,0:0:0:0:
479,264,123662,6,0,B|482:215|434:155|369:169,1,160,4|8,1:0|0:0,0:0:0:0:
305,231,124191,1,2,0:0:0:0:
305,231,124280,1,2,0:0:0:0:
305,231,124368,2,0,B|314:267|318:315,1,80,2|0,1:2|0:0,0:0:0:0:
391,364,124721,1,8,0:0:0:0:
187,351,124897,5,2,0:0:0:0:
187,351,124986,1,2,0:0:0:0:
187,351,125074,2,2,B|198:264|203:171,1,160,2|8,1:1|0:0,0:1:0:0:
377,31,125603,1,2,0:1:0:0:
337,26,125691,1,2,0:0:0:0:
301,45,125779,1,2,1:2:0:0:
284,81,125867,1,2,0:0:0:0:
282,120,125955,1,2,0:0:0:0:
357,183,126133,2,0,B|393:174|441:170,1,80,10|2,0:1|0:0,0:0:0:0:
435,170,126397,1,2,0:0:0:0:
435,170,126486,1,2,1:0:0:0:
256,192,126574,12,2,127721,0:0:0:0:
13,76,127897,5,2,1:1:0:0:
52,80,127985,1,2,0:0:0:0:
91,85,128073,1,2,0:0:0:0:
130,88,128161,1,2,0:0:0:0:
169,91,128249,1,10,0:0:0:0:
274,34,128427,1,2,0:0:0:0:
354,55,128603,2,0,B|376:88|371:158,1,80,2|0,1:0|0:0,0:0:0:0:
212,321,128956,2,0,B|190:288|195:218,1,80,8|0,0:0|0:0,0:0:0:0:
317,192,129309,5,2,1:1:0:0:
356,199,129397,1,2,0:0:0:0:
394,210,129485,1,2,0:0:0:0:
432,225,129573,1,2,0:0:0:0:
468,242,129661,1,10,0:0:0:0:
498,156,129838,5,2,0:0:0:0:
498,156,130015,1,0,1:0:0:0:
371,290,130191,1,2,0:0:0:0:
371,290,130368,1,8,0:0:0:0:
241,155,130544,1,2,0:0:0:0:
241,155,130633,1,2,0:0:0:0:
241,155,130721,1,2,1:2:0:0:
256,192,130809,12,2,131780,0:0:0:0:
412,31,131956,5,0,1:0:0:0:
412,31,132044,1,0,1:0:0:0:
412,31,132133,2,0,B|373:108|296:86,1,138.000002632141,6|0,0:0|0:0,0:0:0:0:
299,86,132486,2,0,L|284:39,1,46.0000008773804,8|0,0:0|0:0,0:0:0:0:
461,143,132662,2,0,B|457:196|442:241,1,92.0000017547608,2|0,0:0|0:0,0:0:0:0:
285,328,133015,5,2,0:0:0:0:
353,202,133191,1,10,0:0:0:0:
460,311,133368,1,2,0:0:0:0:
264,167,133544,6,0,B|188:131|125:202,1,138.000002632141,6|2,0:0|0:0,0:0:0:0:
137,189,133897,2,0,L|76:174,1,46.0000008773804,8|0,0:0|0:0,0:0:0:0:
194,326,134074,2,0,B|212:283|210:233,1,92.0000017547608,2|0,0:0|0:0,0:0:0:0:
131,94,134427,1,2,0:0:0:0:
131,94,134515,1,0,0:0:0:0:
131,94,134603,1,10,0:0:0:0:
9,200,134780,1,2,0:0:0:0:
300,276,134956,6,0,B|305:226|290:176,1,92.0000017547608,6|0,0:0|0:0,0:0:0:0:
292,184,135221,1,0,0:0:0:0:
292,184,135309,1,10,0:0:0:0:
187,22,135486,1,0,0:0:0:0:
131,94,135662,1,2,0:0:0:0:
131,94,135750,1,0,0:0:0:0:
131,94,135838,2,0,B|175:111|226:107,1,92.0000017547608,0|10,0:0|0:0,0:0:0:0:
434,213,136191,1,0,0:0:0:0:
494,149,136368,6,2,B|432:53|337:113,1,184.000003509522,6|8,0:0|0:0,0:0:0:0:
337,112,136897,1,0,0:0:0:0:
172,257,137074,1,0,0:0:0:0:
172,257,137162,1,0,0:0:0:0:
172,257,137250,2,0,B|154:206|164:162,1,92.0000017547608,2|10,0:0|0:0,0:0:0:0:
294,43,137603,1,2,0:0:0:0:
387,199,137780,6,0,B|390:273|341:360,1,138.000002632141,6|2,0:0|0:0,0:0:0:0:
356,332,138133,2,0,P|331:338|309:347,1,46.0000008773804,8|0,0:0|0:0,0:0:0:0:
259,276,138309,1,2,0:0:0:0:
448,384,138486,2,0,B|473:341|473:341|465:296,1,92.0000017547608,2|0,0:0|0:0,0:0:0:0:
312,102,138838,2,0,B|286:144|286:144|293:186,1,92.0000017547608,10|0,0:0|0:0,0:0:0:0:
402,65,139191,6,0,B|344:-30|239:34,1,184.000003509522,6|8,0:0|0:0,0:0:0:0:
84,84,139721,1,2,0:0:0:0:
12,148,139897,1,2,0:0:0:0:
12,148,139986,1,0,0:0:0:0:
12,148,140074,2,0,B|58:158|100:175,1,92.0000017547608,2|10,0:0|0:0,0:0:0:0:
182,271,140427,5,0,0:0:0:0:
182,271,140515,1,0,0:0:0:0:
182,271,140603,2,2,B|233:218|232:157|166:117,1,184.000003509522,6|8,0:0|0:0,0:0:0:0:
51,293,141133,1,2,0:0:0:0:
51,293,141221,1,0,0:0:0:0:
51,293,141309,2,2,B|97:388|208:351,1,184.000003509522,6|8,0:0|0:0,0:0:0:0:
330,384,141838,5,2,0:0:0:0:
330,384,141927,1,0,0:0:0:0:
330,384,142015,2,2,B|338:331|352:289,1,92.0000017547608,6|0,0:0|0:0,0:0:0:0:
188,171,142368,2,0,B|219:208|270:219,1,92.0000017547608,8|0,0:0|0:0,0:0:0:0:
433,331,142721,5,0,0:0:0:0:
455,290,142809,1,0,0:0:0:0:
461,245,142897,1,2,0:0:0:0:
439,205,142985,1,0,0:0:0:0:
403,178,143073,1,10,0:0:0:0:
323,145,143250,1,2,0:0:0:0:
504,10,143427,6,0,B|477:86|391:84,1,138.000002632141,14|2,0:0|0:0,0:0:0:0:
399,83,143780,2,0,L|354:60,1,46.0000008773804,8|0,0:0|0:0,0:0:0:0:
229,157,143956,2,0,B|204:196|211:254,1,92.0000017547608,2|0,0:0|0:0,0:0:0:0:
362,313,144309,1,2,0:0:0:0:
362,313,144397,1,0,0:0:0:0:
362,313,144486,2,0,B|387:274|380:224,1,92.0000017547608,10|2,0:0|0:0,0:0:0:0:
220,62,144838,5,6,0:0:0:0:
177,40,144926,1,0,0:0:0:0:
132,39,145014,1,0,0:0:0:0:
92,62,145102,1,2,0:0:0:0:
65,98,145190,1,8,0:0:0:0:
0,175,145368,2,0,B|40:193|98:197,1,92.0000017547608,2|0,0:0|0:0,0:0:0:0:
288,141,145721,1,2,0:0:0:0:
288,141,145809,1,0,0:0:0:0:
288,141,145897,2,0,B|307:102|301:48,1,92.0000017547608,10|2,0:0|0:0,0:0:0:0:
47,284,146250,6,0,B|80:320|129:342,1,92.0000017547608,6|0,0:0|0:0,0:0:0:0:
216,382,146603,1,10,0:0:0:0:
216,382,146691,1,0,0:0:0:0:
216,382,146780,1,0,0:0:0:0:
351,217,146956,1,2,0:0:0:0:
351,217,147044,1,0,0:0:0:0:
351,217,147133,1,0,0:0:0:0:
190,141,147309,2,0,B|180:180|199:232,1,92.0000017547608,10|0,0:0|0:0,0:0:0:0:
301,368,147662,5,6,0:0:0:0:
345,377,147750,1,0,0:0:0:0:
391,370,147838,1,0,0:0:0:0:
426,341,147926,1,0,0:0:0:0:
445,300,148015,2,0,B|464:260|462:203,1,92.0000017547608,8|0,0:0|0:0,0:0:0:0:
250,63,148368,5,4,0:0:0:0:
205,53,148456,1,0,0:0:0:0:
159,60,148544,1,2,0:0:0:0:
124,89,148632,1,0,0:0:0:0:
105,130,148721,2,0,B|86:170|88:227,1,92.0000017547608,10|2,0:0|0:0,0:0:0:0:
179,347,149074,6,0,B|217:273|174:198,1,138.000002632141,6|2,0:0|0:0,0:0:0:0:
182,214,149427,1,8,0:0:0:0:
17,110,149603,1,2,0:0:0:0:
17,110,149691,1,0,0:0:0:0:
17,110,149780,2,0,B|60:120|108:106,1,92.0000017547608,2|0,0:0|0:0,0:0:0:0:
316,10,150133,6,0,B|421:45|388:162,1,184.000003509522,10|2,0:0|0:0,0:0:0:0:
256,192,150574,12,2,151897,0:0:0:0:
335,295,153309,6,0,L|382:286,14,40,0|0|0|0|0|0|0|0|0|0|0|0|0|0|0,3:0|3:0|3:0|3:0|3:0|3:0|3:0|3:0|3:0|3:0|3:0|3:0|3:0|3:0|3:0,3:0:0:0:
277,223,155956,5,0,1:0:0:0:
277,223,156044,1,0,1:0:0:0:
277,223,156133,2,2,B|213:232|168:261|186:357,1,160,2|8,1:0|0:0,0:1:0:0:
105,203,156662,1,2,0:0:0:0:
105,203,156750,1,2,0:0:0:0:
105,203,156838,2,0,B|71:176|26:171,1,80,2|0,1:2|0:0,0:0:0:0:
230,30,157191,2,0,B|225:68|198:102,1,80,8|2,0:0|0:2,0:0:0:0:
198,102,157456,5,2,0:0:0:0:
198,102,157544,2,2,B|297:105|323:203,1,160,2|8,1:1|0:0,0:1:0:0:
250,262,158074,1,2,0:0:0:0:
372,359,158250,1,8,0:3:0:0:
372,359,158338,1,8,0:3:0:0:
426,204,158515,1,8,0:3:0:0:
426,204,158603,1,8,0:3:0:0:
253,368,158780,5,2,0:0:0:0:
253,368,158868,1,2,0:0:0:0:
253,368,158956,2,2,B|180:340|77:318,1,160,2|8,1:1|0:0,0:1:0:0:
40,195,159486,1,2,0:0:0:0:
79,197,159574,1,2,0:0:0:0:
116,182,159662,1,2,1:2:0:0:
143,153,159750,1,2,0:0:0:0:
155,115,159838,1,2,0:0:0:0:
100,39,160015,2,0,B|59:49|7:54,1,80,8|0,0:0|0:0,0:0:0:0:
242,169,160368,6,0,P|255:132|263:93,1,80,2|0,1:1|0:0,0:0:0:0:
413,124,160721,2,0,P|412:84|406:44,1,80,10|0,0:1|0:0,0:0:0:0:
312,222,161074,6,0,P|306:261|305:301,1,80,2|0,1:0|0:0,0:0:0:0:
512,264,161427,2,0,P|498:226|490:187,1,80,10|2,0:1|0:0,0:0:0:0:
490,187,161691,5,2,0:0:0:0:
490,187,161780,2,2,B|429:198|384:235|405:322,1,160,2|8,1:0|0:0,0:1:0:0:
249,196,162309,1,2,0:0:0:0:
249,196,162397,1,2,0:0:0:0:
249,196,162486,2,0,B|204:191|173:169,1,80,2|0,1:2|0:0,0:0:0:0:
69,303,162838,2,0,B|99:281|144:276,1,80,8|0,0:0|0:0,0:0:0:0:
342,175,163191,6,2,B|331:88|310:18,1,160,2|8,1:0|0:0,0:1:0:0:
132,73,163721,1,2,0:1:0:0:
163,50,163809,1,2,0:2:0:0:
202,50,163897,1,2,1:2:0:0:
235,72,163985,1,2,0:2:0:0:
249,109,164073,1,2,0:2:0:0:
422,241,164250,2,0,B|426:278|414:320,1,80,10|2,0:1|0:0,0:0:0:0:
414,320,164515,5,2,0:0:0:0:
414,320,164603,2,2,B|329:338|267:263,1,160,2|8,1:0|0:0,0:1:0:0:
191,320,165133,1,2,0:0:0:0:
106,202,165309,1,2,1:2:0:0:
106,202,165397,1,2,0:0:0:0:
106,202,165486,1,2,0:0:0:0:
29,255,165662,2,0,B|26:298|46:332,1,80,8|0,0:0|0:0,0:0:0:0:
191,178,166014,5,2,1:1:0:0:
183,138,166102,1,2,0:0:0:0:
172,100,166190,1,2,0:0:0:0:
155,64,166280,1,2,0:0:0:0:
133,30,166368,2,0,B|98:53|61:65,1,80,10|0,0:1|0:0,0:0:0:0:
326,165,166721,5,2,1:0:0:0:
319,204,166809,1,2,0:0:0:0:
308,242,166897,1,2,0:0:0:0:
291,278,166985,1,2,0:0:0:0:
269,312,167075,2,0,B|233:289|196:277,1,80,10|2,0:1|0:0,0:0:0:0:
196,277,167338,5,2,0:0:0:0:
196,277,167427,2,2,B|139:269|88:323|121:394,1,160,2|8,1:0|0:0,0:1:0:0:
373,358,167956,2,0,B|385:323|384:270,1,80,2|0,0:1|1:0,0:0:0:0:
384,279,168221,1,2,0:0:0:0:
384,279,168309,1,2,0:0:0:0:
238,195,168486,1,10,0:1:0:0:
320,101,168662,1,2,0:2:0:0:
320,101,168750,1,2,0:2:0:0:
320,101,168838,2,0,B|332:136|331:189,1,80,2|0,1:0|0:0,0:0:0:0:
187,352,169191,5,10,0:0:0:0:
147,351,169279,1,2,0:0:0:0:
110,336,169367,1,2,0:0:0:0:
82,308,169455,1,2,0:0:0:0:
66,271,169543,1,2,1:2:0:0:
63,232,169632,1,2,0:0:0:0:
70,192,169721,2,0,B|76:146|97:117,1,80,2|8,0:0|0:0,0:0:0:0:
248,43,170074,5,2,0:0:0:0:
248,43,170162,1,2,0:0:0:0:
248,43,170250,2,0,B|202:37|173:16,1,80,2|0,1:0|0:0,0:0:0:0:
13,107,170603,1,8,0:0:0:0:
158,236,170780,1,2,0:1:0:0:
158,236,170868,1,2,0:0:0:0:
158,236,170956,2,0,B|172:192|174:150,1,80,2|0,1:2|0:0,0:0:0:0:
361,21,171309,2,0,B|347:65|345:107,1,80,10|0,0:1|0:0,0:0:0:0:
423,259,171662,6,2,B|472:190|428:103,1,160,2|8,1:1|0:0,0:1:0:0:
430,107,172191,1,2,0:0:0:0:
268,47,172368,1,2,1:2:0:0:
268,47,172456,1,2,0:2:0:0:
268,47,172544,1,2,0:2:0:0:
200,106,172721,6,0,P|204:131|209:148,5,26.6666666666667,10|2|2|2|2|2,0:0|0:0|0:0|0:0|0:0|0:0,0:0:0:0:
238,168,173074,6,2,B|196:253|97:218,1,160,2|8,1:0|0:0,0:1:0:0:
47,159,173603,1,2,0:1:0:0:
100,339,173780,1,2,1:2:0:0:
100,339,173868,1,2,0:0:0:0:
100,339,173956,1,2,0:0:0:0:
3,359,174133,2,0,B|1:318|20:272,1,80,10|0,0:1|0:0,0:0:0:0:
146,101,174486,6,2,B|242:63|284:166,1,160,2|8,1:0|0:0,0:1:0:0:
419,280,175015,1,2,0:1:0:0:
482,229,175191,2,0,L|494:148,1,80,0|0,1:0|0:0,0:0:0:0:
202,198,175544,2,0,L|214:277,1,80,10|0,0:1|0:0,0:0:0:0:
402,133,175897,2,0,L|414:52,1,80,2|0,1:0|0:0,0:0:0:0:
340,15,176250,5,10,0:2:0:0:
300,3,176338,1,2,0:2:0:0:
261,0,176426,1,2,0:2:0:0:
220,4,176514,1,2,0:2:0:0:
185,23,176602,1,2,1:2:0:0:
157,51,176691,1,2,0:2:0:0:
137,86,176779,1,2,0:2:0:0:
123,123,176867,1,2,0:2:0:0:
115,162,176955,1,10,0:2:0:0:
293,235,177133,5,0,1:0:0:0:
293,235,177221,1,0,1:0:0:0:
293,235,177309,1,4,1:0:0:0:
256,192,177397,12,0,178368,0:0:0:0:
159,384,178544,5,0,1:0:0:0:
159,384,178632,1,0,1:0:0:0:
159,384,178721,2,0,B|123:274,1,90.0000034332277,4|2,1:0|0:0,0:0:0:0:
38,303,179250,1,2,0:0:0:0:
22,159,179603,2,0,L|9:218,2,60.0000022888184,2|2|2,0:0|0:0|0:0,0:0:0:0:
68,80,180133,2,0,P|105:106|154:114,1,90.0000034332277,2|2,0:0|0:0,0:0:0:0:
222,73,180662,1,2,0:0:0:0:
295,196,181015,6,0,L|284:261,2,60.0000022888184,2|2|2,0:0|0:0|0:0,0:0:0:0:
373,168,181544,2,0,B|416:116|376:46,1,120.000004577637,2|2,0:0|0:0,0:0:0:0:
192,231,182250,2,0,B|149:283|189:353,1,120.000004577637,2|2,0:0|0:0,0:0:0:0:
297,382,182956,1,2,0:0:0:0:
297,382,183838,6,0,L|356:370,2,60.0000022888184,2|2|2,0:0|0:0|0:0,0:0:0:0:
230,333,184368,2,0,B|225:287|250:245,1,90.0000034332277,2|2,0:0|0:0,0:0:0:0:
356,188,184897,2,0,L|342:121,1,60.0000022888184,2|2,0:0|0:0,0:0:0:0:
244,60,185427,1,2,0:0:0:0:
139,167,185780,1,2,0:0:0:0:
139,167,186309,6,0,L|204:178,2,60.0000022888184,2|2|2,0:0|0:0|0:0,0:0:0:0:
71,219,186838,2,0,L|11:208,1,60.0000022888184,2|2,0:0|0:0,0:0:0:0:
254,107,187191,6,0,B|307:162|273:250,1,143.999995605469,6|0,0:1|0:0,0:0:0:0:
93,353,187721,1,2,0:0:0:0:
93,353,187809,1,2,0:0:0:0:
93,353,187897,2,0,B|40:298|74:210,1,143.999995605469,6|0,0:1|0:0,0:0:0:0:
254,107,188427,1,2,0:0:0:0:
254,107,188515,1,2,0:0:0:0:
254,107,188603,2,0,B|307:162|273:250,1,143.999995605469,6|0,0:1|0:0,0:0:0:0:
256,192,189044,12,2,189662,0:0:0:0:
462,316,189838,5,0,1:0:0:0:
462,316,189926,1,0,1:0:0:0:
462,316,190015,2,0,B|392:286|324:273,1,138.000002632141,6|0,0:0|0:0,0:0:0:0:
330,274,190367,2,0,P|326:296|316:318,1,46.0000008773804,8|0,0:0|0:0,0:0:0:0:
155,171,190544,2,0,B|201:159|245:157,1,92.0000017547608,2|0,0:0|0:0,0:0:0:0:
333,183,190896,5,2,0:0:0:0:
190,83,191073,1,10,0:0:0:0:
313,21,191249,1,2,0:0:0:0:
252,251,191426,6,0,B|161:254|129:355,1,138.000002632141,6|2,0:0|0:0,0:0:0:0:
142,322,191779,2,0,B|120:318|84:298,1,46.0000008773804,8|0,0:0|0:0,0:0:0:0:
324,168,191956,2,0,B|385:158|458:208|457:282,1,184.000003509522,2|2,0:0|0:0,0:0:0:0:
228,122,192485,2,0,B|233:73|225:30,1,92.0000017547608,10|2,0:0|0:0,0:0:0:0:
43,178,192838,6,0,B|92:183|135:175,1,92.0000017547608,6|0,0:0|0:0,0:0:0:0:
134,175,193102,1,0,0:0:0:0:
134,175,193191,1,10,0:0:0:0:
232,326,193367,1,0,0:0:0:0:
147,367,193544,1,2,0:0:0:0:
147,367,193633,1,0,0:0:0:0:
147,367,193721,2,0,B|142:318|150:275,1,92.0000017547608,0|10,0:0|0:0,0:0:0:0:
225,226,194073,1,0,0:0:0:0:
310,279,194250,5,6,0:0:0:0:
355,285,194338,1,0,0:0:0:0:
400,295,194426,1,0,0:0:0:0:
444,307,194514,1,0,0:0:0:0:
488,321,194602,1,8,0:0:0:0:
481,226,194780,1,0,0:0:0:0:
395,39,194956,5,0,0:0:0:0:
351,52,195044,1,0,0:0:0:0:
316,82,195132,1,2,0:0:0:0:
307,127,195220,1,0,0:0:0:0:
317,171,195308,1,10,0:0:0:0:
396,205,195486,1,2,0:0:0:0:
251,334,195662,6,0,B|169:342|92:379,1,138.000002632141,6|2,0:0|0:0,0:0:0:0:
117,367,196015,2,0,B|114:337|109:322,1,46.0000008773804,8|0,0:0|0:0,0:0:0:0:
167,252,196191,1,2,0:0:0:0:
0,201,196368,2,0,B|36:193|91:188,1,92.0000017547608,2|0,0:0|0:0,0:0:0:0:
159,40,196721,2,0,B|164:95|171:131,1,92.0000017547608,10|0,0:0|0:0,0:0:0:0:
257,233,197074,5,6,0:0:0:0:
300,218,197162,1,0,0:0:0:0:
345,216,197250,1,0,0:0:0:0:
387,233,197338,1,0,0:0:0:0:
421,262,197426,1,8,0:0:0:0:
343,323,197603,1,2,0:0:0:0:
343,323,197691,1,0,0:0:0:0:
343,323,197780,2,0,B|288:329|239:356,1,92.0000017547608,2|2,0:0|0:0,0:0:0:0:
155,206,198133,2,0,B|100:200|66:181,1,92.0000017547608,10|0,0:0|0:0,0:0:0:0:
67,181,198397,5,0,0:0:0:0:
67,181,198486,2,2,B|8:202|-19:268|22:339,1,184.000003509522,6|8,0:0|0:0,0:0:0:0:
249,203,199015,1,2,0:0:0:0:
249,203,199103,1,0,0:0:0:0:
249,203,199191,2,2,B|232:114|218:-5,1,184.000003509522,6|8,0:0|0:0,0:0:0:0:
18,66,199721,5,2,0:0:0:0:
18,66,199809,1,0,0:0:0:0:
18,66,199897,2,2,B|65:61|109:76,1,92.0000017547608,6|0,0:0|0:0,0:0:0:0:
145,296,200250,2,0,B|140:249|155:205,1,92.0000017547608,8|0,0:0|0:0,0:0:0:0:
272,111,200603,1,0,0:0:0:0:
317,113,200691,1,0,0:0:0:0:
358,133,200779,1,2,0:0:0:0:
390,165,200867,1,0,0:0:0:0:
403,208,200955,1,10,0:0:0:0:
345,284,201133,1,2,0:0:0:0:
209,351,201309,6,0,B|139:350|71:359,1,138.000002632141,14|2,0:0|0:0,0:0:0:0:
71,359,201662,2,0,B|71:334|61:309,1,46.0000008773804,8|0,0:0|0:0,0:0:0:0:
232,124,201838,2,0,B|231:168|236:215,1,92.0000017547608,2|0,0:0|0:0,0:0:0:0:
141,238,202191,5,2,0:0:0:0:
48,79,202368,1,10,0:0:0:0:
4,210,202544,1,2,0:0:0:0:
162,72,202721,6,0,B|235:92|297:66,1,138.000002632141,6|2,0:0|0:0,0:0:0:0:
297,66,203074,2,0,B|300:43|295:20,1,46.0000008773804,8|0,0:0|0:0,0:0:0:0:
458,134,203250,2,0,B|448:180|449:225,1,92.0000017547608,2|0,0:0|0:0,0:0:0:0:
337,338,203603,1,2,0:0:0:0:
335,292,203691,1,0,0:0:0:0:
317,250,203779,1,10,0:0:0:0:
281,222,203867,1,0,0:0:0:0:
236,215,203955,1,2,0:0:0:0:
121,328,204133,6,0,B|166:307|210:307,1,92.0000017547608,6|0,0:0|0:0,0:0:0:0:
221,122,204486,2,0,B|176:101|131:101,1,92.0000017547608,10|0,0:0|0:0,0:0:0:0:
43,38,204838,6,0,B|88:17|132:17,1,92.0000017547608,2|0,0:0|0:0,0:0:0:0:
116,241,205191,2,0,B|71:220|26:220,1,92.0000017547608,10|0,0:0|0:0,0:0:0:0:
288,54,205544,5,6,0:0:0:0:
333,47,205632,1,0,0:0:0:0:
378,36,205720,1,0,0:0:0:0:
421,22,205808,1,0,0:0:0:0:
464,4,205897,2,0,B|477:56|497:110,1,92.0000017547608,8|0,0:0|0:0,0:0:0:0:
230,182,206250,5,4,0:0:0:0:
185,175,206338,1,0,0:0:0:0:
140,164,206426,1,2,0:0:0:0:
97,150,206514,1,0,0:0:0:0:
54,132,206603,2,0,B|40:184|20:238,1,92.0000017547608,10|2,0:0|0:0,0:0:0:0:
327,262,206956,6,0,B|351:192|308:130,1,138.000002632141,6|2,0:0|0:0,0:0:0:0:
308,130,207309,1,8,0:0:0:0:
126,265,207486,1,2,0:0:0:0:
126,265,207574,1,0,0:0:0:0:
126,266,207662,2,0,B|110:312|138:353,1,92.0000017547608,2|0,0:0|0:0,0:0:0:0:
231,108,208015,6,0,B|327:116|427:80,1,184.000003509522,10|2,0:0|0:0,0:0:0:0:
256,192,208456,12,2,209780,0:0:0:0:
402,47,210838,6,0,P|418:83|424:123,1,80,2|0,0:0|1:0,0:0:0:0:
424,123,211103,1,0,1:0:0:0:
424,123,211191,2,0,B|354:116|309:158|312:217,1,167.999994873047,4|8,1:0|0:0,0:0:0:0:
375,278,211721,1,2,0:0:0:0:
244,378,211897,1,2,1:2:0:0:
202,384,211985,1,2,0:0:0:0:
161,375,212073,1,2,0:0:0:0:
130,348,212161,1,2,0:0:0:0:
112,310,212249,1,10,0:0:0:0:
214,144,212427,5,2,0:0:0:0:
214,144,212515,1,2,0:0:0:0:
214,144,212603,2,0,B|229:184|217:237,1,83.9999974365235,2|0,1:2|0:0,0:0:0:0:
30,358,212956,2,0,B|-14:271|31:197,1,167.999994873047,8|2,0:0|1:2,0:0:0:0:
30,197,213397,1,2,0:0:0:0:
30,197,213486,1,2,0:0:0:0:
141,82,213662,1,8,0:0:0:0:
214,144,213838,5,2,0:0:0:0:
214,144,213927,1,2,0:0:0:0:
214,144,214015,2,0,B|262:133|308:131,1,83.9999974365235,2|0,1:2|0:0,0:0:0:0:
418,256,214368,2,0,B|370:245|324:243,1,83.9999974365235,8|0,0:0|0:0,0:0:0:0:
346,19,214721,1,2,1:2:0:0:
381,41,214809,1,2,0:0:0:0:
403,76,214897,1,2,0:0:0:0:
402,118,214985,1,2,0:0:0:0:
386,157,215073,1,10,0:0:0:0:
250,278,215250,1,2,0:0:0:0:
364,379,215427,5,2,1:2:0:0:
349,372,215544,2,0,P|352:343|359:315,1,55.9999982910157,2|2,0:2|0:0,0:0:0:0:
485,201,215780,1,2,1:2:0:0:
497,213,215897,2,0,P|505:243|507:270,1,55.9999982910157,2|2,0:2|0:0,0:0:0:0:
386,157,216133,2,0,L|392:113,5,34.6666650797527,2|2|2|2|2|2,1:2|0:0|0:0|0:0|0:0|0:0,0:0:0:0:
428,98,216486,2,0,L|422:54,6,34.6666650797527,2|2|2|2|2|2|2,1:2|0:0|0:0|0:0|0:0|0:0|0:0,0:0:0:0:
362,11,217191,5,4,1:0:0:0:
256,192,217280,12,2,218250,0:0:0:0:
