osu file format v14

[General]
AudioFilename: audio.mp3
AudioLeadIn: 0
PreviewTime: 60907
Countdown: 0
SampleSet: Soft
StackLeniency: 0.4
Mode: 0
LetterboxInBreaks: 0
WidescreenStoryboard: 1

[Editor]
DistanceSpacing: 1.4
BeatDivisor: 4
GridSize: 32
TimelineZoom: 1.7

[Metadata]
Title:Belief (TV Size)
TitleUnicode:Belief (TV Size)
Artist:May'n
ArtistUnicode:May'n
Creator:Sotarks
Version:Xahlt's Hard
Source:TABOO TATTOO
Tags:タブー・タトゥー japanese rock j-rock jrock female vocals vocalist anime op opening xahlt kuon- kowari sytho mayn
BeatmapID:3322676
BeatmapSetID:1627541

[Difficulty]
HPDrainRate:4
CircleSize:3.5
OverallDifficulty:6
ApproachRate:8
SliderMultiplier:1.3
SliderTickRate:1

[Events]
//Background and Video events
Video,0,"video.mp4"
0,0,"bg.jpg",0,0
//Break Periods
2,40987,48114
//Storyboard Layer 0 (Background)
//Storyboard Layer 1 (Fail)
//Storyboard Layer 2 (Pass)
//Storyboard Layer 3 (Foreground)
//Storyboard Layer 4 (Overlay)
//Storyboard Sound Samples

[TimingPoints]
403,288.461538461538,4,2,22,45,1,0
403,-142.857142857143,4,2,22,45,0,0
6172,-125,4,2,22,60,0,0
10787,-111.111111111111,4,2,22,60,0,0
12951,-100,4,2,22,65,0,0
22326,-125,4,2,22,50,0,0
26941,-125,4,2,22,65,0,0
31556,-111.111111111111,4,2,22,60,0,0
40787,-111.111111111111,4,2,22,40,0,0
48864,-111.111111111111,4,2,22,60,0,0
50018,-111.111111111111,4,2,22,55,0,0
54633,-111.111111111111,4,2,22,60,0,0
60979,-111.111111111111,4,2,22,50,0,0
61412,-90.9090909090908,4,2,22,70,0,0
77566,-100,4,2,22,70,0,0
84633,-100,4,2,22,65,0,0

[Colours]
Combo1 : 184,126,231
Combo2 : 237,193,255
Combo3 : 224,221,207

[HitObjects]
28,72,979,5,2,2:0:0:0:
28,72,1412,6,0,P|95:78|160:98,1,136.499995834351,2|2,2:0|2:0,0:0:0:0:
215,154,1989,1,2,2:0:0:0:
281,113,2133,2,0,P|278:88|270:50,1,45.4999986114502,2|2,2:0|2:0,0:0:0:0:
423,26,2566,6,0,P|428:74|436:127,1,90.9999972229005,2|2,2:0|2:0,0:0:0:0:
486,173,2999,2,0,P|491:197|497:226,1,45.4999986114502,2|2,2:0|2:0,0:0:0:0:
449,279,3287,1,2,2:0:0:0:
449,279,3431,1,2,2:0:0:0:
297,244,3720,6,0,P|253:254|210:267,1,90.9999972229005,2|2,2:0|2:0,0:0:0:0:
174,116,4297,2,0,P|218:105|261:92,1,90.9999972229005,2|2,2:0|2:0,0:0:0:0:
150,200,4874,1,2,2:0:0:0:
474,371,5595,6,0,B|525:307|525:307|493:278|465:245,1,159.249995140076,2|0,2:0|2:0,0:0:0:0:
462,238,6172,6,0,B|407:223|341:270|405:283|337:325|269:308,1,208,6|0,1:2|2:0,0:0:0:0:
62,31,7326,6,0,P|104:17|199:140,1,208,6|0,1:2|2:0,0:0:0:0:
94,216,8191,1,0,0:0:0:0:
201,313,8479,6,0,P|150:324|101:338,2,104,6|0|0,1:2|1:2|1:2,0:0:0:0:
307,212,9345,1,0,1:2:0:0:
421,301,9633,2,0,B|455:342|455:342|421:382,2,104,0|0|0,1:2|1:2|1:2,0:0:0:0:
307,212,10499,1,8,2:0:0:0:
316,197,10787,6,0,P|306:140|297:82,1,116.999996429443,14|0,2:0|1:2,0:0:0:0:
349,18,11220,1,10,2:0:0:0:
418,61,11364,2,0,P|446:55|475:48,1,58.4999982147217,0|0,1:2|1:2,0:0:0:0:
497,127,11652,2,0,P|468:132|439:139,1,58.4999982147217,10|0,2:0|1:2,0:0:0:0:
431,152,11869,1,0,1:2:0:0:
421,164,11941,6,0,P|427:192|433:221,1,58.4999982147217,10|0,2:0|1:2,0:0:0:0:
379,282,12229,2,0,P|385:310|391:339,1,58.4999982147217,10|0,2:0|1:2,0:0:0:0:
321,382,12518,1,10,2:0:0:0:
243,310,12662,2,0,P|228:314|214:317,3,29.2499991073609,10|0|0|0,2:0|0:0|0:0|0:0,0:0:0:0:
202,333,12951,6,0,B|146:366|146:366|76:322,1,130,6|0,1:2|1:2,0:0:0:0:
24,269,13383,2,0,P|32:237|45:196,1,65,8|0,2:0|2:0,0:0:0:0:
111,147,13672,1,2,1:2:0:0:
182,202,13816,2,0,P|215:198|263:190,1,65,2|8,1:2|2:0,0:0:0:0:
308,127,14104,6,0,B|336:62|336:62|309:40|279:11,2,130,2|0|0,2:0|1:2|2:0,0:0:0:0:
375,189,14826,1,2,1:2:0:0:
375,189,14970,2,0,P|406:185|458:168,1,65,0|10,1:2|2:0,0:0:0:0:
496,269,15258,6,0,P|430:280|353:301,1,130,6|0,1:2|1:2,0:0:0:0:
286,254,15691,2,0,P|257:267|232:288,1,65,10|0,2:0|2:0,0:0:0:0:
164,348,15979,1,2,1:2:0:0:
85,301,16124,2,0,P|78:269|72:237,1,65,0|10,1:2|2:0,0:0:0:0:
31,156,16412,6,0,B|-7:107|-7:107|33:19,2,130,2|0|0,2:0|1:2|1:2,0:0:0:0:
72,237,17133,1,10,2:0:0:0:
149,187,17277,1,8,2:3:0:0:
149,187,17422,1,8,2:3:0:0:
247,262,17566,6,0,B|288:275|288:275|313:307|313:307|374:325,1,130,6|0,1:2|2:0,0:0:0:0:
438,278,17999,2,0,P|448:247|439:216,1,65,10|2,2:0|2:0,0:0:0:0:
358,175,18287,2,0,P|354:143|369:114,1,65,2|0,1:2|1:2,0:0:0:0:
436,52,18576,1,10,2:0:0:0:
436,52,18720,1,0,2:0:0:0:
359,2,18864,6,0,P|296:10|200:26,1,130,2|8,1:2|2:0,0:0:0:0:
138,15,19297,2,0,B|97:66|97:66|146:123,1,130,0|0,2:0|1:2,0:0:0:0:
216,162,19729,1,8,2:0:0:0:
137,253,19874,6,0,P|72:263|8:271,1,130,6|0,1:2|1:2,0:0:0:0:
54,349,20306,2,0,P|84:345|137:338,1,65,10|0,2:0|1:2,0:0:0:0:
202,376,20595,2,0,P|232:372|285:365,1,65,10|0,2:0|1:2,0:0:0:0:
337,310,20883,1,10,2:0:0:0:
442,340,21027,6,0,B|481:289|481:289|432:223,1,130,6|0,1:2|1:2,0:0:0:0:
428,225,21388,1,0,1:2:0:0:
412,209,21460,2,0,P|382:213|329:220,1,65,10|0,2:0|1:2,0:0:0:0:
267,172,21749,1,10,2:0:0:0:
184,263,21893,1,10,2:0:0:0:
54,47,22326,6,0,P|105:53|156:63,1,104,6|2,1:2|1:2,0:0:0:0:
210,118,22758,1,0,2:0:0:0:
267,172,22902,2,0,P|321:171|361:139,1,104,2|2,1:2|1:2,0:0:0:0:
398,73,23335,6,0,P|390:47|383:23,1,52,2|0,2:0|1:2,0:0:0:0:
459,6,23624,2,0,P|466:31|473:55,1,52,2|0,2:0|1:2,0:0:0:0:
453,131,23912,2,0,P|466:181|477:232,1,104,2|2,2:0|2:0,0:0:0:0:
435,316,24345,1,8,2:0:0:0:
415,308,24633,6,0,P|365:320|295:338,1,104,0|2,0:0|1:2,0:0:0:0:
253,382,25066,1,0,2:0:0:0:
186,340,25210,2,0,P|189:314|194:273,1,52,2|2,1:2|2:0,0:0:0:0:
257,146,25643,6,0,P|282:142|308:140,1,52,10|0,2:0|1:2,0:0:0:0:
298,63,25931,2,0,P|272:66|246:68,1,52,2|0,2:0|1:2,0:0:0:0:
164,115,26220,2,0,P|117:96|59:118,1,104,10|10,2:0|2:0,0:0:0:0:
2,178,26652,2,0,P|6:194|11:214,3,26,10|0|0|0,2:0|0:0|1:2|0:0,0:0:0:0:
30,216,26941,6,0,P|23:268|16:320,1,104,14|0,2:0|1:2,0:0:0:0:
98,333,27374,2,0,P|104:281|111:229,1,104,10|0,2:0|1:2,0:0:0:0:
187,263,27806,2,0,P|183:293|178:330,1,52,14|0,2:0|1:2,0:0:0:0:
282,378,28095,6,0,P|333:371|385:366,1,104,10|0,2:0|1:2,0:0:0:0:
375,284,28527,2,0,P|323:290|271:295,1,104,10|0,2:0|1:2,0:0:0:0:
287,213,28960,2,0,P|316:211|347:207,1,52,0|0,1:2|1:2,0:0:0:0:
433,134,29249,6,0,B|456:88|456:88|411:27,1,104,14|0,2:0|2:0,0:0:0:0:
350,9,29681,1,14,2:0:0:0:
282,58,29826,2,0,P|227:67|155:77,1,104,0|14,1:2|2:0,0:0:0:0:
140,147,30258,1,0,1:2:0:0:
207,193,30402,6,0,P|233:188|258:182,1,52,10|0,2:0|1:2,0:0:0:0:
279,263,30691,2,0,P|253:267|228:273,1,52,10|0,2:0|1:2,0:0:0:0:
176,338,30979,2,0,P|160:335|135:330,3,26,0|0|0|0,1:2|1:2|1:2|1:2,0:0:0:0:
109,324,31268,1,8,2:0:0:0:
31,153,31556,6,0,B|2:101|2:101|53:46,1,116.999996429443,6|10,1:2|2:0,0:0:0:0:
108,1,31989,1,2,2:0:0:0:
173,66,32133,1,2,1:2:0:0:
173,66,32277,2,0,P|201:61|243:47,1,58.4999982147217,2|8,1:2|2:0,0:0:0:0:
306,8,32566,6,0,P|331:15|366:23,1,58.4999982147217,2|0,1:2|0:0,0:0:0:0:
450,19,32854,2,0,P|442:47|435:75,1,58.4999982147217,2|8,1:2|2:0,0:0:0:0:
486,147,33143,2,0,P|436:119|384:140,1,116.999996429443,2|0,2:0|1:2,0:0:0:0:
321,202,33576,1,10,2:0:0:0:
174,105,33864,6,0,B|211:149|211:149|178:209,1,116.999996429443,2|10,1:2|2:0,0:0:0:0:
124,267,34297,1,2,2:0:0:0:
193,329,34441,1,2,1:2:0:0:
192,329,34585,2,0,P|221:323|250:318,1,58.4999982147217,2|8,1:2|2:0,0:0:0:0:
324,367,34874,6,0,P|352:361|381:356,1,58.4999982147217,2|0,1:2|0:0,0:0:0:0:
467,374,35162,2,0,P|461:345|456:316,1,58.4999982147217,2|10,1:2|2:0,0:0:0:0:
498,238,35451,2,0,B|523:184|523:184|486:132,1,116.999996429443,0|0,1:2|1:2,0:0:0:0:
412,95,35883,1,10,2:0:0:0:
312,239,36172,5,6,1:2:0:0:
275,318,36316,2,0,P|247:311|218:304,1,58.4999982147217,0|10,0:0|2:0,0:0:0:0:
152,363,36604,2,0,P|97:379|47:338,1,116.999996429443,2|2,2:0|1:2,0:0:0:0:
3,272,37037,1,8,2:0:0:0:
56,202,37181,2,0,P|110:199|198:192,1,116.999996429443,2|0,1:2|1:2,0:0:0:0:
235,132,37614,1,10,2:0:0:0:
388,216,37902,6,0,P|397:243|403:272,1,58.4999982147217,2|0,1:2|1:2,0:0:0:0:
487,245,38191,2,0,P|477:217|471:188,1,58.4999982147217,10|0,2:0|1:2,0:0:0:0:
507,83,38479,6,0,P|451:79|371:55,1,116.999996429443,14|0,2:0|1:2,0:0:0:0:
319,13,38912,1,14,2:0:0:0:
249,66,39056,2,0,B|210:110|210:110|254:169,1,116.999996429443,0|10,2:0|2:0,0:0:0:0:
305,220,39489,1,0,2:0:0:0:
246,284,39633,6,0,P|190:288|110:312,1,116.999996429443,10|10,2:0|2:0,0:0:0:0:
64,361,40066,1,0,1:2:0:0:
6,294,40210,2,0,P|10:265|16:236,1,58.4999982147217,10|0,2:0|1:2,0:0:0:0:
83,179,40499,2,0,P|76:150|69:121,1,58.4999982147217,2|8,1:2|2:0,0:0:0:0:
4,63,40787,5,2,2:0:0:0:
486,30,48864,6,0,B|427:12|427:12|377:62,1,116.999996429443,14|10,2:0|2:0,0:0:0:0:
328,116,49297,2,0,P|267:122|198:86,1,116.999996429443,6|8,1:2|2:3,0:0:0:0:
205,83,49657,1,0,2:0:0:0:
183,74,49729,2,0,P|162:81|148:87,3,29.2499991073609,8|0|4|0,2:3|2:0|2:3|2:0,0:0:0:0:
131,93,50018,6,0,P|75:81|29:120,1,116.999996429443,6|2,1:2|1:2,0:0:0:0:
17,203,50451,2,0,P|44:209|93:219,1,58.4999982147217,0|2,2:0|1:2,0:0:0:0:
56,301,50739,2,0,P|28:294|-20:285,1,58.4999982147217,0|0,2:0|1:2,0:0:0:0:
142,273,51027,6,0,B|198:255|198:255|261:297,1,116.999996429443,2|0,2:0|2:0,0:0:0:0:
311,346,51460,1,0,1:2:0:0:
329,338,51749,1,0,1:2:0:0:
347,330,52037,2,0,P|373:318|401:308,1,58.4999982147217,10|0,2:0|2:0,0:0:0:0:
477,213,52326,6,0,P|419:206|346:187,1,116.999996429443,2|2,1:2|1:2,0:0:0:0:
301,128,52758,2,0,P|273:135|245:143,1,58.4999982147217,0|2,2:0|1:2,0:0:0:0:
222,58,53047,2,0,P|250:50|278:42,1,58.4999982147217,0|0,2:0|1:2,0:0:0:0:
160,122,53335,6,0,P|113:110|42:145,1,116.999996429443,2|0,2:0|2:0,0:0:0:0:
4,209,53768,2,0,P|12:236|20:265,1,58.4999982147217,2|0,1:2|2:0,0:0:0:0:
0,362,54056,2,0,P|40:346|84:344,1,87.7499973220826,10|8,2:0|2:0,0:0:0:0:
102,332,54345,2,0,P|130:338|176:366,1,58.4999982147217,0|8,0:0|2:0,0:0:0:0:
239,381,54633,6,0,P|267:376|314:368,1,58.4999982147217,10|0,2:0|1:2,0:0:0:0:
397,227,55066,1,10,2:0:0:0:
397,227,55210,1,0,1:2:0:0:
234,159,55499,6,0,P|262:154|309:146,1,58.4999982147217,10|0,2:0|1:2,0:0:0:0:
411,20,55932,1,10,2:0:0:0:
411,20,56076,6,0,P|439:26|468:31,1,58.4999982147217,0|0,1:2|0:0,0:0:0:0:
447,116,56364,2,0,P|418:109|389:104,1,58.4999982147217,10|0,2:0|1:2,0:0:0:0:
321,49,56652,2,0,P|292:54|263:61,1,58.4999982147217,10|0,2:0|1:2,0:0:0:0:
152,57,56941,6,0,P|161:85|173:129,1,58.4999982147217,10|0,2:0|1:2,0:0:0:0:
290,247,57374,1,10,2:0:0:0:
290,247,57518,1,0,1:2:0:0:
156,360,57806,6,0,P|148:331|139:304,1,58.4999982147217,10|2,2:0|1:2,0:0:0:0:
7,187,58239,1,8,2:0:0:0:
7,187,58383,2,0,P|51:185|91:158,1,87.7499973220826,0|0,1:0|1:0,0:0:0:0:
108,158,58672,2,0,P|127:135|139:108,1,58.4999982147217,10|10,2:0|2:0,0:0:0:0:
75,48,58960,1,10,2:0:0:0:
169,0,59104,1,14,2:0:0:0:
206,66,61412,6,0,B|227:27|282:30|282:30|291:70|339:90,1,143.000004364014,6|0,1:2|1:2,0:0:0:0:
409,42,61845,1,10,2:0:0:0:
409,42,61989,1,2,2:0:0:0:
475,116,62133,1,2,1:2:0:0:
411,193,62277,2,0,P|374:200|314:216,1,71.5000021820069,2|8,1:2|2:0,0:0:0:0:
223,175,62566,6,0,B|164:145|164:145|136:175|104:207,1,143.000004364014,2|2,1:2|1:2,0:0:0:0:
24,249,62999,1,10,2:0:0:0:
24,249,63143,1,2,2:0:0:0:
25,348,63287,1,2,1:2:0:0:
119,379,63431,2,0,P|153:371|189:365,1,71.5000021820069,2|10,1:2|2:0,0:0:0:0:
297,305,63720,6,0,P|269:284|252:224,1,71.5000021820069,6|0,1:2|2:0,0:0:0:0:
142,278,64008,2,0,P|146:243|189:198,1,71.5000021820069,2|8,1:2|2:0,0:0:0:0:
92,124,64297,2,0,P|124:110|184:125,1,71.5000021820069,2|0,2:0|1:2,0:0:0:0:
202,6,64585,2,0,P|230:27|247:86,1,71.5000021820069,2|8,1:2|2:0,0:0:0:0:
351,14,64874,6,0,P|363:61|320:143,1,143.000004364014,2|0,1:2|1:2,0:0:0:0:
240,200,65306,2,0,P|202:197|153:189,1,71.5000021820069,10|0,2:0|1:0,0:0:0:0:
90,253,65595,1,8,2:3:0:0:
90,253,65739,1,8,2:3:0:0:
12,189,65883,1,10,2:0:0:0:
65,83,66027,6,0,P|137:76|206:60,1,143.000004364014,6|0,1:2|1:2,0:0:0:0:
292,8,66460,2,0,P|326:13|371:25,1,71.5000021820069,10|0,2:0|2:0,0:0:0:0:
447,85,66749,1,2,1:2:0:0:
447,85,66893,1,0,1:2:0:0:
368,146,67037,1,10,2:0:0:0:
474,225,67181,6,0,B|513:285|513:285|489:314|453:362,1,143.000004364014,4|0,1:2|1:2,0:0:0:0:
375,378,67614,2,0,P|338:371|286:365,1,71.5000021820069,10|0,2:0|2:0,0:0:0:0:
227,303,67902,2,0,P|160:311|67:336,1,143.000004364014,2|10,1:2|2:0,0:0:0:0:
13,242,68335,6,0,B|-22:187|-22:187|-3:164|34:119,1,143.000004364014,4|0,1:2|1:2,0:0:0:0:
90,48,68768,2,0,P|124:58|158:69,1,71.5000021820069,10|0,2:0|1:2,0:0:0:0:
257,66,69056,2,0,P|245:99|235:134,1,71.5000021820069,10|0,2:0|1:2,0:0:0:0:
173,213,69345,2,0,P|207:223|241:234,1,71.5000021820069,10|0,2:0|1:2,0:0:0:0:
308,308,69633,5,8,2:0:0:0:
336,301,69705,1,0,1:2:0:0:
362,288,69777,1,0,1:2:0:0:
436,219,69922,2,0,P|430:201|425:184,3,35.7500010910034,8|0|0|0,2:3|1:2|1:2|1:2,0:0:0:0:
398,160,70210,1,10,2:0:0:0:
476,67,70354,1,6,1:2:0:0:
484,57,70643,6,0,B|463:18|408:21|408:21|399:61|351:81,1,143.000004364014,6|0,1:2|1:2,0:0:0:0:
286,24,71076,1,10,2:0:0:0:
286,24,71220,1,2,2:0:0:0:
219,98,71364,1,2,1:2:0:0:
135,43,71508,2,0,P|100:51|65:57,1,71.5000021820069,2|8,1:2|2:0,0:0:0:0:
3,162,71797,6,0,P|67:173|151:195,1,143.000004364014,2|2,1:2|1:2,0:0:0:0:
242,222,72229,1,10,2:0:0:0:
242,222,72374,1,2,2:0:0:0:
331,178,72518,1,2,1:2:0:0:
393,256,72662,2,0,P|385:291|378:338,1,71.5000021820069,2|10,1:2|2:0,0:0:0:0:
264,383,72951,6,0,P|236:358|225:321,1,71.5000021820069,6|0,1:2|2:0,0:0:0:0:
104,332,73239,2,0,P|111:295|138:267,1,71.5000021820069,2|8,1:2|2:0,0:0:0:0:
57,175,73527,2,0,P|92:163|130:172,1,71.5000021820069,2|0,2:0|1:2,0:0:0:0:
161,53,73816,2,0,P|189:78|200:115,1,71.5000021820069,2|8,1:2|2:0,0:0:0:0:
317,79,74104,6,0,P|317:119|238:197,1,143.000004364014,2|2,1:2|1:2,0:0:0:0:
309,276,74537,2,0,P|342:270|394:262,1,71.5000021820069,10|0,2:0|1:2,0:0:0:0:
472,303,74826,1,10,2:0:0:0:
511,211,74970,2,0,P|513:179|490:129,1,71.5000021820069,0|10,1:2|2:0,0:0:0:0:
326,43,75402,6,0,B|277:87|277:87|241:72|185:55,1,143.000004364014,6|10,1:2|2:0,0:0:0:0:
112,19,75835,1,0,0:0:0:0:
50,97,75979,2,0,P|59:131|70:174,1,71.5000021820069,2|0,1:2|1:2,0:0:0:0:
17,252,76268,1,8,2:0:0:0:
101,305,76412,2,0,P|174:309|226:260,1,143.000004364014,2|0,2:0|1:2,0:0:0:0:
286,186,76845,6,0,P|275:151|262:118,1,71.5000021820069,10|0,2:0|2:0,0:0:0:0:
358,89,77133,2,0,P|368:123|381:156,1,71.5000021820069,0|10,1:2|2:0,0:0:0:0:
473,196,77422,1,10,2:0:0:0:
446,291,77566,6,0,P|385:275|328:303,1,130,6|2,1:2|1:2,0:0:0:0:
258,362,77999,2,0,P|222:357|190:340,1,65,8|0,2:0|0:0,0:0:0:0:
142,271,78287,1,0,1:2:0:0:
142,271,78431,1,0,1:2:0:0:
216,217,78576,1,8,2:0:0:0:
166,42,78864,6,0,B|110:6|110:6|77:35|40:66,1,130,2|10,1:2|2:0,0:0:0:0:
6,120,79297,1,0,2:0:0:0:
89,172,79441,2,0,P|108:164|139:156,3,32.5,8|8|0|0,2:0|2:0|1:2|1:2,0:0:0:0:
155,133,79729,2,0,P|175:138|205:151,3,32.5,0|0|0|0,1:2|1:2|1:2|1:2,0:0:0:0:
224,118,80018,6,0,P|272:158|276:221,1,130,14|10,2:0|2:0,0:0:0:0:
190,253,80451,2,0,P|154:248|118:244,1,65,0|10,1:2|2:0,0:0:0:0:
52,298,80739,1,0,1:2:0:0:
111,366,80883,2,0,P|143:369|175:374,1,65,10|0,2:0|1:2,0:0:0:0:
256,332,81172,1,10,2:0:0:0:
359,384,81316,6,0,B|403:344|403:344|389:309|370:255,1,130,0|0,1:2|1:2,0:0:0:0:
302,227,81749,2,0,P|308:196|318:153,1,65,10|0,2:0|1:2,0:0:0:0:
392,115,82037,2,0,P|386:84|376:41,1,65,10|0,2:0|1:2,0:0:0:0:
384,39,82253,1,0,1:2:0:0:
394,26,82326,6,0,P|446:17|496:93,1,130,14|10,2:0|2:0,0:0:0:0:
478,158,82758,2,0,P|470:189|464:221,1,65,0|10,1:2|2:0,0:0:0:0:
504,303,83047,1,0,1:2:0:0:
422,345,83191,2,0,P|392:335|360:328,1,65,10|0,2:0|1:2,0:0:0:0:
270,345,83479,6,0,P|277:313|283:281,1,65,10|0,2:0|1:2,0:0:0:0:
231,206,83768,1,10,2:0:0:0:
161,264,83912,1,8,2:0:0:0:
152,274,83984,1,8,2:0:0:0:
140,287,84056,2,0,P|103:281|60:275,1,65,8|8,2:0|2:3,0:0:0:0:
38,193,84345,2,0,P|70:188|102:183,1,65,8|4,2:3|2:3,0:0:0:0:
183,108,84633,5,6,1:2:0:0:
183,108,85643,6,0,B|236:68|236:68|261:83|291:98,1,130,6|0,1:2|1:2,0:0:0:0:
372,142,86076,1,10,2:0:0:0:
372,142,86797,5,0,0:0:0:0:
256,192,86941,12,0,88672,0:0:0:0:
