osu file format v14

[General]
AudioFilename: audio.mp3
AudioLeadIn: 0
PreviewTime: 60907
Countdown: 0
SampleSet: Soft
StackLeniency: 0.4
Mode: 0
LetterboxInBreaks: 0
WidescreenStoryboard: 0

[Editor]
DistanceSpacing: 0.9
BeatDivisor: 4
GridSize: 4
TimelineZoom: 1

[Metadata]
Title:Belief (TV Size)
TitleUnicode:Belief (TV Size)
Artist:May'n
ArtistUnicode:May'n
Creator:Sotarks
Version:Sytho's Normal
Source:TABOO TATTOO
Tags:タブー・タトゥー japanese rock j-rock jrock female vocals vocalist anime op opening xahlt kuon- kowari sytho mayn
BeatmapID:3322673
BeatmapSetID:1627541

[Difficulty]
HPDrainRate:3
CircleSize:3.4
OverallDifficulty:5
ApproachRate:6
SliderMultiplier:1
SliderTickRate:1

[Events]
//Background and Video events
Video,0,"video.mp4"
0,0,"bg.jpg",0,0
//Break Periods
//Storyboard Layer 0 (Background)
//Storyboard Layer 1 (Fail)
//Storyboard Layer 2 (Pass)
//Storyboard Layer 3 (Foreground)
//Storyboard Layer 4 (Overlay)
//Storyboard Sound Samples

[TimingPoints]
403,288.461538461538,4,2,22,45,1,0
979,-111.111111111111,4,2,22,45,0,0
6172,-100,4,2,22,60,0,0
12951,-100,4,2,22,65,0,0
22326,-111.111111111111,4,2,22,50,0,0
26941,-100,4,2,22,65,0,0
31556,-100,4,2,22,60,0,0
40787,-111.111111111111,4,2,22,40,0,0
48864,-100,4,2,22,60,0,0
50018,-100,4,2,22,55,0,0
54633,-100,4,2,22,60,0,0
60979,-100,4,2,22,50,0,0
61412,-95.2380952380952,4,2,22,70,0,1
84633,-111.111111111111,4,2,22,65,0,0

[Colours]
Combo1 : 184,126,231
Combo2 : 237,193,255
Combo3 : 224,221,207

[HitObjects]
39,102,979,6,0,L|144:90,1,90.0000000000001,2|0,2:0|2:0,2:0:0:0:
157,119,1412,2,0,B|204:110|231:140|214:149|232:175|293:174,1,135,2|2,2:0|2:0,2:0:0:0:
339,126,2133,2,0,L|328:67,1,45,2|2,2:0|2:0,2:0:0:0:
407,55,2566,2,0,L|433:195,1,135,2|2,2:0|2:0,2:0:0:0:
471,258,3287,2,0,L|412:274,1,45,2|2,2:0|2:0,2:0:0:0:
382,337,3720,6,0,P|335:311|292:319,1,90.0000000000001,2|2,2:0|2:0,2:0:0:0:
225,346,4297,2,0,L|116:360,1,90.0000000000001,2|2,2:0|2:0,2:0:0:0:
55,370,4874,1,2,2:0:0:0:
55,370,5595,2,0,P|36:299|82:256,1,135,2|0,2:0|2:0,2:0:0:0:
117,247,6172,6,0,B|157:214|157:214|128:53,1,200,6|0,1:2|2:0,2:0:0:0:
302,12,7326,2,0,B|399:20|399:20|396:24|396:24|496:35,1,200,6|0,1:2|2:0,2:0:0:0:
451,209,8479,6,0,P|397:222|345:192,1,100,6|0,1:2|1:2,2:0:0:0:
277,163,9056,2,0,P|231:145|183:159,1,100,0|0,1:2|1:2,2:0:0:0:
118,220,9633,2,0,L|129:342,1,100,0|0,1:2|1:2,2:0:0:0:
38,338,10210,1,0,1:0:0:0:
13,251,10499,1,8,0:0:0:0:
29,162,10787,6,0,B|46:110|46:110|110:92,1,100,14|0,2:0|1:2,2:0:0:0:
133,85,11220,2,0,L|245:78,1,100,10|0,2:0|1:2,2:0:0:0:
265,109,11652,1,10,2:0:0:0:
335,52,11941,2,0,P|401:32|441:57,1,100,10|10,2:0|2:0,2:0:0:0:
459,74,12374,1,0,1:2:0:0:
459,74,12518,2,0,L|454:153,1,50,10|10,2:0|2:0,2:0:0:0:
468,213,12951,6,0,B|434:204|434:204|335:213,1,100,6|0,1:2|1:2,2:0:0:0:
329,230,13383,2,0,L|336:342,1,100,8|2,2:0|1:2,2:0:0:0:
299,357,13816,1,2,1:2:0:0:
213,328,14104,2,0,P|187:262|210:208,1,100,2|0,2:0|1:2,2:0:0:0:
221,150,14681,2,0,L|334:137,1,100,0|0,2:0|1:2,2:0:0:0:
354,108,15114,1,10,2:0:0:0:
354,108,15258,6,0,P|365:50|317:11,1,100,6|0,1:2|1:2,2:0:0:0:
297,10,15691,2,0,L|187:24,1,100,10|2,2:0|1:2,2:0:0:0:
177,63,16124,1,0,1:2:0:0:
90,40,16412,2,0,P|44:71|49:146,1,100,2|0,2:0|1:2,2:0:0:0:
43,156,16845,1,10,2:0:0:0:
51,245,17133,2,0,L|60:328,1,50,10|8,2:0|2:3,2:0:0:0:
66,338,17422,1,8,2:3:0:0:
66,338,17566,6,0,B|133:343|177:373,1,100,6|0,1:2|2:0,2:0:0:0:
200,340,17999,1,10,2:0:0:0:
288,364,18287,2,0,P|340:368|391:336,1,100,2|10,1:2|2:0,2:0:0:0:
407,260,18864,2,0,L|397:140,1,100,2|8,1:2|2:0,2:0:0:0:
310,142,19441,2,0,L|318:241,1,100,2|8,1:2|2:0,2:0:0:0:
282,269,19874,6,0,B|260:288|260:288|146:278,1,100,6|0,1:2|1:2,2:0:0:0:
145,273,20306,1,10,2:0:0:0:
55,261,20595,2,0,L|46:149,1,100,10|10,2:0|2:0,2:0:0:0:
48,116,21027,2,0,P|81:62|156:62,1,100,6|0,1:2|1:2,2:0:0:0:
157,62,21460,1,10,2:0:0:0:
240,97,21749,2,0,P|291:105|322:100,1,50,10|10,2:0|2:0,2:0:0:0:
396,48,22326,6,0,B|430:65|430:65|447:159,1,90.0000000000001,6|2,1:2|1:2,2:0:0:0:
403,188,22902,1,2,1:2:0:0:
446,256,23191,1,2,1:2:0:0:
423,333,23479,2,0,P|383:353|324:324,1,90.0000000000001,0|0,1:2|1:2,2:0:0:0:
271,300,24056,1,0,2:0:0:0:
190,308,24345,1,8,2:0:0:0:
127,359,24633,6,0,P|108:293|132:250,1,90.0000000000001,2|2,1:2|1:2,2:0:0:0:
174,220,25210,1,2,1:2:0:0:
182,139,25499,2,0,L|170:83,1,45,0|10,1:2|2:0,2:0:0:0:
145,64,25787,2,0,B|105:72|105:72|30:55,1,90.0000000000001,0|0,1:2|1:2,2:0:0:0:
13,129,26364,2,0,L|20:193,1,45,0|10,1:2|2:0,2:0:0:0:
23,213,26652,1,10,2:0:0:0:
46,300,26941,6,0,P|108:336|170:312,1,100,14|0,2:0|1:2,2:0:0:0:
172,310,27374,2,0,L|280:295,1,100,10|0,2:0|1:2,2:0:0:0:
303,327,27806,1,14,2:0:0:0:
391,345,28095,2,0,P|449:334|475:274,1,100,10|0,2:0|1:2,2:0:0:0:
476,258,28527,2,0,L|464:127,1,100,10|0,2:0|1:2,2:0:0:0:
460,113,28960,1,0,1:2:0:0:
400,45,29249,6,0,B|366:73|366:73|364:141,1,100,14|0,2:0|2:0,2:0:0:0:
359,173,29681,2,0,P|312:238|275:234,1,100,14|0,2:0|1:2,2:0:0:0:
255,232,30114,1,14,2:0:0:0:
165,226,30402,2,0,L|156:312,1,50,10|0,2:0|1:2,2:0:0:0:
137,315,30691,2,0,L|150:385,1,50,10|0,2:0|1:2,2:0:0:0:
188,379,30979,2,0,P|251:365|304:368,1,100,0|8,1:2|2:0,2:0:0:0:
376,368,31556,6,0,B|392:341|392:341|400:259,1,100,6|10,1:2|2:0,2:0:0:0:
350,196,32133,1,2,1:2:0:0:
374,112,32422,1,8,2:0:0:0:
374,112,32566,2,0,P|355:66|278:46,1,100,2|2,1:2|1:2,2:0:0:0:
227,72,33143,2,0,P|153:83|96:75,1,100,2|0,2:0|1:2,2:0:0:0:
84,68,33576,1,10,2:0:0:0:
16,127,33864,6,0,B|28:180|28:180|74:215,1,100,2|10,1:2|2:0,2:0:0:0:
102,289,34441,1,2,1:2:0:0:
190,262,34729,1,8,2:0:0:0:
190,262,34874,2,0,B|243:247|306:268,1,100,2|2,1:2|1:2,2:0:0:0:
359,319,35451,2,0,P|385:257|366:206,1,100,0|0,1:2|1:2,2:0:0:0:
354,189,35883,1,10,2:0:0:0:
276,143,36172,6,0,B|228:132|228:132|172:163,1,100,6|10,1:2|2:0,2:0:0:0:
102,196,36749,2,0,L|25:181,1,50,0|2,1:2|1:2,2:0:0:0:
25,151,37037,1,8,2:0:0:0:
25,151,37181,2,0,L|14:22,1,100,2|0,1:2|1:2,2:0:0:0:
52,23,37614,1,10,2:0:0:0:
137,50,37902,2,0,L|258:35,1,100,2|10,1:2|2:0,2:0:0:0:
298,103,38479,6,0,B|322:135|322:135|303:214,1,100,14|0,2:0|1:2,2:0:0:0:
291,235,38912,2,0,P|282:320|322:350,1,100,14|0,2:0|1:2,2:0:0:0:
319,357,39345,1,10,2:0:0:0:
406,375,39633,2,0,L|506:360,1,100,10|10,2:0|2:0,2:0:0:0:
495,270,40210,1,10,2:0:0:0:
482,180,40499,2,0,L|473:119,1,50,2|8,1:2|0:0,0:0:0:0:
460,92,40787,6,0,P|414:58|357:71,1,90.0000000000001,2|0,2:0|2:0,2:0:0:0:
351,84,41220,2,0,L|248:92,1,90.0000000000001,2|2,2:0|2:0,2:0:0:0:
184,100,41797,1,2,2:0:0:0:
184,100,41941,2,0,B|157:136|157:136|175:221,2,90.0000000000001,0|0|0,2:0|2:0|2:0,2:0:0:0:
262,242,43095,6,0,P|217:284|160:277,1,90.0000000000001,2|0,2:0|2:0,2:0:0:0:
151,277,43527,2,0,L|38:291,1,90.0000000000001,2|0,2:0|2:0,2:0:0:0:
32,212,44104,1,2,2:0:0:0:
32,212,44249,2,0,B|22:185|22:185|42:107,2,90.0000000000001,0|0|0,2:0|2:0|2:0,2:0:0:0:
129,341,45402,6,0,P|220:373|268:340,1,135,2|2,2:0|2:0,2:0:0:0:
304,299,46124,1,2,2:0:0:0:
378,331,46412,2,0,B|389:274|389:274|392:280|392:280|412:178,1,135,2|2,2:0|2:0,2:0:0:0:
347,155,47133,1,2,2:0:0:0:
382,81,47422,1,2,2:0:0:0:
317,31,47710,6,0,B|232:24|272:82|189:76,2,135,2|2|0,2:0|2:0|2:0,2:0:0:0:
382,81,48864,2,0,L|458:73,1,50,14|0,2:0|1:2,2:0:0:0:
480,82,49152,1,10,2:0:0:0:
480,82,49297,2,0,B|493:113|493:113|474:209,1,100,6|8,1:2|2:3,2:0:0:0:
455,310,50018,6,0,P|420:349|351:342,1,100,6|2,1:2|1:2,2:0:0:0:
337,328,50451,1,0,2:0:0:0:
337,328,50595,2,0,L|199:344,1,100,2|0,1:2|1:2,2:0:0:0:
224,250,51172,2,0,L|323:238,1,100,2|0,1:2|1:2,2:0:0:0:
370,161,51749,1,0,1:2:0:0:
360,71,52037,2,0,L|327:23,1,50,10|0,2:0|2:0,2:0:0:0:
290,11,52326,6,0,P|232:23|176:15,1,100,2|2,1:2|1:2,2:0:0:0:
154,44,52758,1,0,2:0:0:0:
154,44,52902,2,0,P|174:120|171:172,1,100,2|0,1:2|1:2,2:0:0:0:
122,214,53479,1,2,1:2:0:0:
158,296,53768,1,2,1:2:0:0:
244,320,54056,2,0,L|258:246,2,75,10|8|8,2:0|2:0|2:0,2:0:0:0:
237,364,54633,6,0,P|310:372|378:309,1,150,10|10,2:0|2:0,2:0:0:0:
388,287,55210,1,0,1:2:0:0:
348,206,55499,1,10,2:0:0:0:
348,206,55643,2,0,P|331:167|328:98,1,100,0|10,1:2|2:0,2:0:0:0:
329,65,56076,1,0,1:2:0:0:
407,21,56364,2,0,B|453:50|453:50|460:109,1,100,10|10,2:0|2:0,2:0:0:0:
455,185,56941,6,0,B|450:257|450:257|453:251|453:251|446:346,1,150,10|10,2:0|2:0,2:0:0:0:
441,366,57518,1,0,1:2:0:0:
359,328,57806,1,10,2:0:0:0:
359,328,57951,2,0,P|290:317|238:328,1,100,2|8,1:2|2:0,2:0:0:0:
219,340,58383,1,0,1:0:0:0:
131,317,58672,2,0,P|113:254|141:202,1,100,10|10,2:0|2:0,2:0:0:0:
151,188,59104,1,14,2:0:0:0:
192,34,60979,6,0,L|297:27,1,100,2|2,2:0|2:0,2:0:0:0:
332,52,61412,6,0,B|357:81|357:81|344:182,1,105,6|0,1:2|1:2,2:0:0:0:
331,191,61845,2,0,P|319:256|364:305,1,105,10|2,2:0|1:2,2:0:0:0:
363,326,62277,1,2,1:2:0:0:
276,363,62566,2,0,L|155:359,1,105,2|2,1:2|1:2,2:0:0:0:
123,356,62999,2,0,B|100:318|100:318|123:213,1,105,10|2,2:0|1:2,2:0:0:0:
121,212,63431,1,2,1:2:0:0:
53,146,63720,6,0,P|65:66|68:7,1,105,6|2,1:2|1:2,2:0:0:0:
160,26,64297,2,0,P|240:38|294:39,1,105,2|2,2:0|1:2,2:0:0:0:
357,22,64874,2,0,P|413:29|436:101,1,105,2|0,1:2|1:2,2:0:0:0:
456,109,65306,2,0,P|444:189|441:249,1,105,10|8,2:0|2:3,2:0:0:0:
448,260,65739,1,8,2:3:0:0:
411,347,66027,6,0,P|351:343|314:287,1,105,6|0,1:2|1:2,2:0:0:0:
302,269,66460,1,10,2:0:0:0:
298,174,66749,2,0,L|228:162,1,52.5,2|0,1:2|1:2,2:0:0:0:
203,160,67037,1,10,2:0:0:0:
203,160,67181,2,0,P|146:187|69:185,1,105,4|0,1:2|1:2,2:0:0:0:
61,170,67614,1,10,2:0:0:0:
44,77,67902,2,0,B|64:25|64:25|150:20,1,105,2|10,1:2|2:0,2:0:0:0:
155,43,68335,6,0,L|283:32,1,105,4|0,1:2|1:2,2:0:0:0:
292,68,68768,2,0,L|371:60,1,52.5,10|0,2:0|1:2,2:0:0:0:
388,80,69056,2,0,L|406:215,1,105,10|10,2:0|2:0,2:0:0:0:
420,276,69633,2,0,L|486:287,2,52.5,8|0|8,2:0|1:2|2:3,2:0:0:0:
347,336,70210,1,10,2:0:0:0:
347,336,70354,2,0,P|284:324|249:325,1,52.5,6|0,1:2|2:0,2:0:0:0:
249,314,70643,6,0,P|184:334|114:328,1,105,6|0,1:2|1:2,2:0:0:0:
118,296,71076,2,0,B|96:245|96:245|128:176,1,105,10|2,2:0|1:2,2:0:0:0:
141,159,71508,1,2,1:2:0:0:
230,188,71797,2,0,P|324:211|364:201,1,105,2|2,1:2|1:2,2:0:0:0:
371,187,72229,2,0,B|397:145|397:145|386:77,1,105,10|2,2:0|1:2,2:0:0:0:
371,45,72662,1,2,1:2:0:0:
280,16,72951,6,0,L|147:30,1,105,6|2,1:2|1:2,2:0:0:0:
82,39,73527,2,0,B|40:72|40:72|64:160,1,105,2|2,2:0|1:2,2:0:0:0:
104,201,74104,2,0,P|104:277|51:316,1,105,2|2,1:2|1:2,2:0:0:0:
57,333,74537,1,10,2:0:0:0:
139,378,74826,2,0,L|201:366,1,52.5,10|0,2:0|1:2,2:0:0:0:
225,336,75114,1,8,0:0:0:0:
318,347,75402,6,0,B|375:331|431:343,1,105,6|10,1:2|2:0,2:0:0:0:
464,256,75979,2,0,L|472:182,1,52.5,2|0,1:2|1:2,2:0:0:0:
477,156,76268,1,8,2:0:0:0:
416,83,76556,2,0,P|371:124|378:185,1,105,0|10,1:0|2:0,2:0:0:0:
361,259,77133,2,0,L|286:256,1,52.5,0|10,1:2|2:0,2:0:0:0:
261,253,77422,1,10,2:0:0:0:
261,253,77566,6,0,P|184:258|134:267,1,105,6|2,1:2|1:2,2:0:0:0:
124,297,77999,1,8,2:0:0:0:
52,236,78287,2,0,L|48:168,1,52.5,0|0,1:2|1:2,2:0:0:0:
47,136,78576,1,8,2:0:0:0:
95,54,78864,2,0,P|147:25|228:54,1,105,2|10,1:2|2:0,2:0:0:0:
218,67,79297,1,0,2:0:0:0:
218,67,79441,2,0,L|220:152,2,52.5,8|0|0,2:0|1:2|1:2,2:0:0:0:
308,40,80018,6,0,B|359:24|359:24|426:50,1,105,14|10,2:0|2:0,2:0:0:0:
431,83,80451,2,0,L|441:202,1,105,0|0,1:2|1:2,2:0:0:0:
445,234,80883,1,10,2:0:0:0:
461,327,81172,1,10,2:0:0:0:
461,327,81316,2,0,P|406:336|360:283,1,105,0|0,1:2|1:2,2:0:0:0:
348,264,81749,2,0,P|306:234|256:244,1,105,10|10,2:0|2:0,2:0:0:0:
176,296,82326,6,0,B|131:323|131:323|63:290,1,105,14|10,2:0|2:0,2:0:0:0:
43,275,82758,2,0,L|57:155,1,105,0|0,1:2|1:2,2:0:0:0:
63,124,83191,1,10,2:0:0:0:
86,32,83479,2,0,B|130:7|130:7|203:41,1,105,10|10,2:0|2:0,2:0:0:0:
207,67,83912,1,8,2:0:0:0:
207,67,84056,2,0,L|301:57,1,52.5,8|8,2:0|2:3,2:0:0:0:
297,89,84345,2,0,L|391:79,1,52.5,8|4,2:3|2:3,2:0:0:0:
389,83,84633,6,0,B|425:127|399:169|399:169|374:201|412:267,1,180,6|2,1:2|2:0,2:0:0:0:
456,360,85643,2,0,B|391:357|391:357|394:362|394:362|298:359,1,135,6|10,1:2|2:0,2:0:0:0:
282,294,86364,2,0,P|236:279|186:313,1,90.0000000000001,2|2,2:0|2:0,2:0:0:0:
256,192,86797,12,0,88672,2:0:0:0:
