osu file format v14

[General]
AudioFilename: audio.mp3
AudioLeadIn: 0
PreviewTime: 60907
Countdown: 0
SampleSet: Soft
StackLeniency: 0.7
Mode: 0
LetterboxInBreaks: 0
WidescreenStoryboard: 1

[Editor]
DistanceSpacing: 0.5
BeatDivisor: 4
GridSize: 16
TimelineZoom: 1.6

[Metadata]
Title:Belief (TV Size)
TitleUnicode:Belief (TV Size)
Artist:May'n
ArtistUnicode:May'n
Creator:Sotarks
Version:Kowari's Insane
Source:TABOO TATTOO
Tags:タブー・タトゥー japanese rock j-rock jrock female vocals vocalist anime op opening xahlt kuon- kowari sytho mayn
BeatmapID:3330918
BeatmapSetID:1627541

[Difficulty]
HPDrainRate:5.5
CircleSize:4
OverallDifficulty:8
ApproachRate:9
SliderMultiplier:1.6
SliderTickRate:1

[Events]
//Background and Video events
Video,0,"video.mp4"
0,0,"bg.jpg",0,0
//Break Periods
2,40987,48265
//Storyboard Layer 0 (Background)
//Storyboard Layer 1 (Fail)
//Storyboard Layer 2 (Pass)
//Storyboard Layer 3 (Foreground)
//Storyboard Layer 4 (Overlay)
//Storyboard Sound Samples

[TimingPoints]
403,288.461538461538,4,2,22,45,1,0
979,-142.857142857143,4,2,22,45,0,0
1412,-142.857142857143,4,2,22,45,0,0
5595,-125,4,2,22,45,0,0
6172,-100,4,2,22,60,0,0
8479,-100,4,2,22,60,0,0
10787,-100,4,2,22,60,0,0
12951,-100,4,2,22,65,0,0
22326,-125,4,2,22,50,0,0
26941,-100,4,2,22,65,0,0
31556,-111.111111111111,4,2,22,60,0,0
40787,-111.111111111111,4,2,22,40,0,0
48864,-111.111111111111,4,2,22,60,0,0
49297,-100,4,2,22,60,0,0
50018,-125,4,2,22,55,0,0
54056,-100,4,2,22,55,0,0
54633,-100,4,2,22,60,0,0
60979,-200,4,2,22,50,0,0
61268,-100,4,2,22,50,0,0
61412,-100,4,2,22,70,0,0
84633,-100,4,2,22,65,0,0
85643,-100,4,2,22,65,0,0

[Colours]
Combo1 : 184,126,231
Combo2 : 237,193,255
Combo3 : 224,221,207

[HitObjects]
256,192,403,12,2,1412,2:0:0:0:
376,86,1845,6,0,P|372:37|371:21,1,55.9999982910157,2|2,2:0|2:0,2:0:0:0:
451,143,2133,1,2,2:0:0:0:
451,143,2277,2,0,P|443:178|436:206,1,55.9999982910157,2|0,2:0|0:0,0:0:0:0:
502,258,2566,6,0,B|448:238|441:277|370:249,1,111.999996582031,2|2,2:0|2:0,2:0:0:0:
309,201,2999,2,0,P|273:192|232:187,1,55.9999982910157,2|2,2:0|2:0,2:0:0:0:
192,291,3287,1,2,2:0:0:0:
192,291,3431,2,0,P|229:287|256:281,1,55.9999982910157,2|0,2:0|0:0,0:0:0:0:
112,382,3720,6,0,P|97:272|93:251,2,111.999996582031,2|2|2,2:0|2:0|2:0,2:0:0:0:
185,171,4585,1,2,2:0:0:0:
4,304,4874,1,2,2:0:0:0:
4,304,5595,6,0,P|44:317|134:274,1,128,2|0,2:0|0:0,2:0:0:0:
310,145,6172,5,6,1:2:0:0:
256,192,6244,12,0,7181,0:0:0:0:
197,232,7326,5,6,1:2:0:0:
256,192,7398,12,0,8335,0:0:0:0:
256,190,8479,5,6,1:2:0:0:
198,114,8768,1,0,1:2:0:0:
346,93,9056,1,0,1:2:0:0:
304,268,9345,1,0,1:2:0:0:
136,192,9633,5,0,1:2:0:0:
254,35,9922,1,0,1:2:0:0:
419,203,10210,1,0,1:2:0:0:
146,325,10499,1,8,2:0:0:0:
146,325,10787,5,14,2:0:0:0:
69,226,10931,2,0,P|52:293|49:315,1,80,0|0,1:2|1:2,0:0:0:0:
205,183,11220,5,10,2:0:0:0:
116,132,11364,2,0,P|75:123|33:117,1,80,0|0,1:2|1:2,2:0:0:0:
184,313,11652,2,0,P|223:307|262:298,1,80,10|0,2:0|1:2,2:0:0:0:
262,298,11869,1,0,1:2:0:0:
262,298,11941,1,10,2:0:0:0:
356,122,12085,1,0,1:2:0:0:
408,258,12229,1,10,2:0:0:0:
345,94,12374,1,0,1:2:0:0:
251,206,12518,5,10,2:0:0:0:
478,166,12662,1,10,2:0:0:0:
478,166,12951,6,0,B|424:155|424:155|374:165|374:165|307:153,1,160,6|0,1:2|1:2,2:0:0:0:
361,0,13383,2,0,L|373:85,1,80,8|0,2:0|2:0,2:0:0:0:
414,243,13672,1,2,1:2:0:0:
478,166,13816,1,2,1:2:0:0:
320,155,13960,1,8,2:0:0:0:
367,323,14104,6,0,P|427:337|508:275,1,160,2|0,2:0|1:2,2:0:0:0:
414,241,14537,1,8,2:0:0:0:
282,384,14681,2,0,P|271:325|266:287,1,80,0|2,2:0|1:2,2:0:0:0:
168,196,14970,2,0,P|210:179|250:166,1,80,0|10,1:2|2:0,2:0:0:0:
242,168,15258,6,0,B|166:134|165:195|73:157,1,160,6|0,1:2|1:2,2:0:0:0:
172,333,15691,2,0,P|188:286|196:253,1,80,10|0,2:0|2:0,0:0:0:0:
130,74,15979,1,2,1:2:0:0:
86,162,16124,1,0,1:2:0:0:
231,78,16268,1,10,2:0:0:0:
68,3,16412,6,0,P|78:86|88:174,1,160,2|0,2:0|1:2,2:0:0:0:
0,341,16845,2,0,P|11:285|21:241,1,80,10|0,2:0|1:2,2:0:0:0:
111,238,17133,1,10,2:0:0:0:
200,267,17277,1,8,2:3:0:0:
233,356,17422,1,8,2:3:0:0:
306,184,17566,6,0,P|329:121|304:12,1,160,6|0,1:2|2:0,2:0:0:0:
159,86,17999,2,0,L|248:103,1,80,10|2,2:0|2:0,0:0:0:0:
413,38,18287,1,2,1:2:0:0:
385,171,18431,2,0,L|301:184,1,80,0|10,1:2|2:0,0:0:0:0:
218,321,18720,5,0,2:0:0:0:
347,287,18864,1,2,1:2:0:0:
216,210,19008,1,0,1:2:0:0:
381,290,19152,1,8,2:0:0:0:
257,384,19297,2,0,P|269:319|278:280,1,80,0|2,2:0|1:2,2:0:0:0:
290,104,19585,2,0,P|298:143|304:182,1,80,0|8,1:2|2:0,0:0:0:0:
512,268,19874,6,0,B|413:245|413:245|342:278,1,160,6|0,1:2|1:2,2:0:0:0:
465,164,20306,2,0,P|479:110|486:79,1,80,10|0,2:0|1:2,2:0:0:0:
291,106,20595,1,10,2:0:0:0:
360,269,20739,1,0,1:2:0:0:
382,139,20883,1,10,2:0:0:0:
202,199,21027,6,0,B|116:169|124:217|30:181,1,160,6|0,1:2|1:2,2:0:0:0:
44,186,21388,1,0,1:2:0:0:
44,186,21460,1,10,2:0:0:0:
114,313,21604,1,0,1:2:0:0:
167,109,21749,5,10,2:0:0:0:
123,334,21893,1,10,2:0:0:0:
123,334,22326,6,0,P|110:209|109:183,2,128,6|2|2,1:2|1:2|1:2,2:0:0:0:
207,373,23047,1,0,2:0:0:0:
273,298,23191,1,2,1:2:0:0:
273,298,23335,6,0,L|344:286,1,64,2|0,2:0|1:2,2:0:0:0:
465,232,23624,2,0,L|394:220,1,64,2|0,2:0|1:2,2:0:0:0:
334,71,23912,1,2,2:0:0:0:
320,188,24056,2,0,P|306:130|342:63,1,128,0|8,0:0|2:0,0:0:0:0:
415,24,24489,1,0,2:0:0:0:
463,150,24633,6,0,L|387:134,1,64,0|0,0:0|2:0,0:0:0:0:
333,70,24922,2,0,L|270:83,1,64,2|0,1:2|2:0,2:0:0:0:
203,166,25210,1,2,1:2:0:0:
203,166,25354,2,0,B|177:136|177:136|198:30,1,128,2|10,2:0|2:0,2:0:0:0:
92,114,25787,5,0,1:2:0:0:
92,114,25931,2,0,P|96:145|104:176,1,64,2|0,2:0|1:2,2:0:0:0:
31,303,26220,2,0,P|89:307|145:260,1,128,10|10,2:0|2:0,2:0:0:0:
200,123,26652,1,10,2:0:0:0:
256,294,26797,1,0,1:2:0:0:
323,184,26941,5,14,2:0:0:0:
420,157,27085,2,0,P|473:145|510:132,1,80,0|0,0:0|1:2,0:0:0:0:
366,337,27374,2,0,P|330:209|319:173,1,160,10|0,2:0|1:2,2:0:0:0:
244,5,27806,2,0,P|235:59|230:96,1,80,14|0,2:0|1:2,0:0:0:0:
192,265,28095,5,10,2:0:0:0:
107,163,28239,2,0,P|97:96|95:70,1,80,0|0,1:2|1:2,0:0:0:0:
0,275,28527,1,10,2:0:0:0:
0,275,28672,2,0,L|82:254,1,80,0|0,1:2|1:2,2:0:0:0:
202,366,28960,2,0,L|120:345,1,80,0|0,1:2|1:2,2:0:0:0:
96,120,29249,5,14,2:0:0:0:
194,264,29393,2,0,B|254:253|254:253|297:261|297:261|374:245,1,160,0|14,0:0|2:0,0:0:0:0:
308,69,29826,2,0,P|298:138|294:171,1,80,0|0,1:2|1:2,0:0:0:0:
362,328,30114,2,0,P|356:288|350:248,1,80,14|0,2:0|1:2,2:0:0:0:
221,144,30402,5,10,2:0:0:0:
387,79,30547,1,0,1:2:0:0:
266,7,30691,1,10,2:0:0:0:
412,88,30835,1,0,1:2:0:0:
308,170,30979,6,0,L|299:117,3,40,0|0|0|0,1:2|1:2|1:2|1:2,0:0:0:0:
319,213,31268,1,8,2:0:0:0:
510,362,31556,6,0,P|397:359|358:326,1,143.999995605469,6|10,1:2|2:0,2:0:0:0:
375,343,31989,1,2,2:0:0:0:
439,204,32133,1,2,1:2:0:0:
439,204,32277,2,0,B|451:266|459:305,1,71.9999978027344,2|8,1:2|2:0,2:0:0:0:
285,384,32566,6,0,P|304:246|310:214,1,143.999995605469,2|2,1:2|1:2,2:0:0:0:
379,66,32999,1,8,2:0:0:0:
478,155,33143,2,0,B|430:147|430:147|384:155|384:155|326:143,1,143.999995605469,2|0,2:0|1:2,2:0:0:0:
198,46,33576,2,0,P|151:60|122:75,1,71.9999978027344,10|0,2:0|2:0,2:0:0:0:
53,184,33864,5,2,1:2:0:0:
155,154,34008,1,2,2:0:0:0:
34,74,34152,2,0,L|48:151,1,71.9999978027344,10|2,2:0|2:0,2:0:0:0:
133,266,34441,2,0,L|145:195,1,71.9999978027344,2|2,1:2|1:2,0:0:0:0:
165,111,34729,1,8,2:0:0:0:
43,321,34874,6,0,B|124:297|112:337|190:314,1,143.999995605469,2|2,1:2|1:2,2:0:0:0:
325,219,35306,1,10,2:0:0:0:
257,374,35451,1,0,1:2:0:0:
157,218,35595,2,0,L|235:231,1,71.9999978027344,10|0,2:0|1:2,0:0:0:0:
429,302,35883,2,0,L|351:326,1,71.9999978027344,10|0,2:0|2:0,2:0:0:0:
253,369,36172,5,6,1:2:0:0:
253,369,36316,2,0,B|245:329|245:329|260:279,1,71.9999978027344,0|10,0:0|2:0,0:0:0:0:
326,131,36604,2,0,P|347:234|354:286,1,143.999995605469,2|2,2:0|1:2,2:0:0:0:
234,185,37037,2,0,P|179:173|134:167,1,71.9999978027344,8|2,2:0|1:2,0:0:0:0:
291,45,37326,6,0,B|370:17|365:65|446:29,1,143.999995605469,0|10,0:0|2:0,0:0:0:0:
432,34,37758,1,0,2:0:0:0:
353,208,37902,2,0,L|338:124,1,71.9999978027344,2|0,1:2|1:2,2:0:0:0:
442,264,38191,2,0,L|457:180,1,71.9999978027344,10|0,2:0|1:2,0:0:0:0:
322,374,38479,6,0,P|390:381|462:343,1,143.999995605469,14|0,2:0|1:2,2:0:0:0:
225,207,38912,2,0,P|216:278|206:356,1,143.999995605469,14|0,2:0|1:2,2:0:0:0:
352,196,39345,2,0,P|341:135|335:106,1,71.9999978027344,10|0,2:0|2:0,0:0:0:0:
208,20,39633,5,10,2:0:0:0:
136,163,39777,1,0,1:2:0:0:
68,69,39922,1,10,2:0:0:0:
238,152,40066,1,0,1:2:0:0:
158,276,40210,2,0,P|137:323|130:357,1,71.9999978027344,10|0,2:0|1:2,2:0:0:0:
51,253,40499,1,2,1:2:0:0:
51,253,40643,1,8,2:0:0:0:
241,344,40787,5,2,2:0:0:0:
247,259,48865,5,14,2:0:0:0:
185,172,49009,2,0,L|90:153,1,71.9999978027344,0|10,1:2|0:0,0:0:0:0:
295,368,49297,2,0,P|333:319|331:211,1,160,6|8,1:2|2:3,2:0:0:0:
336,224,49657,1,0,2:0:0:0:
336,224,49729,1,8,2:3:0:0:
336,224,49802,1,0,2:0:0:0:
336,224,49874,1,4,2:3:0:0:
286,45,50018,6,0,P|368:62|431:77,2,128,6|2|2,1:2|1:2|1:2,2:0:0:0:
196,162,50739,1,0,2:0:0:0:
196,162,50883,2,0,P|259:153|285:148,1,64,0|2,1:2|2:0,0:0:0:0:
126,91,51172,2,0,P|97:151|116:226,1,128,2|0,1:2|1:2,2:0:0:0:
181,278,51604,1,0,2:0:0:0:
95,340,51749,2,0,L|23:351,1,64,0|0,1:2|2:0,2:0:0:0:
216,289,52037,2,0,L|288:300,1,64,10|0,2:0|2:0,0:0:0:0:
369,384,52326,6,0,B|324:375|324:375|284:383|284:383|243:377,1,128,2|2,1:2|1:2,2:0:0:0:
442,318,52758,2,0,P|464:240|474:165,1,128,0|0,2:0|2:0,2:0:0:0:
348,125,53191,2,0,L|359:202,1,64,0|2,1:2|2:0,0:0:0:0:
494,93,53479,6,0,P|455:83|423:75,1,64,0|0,0:0|2:0,0:0:0:0:
274,30,53768,2,0,P|305:22|336:14,1,64,2|0,1:2|2:0,2:0:0:0:
330,243,54056,2,0,L|350:108,2,120,10|8|8,2:0|2:0|2:0,2:0:0:0:
238,366,54633,5,10,2:0:0:0:
87,321,54777,1,0,1:2:0:0:
230,248,55066,5,10,2:0:0:0:
87,321,55210,1,0,1:2:0:0:
132,167,55499,5,10,2:0:0:0:
87,321,55643,1,0,1:2:0:0:
10,180,55931,5,10,2:0:0:0:
87,321,56076,1,0,1:2:0:0:
87,321,56364,6,0,L|171:303,1,80,10|0,2:0|1:2,2:0:0:0:
378,199,56652,2,0,L|294:181,1,80,10|0,2:0|1:2,2:0:0:0:
174,81,56941,5,10,2:0:0:0:
344,39,57085,1,0,1:2:0:0:
174,81,57374,5,10,2:0:0:0:
375,129,57518,1,0,1:2:0:0:
174,81,57806,5,10,2:0:0:0:
429,26,57951,1,2,1:2:0:0:
174,81,58239,5,8,2:0:0:0:
260,12,58383,2,0,B|268:53|268:53|256:100,1,80,0|0,1:0|1:2,0:0:0:0:
258,90,58600,1,0,1:0:0:0:
258,90,58672,1,10,2:0:0:0:
217,193,58816,1,10,2:0:0:0:
311,271,58960,1,10,2:0:0:0:
257,366,59104,1,14,2:0:0:0:
248,286,60979,6,0,P|254:326|256:366,1,80,2|2,2:0|2:0,2:0:0:0:
256,365,61412,6,0,P|233:307|287:194,1,160,6|0,1:2|1:2,2:0:0:0:
408,117,61845,2,0,L|420:215,1,80,10|2,2:0|2:0,0:0:0:0:
493,307,62133,1,2,1:2:0:0:
323,284,62277,1,2,1:2:0:0:
417,196,62422,1,8,2:0:0:0:
256,365,62566,6,0,B|200:354|200:354|153:360|153:360|94:347,1,160,2|2,1:2|1:2,2:0:0:0:
8,253,62999,2,0,P|68:240|108:235,1,80,10|2,2:0|2:0,0:0:0:0:
239,227,63287,1,2,1:2:0:0:
152,78,63431,2,0,P|142:25|139:-7,1,80,2|10,1:2|2:0,2:0:0:0:
7,147,63720,6,0,P|57:190|171:157,1,160,6|2,1:2|1:2,2:0:0:0:
252,57,64152,1,8,2:0:0:0:
358,156,64297,2,0,L|444:168,1,80,2|0,2:0|1:2,2:0:0:0:
215,61,64585,2,0,L|129:73,1,80,2|8,1:2|2:0,2:0:0:0:
244,308,64874,6,0,P|267:180|271:131,1,160,2|0,1:2|1:2,2:0:0:0:
79,293,65306,2,0,P|140:278|176:270,1,80,10|0,2:0|1:0,0:0:0:0:
343,238,65595,1,8,2:3:0:0:
343,238,65667,1,8,2:3:0:0:
343,238,65739,1,8,2:3:0:0:
391,372,65883,1,10,2:0:0:0:
244,308,66027,6,0,B|325:271|320:324|411:284,1,160,6|0,1:2|1:2,2:0:0:0:
498,85,66460,2,0,P|448:57|344:64,1,160,10|2,2:0|1:2,2:0:0:0:
452,224,66893,2,0,P|444:183|435:138,1,80,0|10,1:2|2:0,0:0:0:0:
264,0,67181,6,0,B|241:107|241:107|295:163,1,160,4|0,1:2|1:2,2:0:0:0:
157,52,67614,2,0,P|104:39|76:34,1,80,10|0,2:0|2:0,2:0:0:0:
264,246,67902,2,0,P|303:238|342:228,1,80,2|0,1:2|1:2,2:0:0:0:
341,81,68191,1,10,2:0:0:0:
164,188,68335,6,0,P|108:204|18:137,1,160,4|0,1:2|1:2,2:0:0:0:
143,0,68768,2,0,L|159:90,1,80,10|0,2:0|1:2,0:0:0:0:
237,298,69056,2,0,L|251:219,1,80,10|0,2:0|1:2,0:0:0:0:
323,51,69345,1,10,2:0:0:0:
377,174,69489,1,0,1:2:0:0:
442,104,69633,5,8,2:0:0:0:
442,104,69705,1,0,1:2:0:0:
442,104,69777,1,0,1:2:0:0:
442,104,69850,1,0,1:2:0:0:
442,104,69922,2,0,L|487:93,3,40,8|0|0|0,2:3|1:2|1:2|1:2,2:0:0:0:
512,91,70210,5,10,2:0:0:0:
309,131,70354,1,6,1:2:0:0:
309,131,70643,6,0,P|289:165|316:283,1,160,6|0,1:2|1:2,2:0:0:0:
465,183,71076,2,0,L|364:200,1,80,10|2,2:0|2:0,2:0:0:0:
221,326,71364,1,2,1:2:0:0:
383,359,71508,1,2,1:2:0:0:
197,317,71652,1,8,2:0:0:0:
284,203,71797,6,0,P|304:261|310:289,1,80,2|0,1:2|0:0,2:0:0:0:
138,364,72085,1,2,1:2:0:0:
64,236,72229,2,0,P|77:159|86:130,1,80,10|2,2:0|2:0,0:0:0:0:
155,35,72518,1,2,1:2:0:0:
204,162,72662,1,2,1:2:0:0:
61,66,72806,1,10,2:0:0:0:
246,33,72951,6,0,B|306:25|306:25|348:37|348:37|427:27,1,160,6|2,1:2|1:2,2:0:0:0:
491,8,73383,1,8,2:0:0:0:
315,203,73527,2,0,P|302:150|295:105,1,80,2|0,2:0|1:2,2:0:0:0:
487,46,73816,2,0,P|479:85|469:124,1,80,2|8,1:2|2:0,2:0:0:0:
383,345,74104,6,0,L|404:163,1,160,2|2,1:2|1:2,2:0:0:0:
482,316,74537,1,10,2:0:0:0:
482,316,74681,1,0,1:2:0:0:
299,254,74826,1,10,2:0:0:0:
401,186,74970,1,0,1:2:0:0:
361,355,75114,1,10,2:0:0:0:
215,302,75258,1,0,2:0:0:0:
165,211,75402,6,0,P|148:155|193:49,2,160,6|10|2,1:2|2:0|1:2,2:0:0:0:
333,154,76124,2,0,L|245:138,1,80,0|8,1:2|2:0,0:0:0:0:
10,236,76412,6,0,B|65:218|65:218|117:225|117:225|180:206,1,160,2|0,2:0|1:2,2:0:0:0:
102,384,76845,2,0,P|80:339|70:301,1,80,10|0,2:0|2:0,2:0:0:0:
136,130,77133,1,0,1:2:0:0:
238,264,77277,1,10,2:0:0:0:
129,109,77422,1,10,2:0:0:0:
10,236,77566,6,0,P|94:239|178:182,1,160,6|2,1:2|1:2,2:0:0:0:
258,5,77999,2,0,P|277:97|292:177,1,160,8|0,2:0|1:2,2:0:0:0:
329,312,78431,1,0,1:2:0:0:
193,226,78576,2,0,P|150:212|116:204,1,80,8|0,2:0|2:0,2:0:0:0:
226,352,78864,5,2,1:2:0:0:
226,352,79008,1,0,1:0:0:0:
400,232,79152,2,0,P|416:175|422:144,1,80,10|0,2:0|2:0,0:0:0:0:
276,17,79441,1,8,2:0:0:0:
276,17,79513,1,8,2:0:0:0:
276,17,79585,1,0,1:2:0:0:
276,17,79657,1,0,1:2:0:0:
276,17,79729,2,0,L|286:63,3,40,0|0|0|0,1:2|1:2|1:2|1:2,0:0:0:0:
357,94,80018,6,0,B|270:68|277:127|174:88,1,160,14|10,2:0|2:0,2:0:0:0:
43,9,80451,1,0,1:2:0:0:
43,9,80523,1,0,1:0:0:0:
43,9,80595,1,10,2:0:0:0:
87,180,80739,1,0,1:2:0:0:
145,1,80883,6,0,P|127:71|119:113,1,80,10|0,2:0|1:2,2:0:0:0:
172,262,81172,1,10,2:0:0:0:
11,207,81316,2,0,L|97:192,1,80,0|10,1:2|2:0,2:0:0:0:
267,159,81604,1,0,1:2:0:0:
319,329,81749,2,0,L|233:314,1,80,10|0,2:0|1:2,2:0:0:0:
115,376,82037,2,0,B|106:337|106:337|116:289,1,80,10|0,2:0|1:2,0:0:0:0:
114,297,82253,1,0,1:2:0:0:
114,297,82326,6,0,L|289:270,1,160,14|10,2:0|2:0,2:0:0:0:
459,205,82758,2,0,P|411:188|372:178,1,80,0|10,1:2|2:0,2:0:0:0:
250,67,83047,1,0,1:2:0:0:
293,206,83191,1,10,2:0:0:0:
238,37,83335,1,0,1:2:0:0:
427,101,83479,6,0,L|445:0,1,80,10|0,2:0|1:2,2:0:0:0:
162,187,83768,2,0,L|176:265,1,80,10|8,2:0|2:0,2:0:0:0:
176,265,83984,1,8,2:0:0:0:
176,265,84056,1,8,2:0:0:0:
252,336,84201,1,8,2:3:0:0:
343,302,84345,1,8,2:3:0:0:
363,208,84489,1,4,2:3:0:0:
219,100,84633,6,0,P|170:92|67:163,1,160,6|0,1:2|0:0,2:0:0:0:
79,143,85210,2,0,P|94:197|105:245,1,80,0|0,2:0|0:0,0:0:0:0:
174,175,85499,1,0,0:0:0:0:
6,212,85643,6,0,P|17:288|18:387,1,160,6|0,1:2|1:2,2:0:0:0:
241,243,86076,1,10,2:0:0:0:
