osu file format v14

[General]
AudioFilename: audio.mp3
AudioLeadIn: 0
PreviewTime: 60907
Countdown: 0
SampleSet: Soft
StackLeniency: 0.7
Mode: 0
LetterboxInBreaks: 0
WidescreenStoryboard: 0

[Editor]
DistanceSpacing: 0.5
BeatDivisor: 4
GridSize: 16
TimelineZoom: 1.6

[Metadata]
Title:Belief (TV Size)
TitleUnicode:Belief (TV Size)
Artist:May'n
ArtistUnicode:May'n
Creator:Sotarks
Version:Expert
Source:TABOO TATTOO
Tags:タブー・タトゥー japanese rock j-rock jrock female vocals vocalist anime op opening xahlt kuon- kowari sytho mayn
BeatmapID:3322671
BeatmapSetID:1627541

[Difficulty]
HPDrainRate:6.2
CircleSize:4
OverallDifficulty:8.8
ApproachRate:9.3
SliderMultiplier:1.92
SliderTickRate:1

[Events]
//Background and Video events
Video,0,"video.mp4"
0,0,"bg.jpg",0,0
//Break Periods
//Storyboard Layer 0 (Background)
//Storyboard Layer 1 (Fail)
//Storyboard Layer 2 (Pass)
//Storyboard Layer 3 (Foreground)
//Storyboard Layer 4 (Overlay)
//Storyboard Sound Samples

[TimingPoints]
403,288.461538461538,4,2,22,45,1,0
979,-192.307692307692,4,2,22,45,0,0
1412,-161.290322580645,4,2,22,45,0,0
4874,-238.095238095238,4,2,22,45,0,0
5595,-454.545454545455,4,2,22,45,0,0
6172,-138.888888888889,4,2,22,60,0,0
8479,-121.951219512195,4,2,22,60,0,0
10787,-108.695652173913,4,2,22,60,0,0
12951,-98.0392156862745,4,2,22,65,0,0
22326,-138.888888888889,4,2,22,50,0,0
26941,-108.695652173913,4,2,22,65,0,0
31556,-108.695652173913,4,2,22,60,0,0
40787,-192.307692307692,4,2,22,40,0,0
48864,-192.307692307692,4,2,22,60,0,0
49297,-121.951219512195,4,2,22,60,0,0
50018,-138.888888888889,4,2,22,55,0,0
54056,-121.951219512195,4,2,22,55,0,0
54633,-121.951219512195,4,2,22,60,0,0
60979,-138.888888888889,4,2,22,50,0,0
61268,-108.695652173913,4,2,22,50,0,0
61412,-98.0392156862744,4,2,22,70,0,0
84633,-138.888888888889,4,2,22,65,0,0
85643,-108.695652173913,4,2,22,65,0,0

[Colours]
Combo1 : 184,126,231
Combo2 : 237,193,255
Combo3 : 224,221,207

[HitObjects]
76,297,979,6,0,P|126:304|186:330,1,99.8400000000001,2|0,2:0|2:0,2:0:0:0:
271,200,1412,6,0,P|199:194|154:244,1,119.04,2|2,2:0|2:0,2:0:0:0:
51,153,1845,2,0,P|60:181|68:209,1,59.52,2|2,2:0|2:0,2:0:0:0:
144,118,2133,1,2,2:0:0:0:
68,61,2277,1,2,2:0:0:0:
385,167,2566,6,0,P|323:181|266:201,1,119.04,2|2,2:0|2:0,2:0:0:0:
376,308,2999,2,0,P|383:279|393:251,1,59.52,2|2,2:0|2:0,2:0:0:0:
272,291,3287,1,2,2:0:0:0:
316,371,3431,1,2,2:0:0:0:
57,241,3720,6,0,P|28:248|0:254,1,59.52,2|0,2:0|2:0,2:0:0:0:
214,304,4008,2,0,P|242:296|271:290,1,59.52,2|0,2:0|2:0,2:0:0:0:
136,190,4297,2,0,P|143:161|153:133,1,59.52,2|0,2:0|2:0,2:0:0:0:
338,181,4585,2,0,P|330:152|320:124,1,59.52,2|0,2:0|2:0,2:0:0:0:
226,38,4874,6,0,B|248:125|211:112|241:210,1,161.28,2|0,2:0|2:0,2:0:0:0:
389,285,5595,6,0,P|395:242|418:215,1,73.9199999999999,2|0,2:0|2:0,2:0:0:0:
488,306,6172,6,0,P|410:304|201:367,1,276.48,6|0,1:2|2:0,2:0:0:0:
220,356,7326,2,0,P|132:308|196:159,1,276.48,6|0,1:2|2:0,2:0:0:0:
178,164,8479,6,0,P|121:172|84:186,1,78.7200000000001,6|0,1:2|2:0,2:0:0:0:
0,49,8768,2,0,P|39:52|76:63,1,78.7200000000001,0|0,1:2|2:0,2:0:0:0:
196,78,9056,2,0,P|183:37|176:-3,1,78.7200000000001,0|0,1:2|2:0,2:0:0:0:
289,135,9345,2,0,P|281:173|269:211,1,78.7200000000001,0|0,1:2|2:0,2:0:0:0:
233,319,9633,6,0,P|270:308|309:304,1,78.7200000000001,0|0,1:2|2:0,2:0:0:0:
178,235,9922,2,0,P|140:224|101:220,1,78.7200000000001,0|0,1:2|2:0,2:0:0:0:
289,135,10210,2,0,P|281:173|269:211,1,78.7200000000001,0|0,1:2|2:0,2:0:0:0:
196,78,10499,1,8,2:0:0:0:
196,78,10787,6,0,P|129:97|89:102,1,88.32,14|0,2:0|1:2,2:0:0:0:
269,211,11076,1,0,1:2:0:0:
24,127,11220,1,10,2:0:0:0:
150,282,11364,2,0,P|157:241|172:177,1,88.32,0|0,1:2|1:2,2:0:0:0:
7,290,11652,2,0,P|16:333|24:376,1,88.32,10|0,2:0|1:2,2:0:0:0:
24,376,11869,1,0,1:2:0:0:
24,376,11941,6,0,P|66:362|109:354,1,88.32,10|0,2:0|1:2,2:0:0:0:
273,234,12229,2,0,P|316:242|358:255,1,88.32,10|0,2:0|1:2,2:0:0:0:
250,118,12518,1,10,2:0:0:0:
482,245,12662,1,10,2:0:0:0:
482,245,12951,6,0,P|387:259|276:300,1,195.84,6|0,1:2|1:2,2:0:0:0:
104,220,13383,2,0,P|122:276|133:316,1,97.92,8|0,2:0|2:0,2:0:0:0:
237,163,13672,1,2,1:2:0:0:
100,85,13816,1,2,1:2:0:0:
209,250,13960,1,8,2:0:0:0:
8,241,14104,6,0,P|55:229|103:219,1,97.92,2|0,2:0|1:2,2:0:0:0:
237,163,14393,1,0,1:2:0:0:
100,85,14537,1,8,2:0:0:0:
175,0,14681,2,0,P|193:56|204:96,1,97.92,0|2,2:0|1:2,2:0:0:0:
336,213,14970,2,0,P|349:165|364:119,1,97.92,0|10,1:2|2:0,2:0:0:0:
433,312,15258,6,0,P|383:370|267:353,1,195.84,6|0,1:2|1:2,2:0:0:0:
111,211,15691,1,10,2:0:0:0:
229,246,15835,1,0,2:0:0:0:
30,141,15979,1,2,1:2:0:0:
196,61,16124,1,0,1:2:0:0:
0,241,16268,1,10,2:0:0:0:
139,304,16412,6,0,P|125:256|110:210,1,97.92,2|2,2:0|1:2,2:0:0:0:
326,278,16701,1,0,1:2:0:0:
196,61,16845,2,0,P|243:48|291:39,1,97.92,10|0,2:0|1:2,2:0:0:0:
217,174,17133,1,10,2:0:0:0:
375,96,17277,2,0,P|367:130|362:155,1,48.96,8|0,2:3|2:0,2:0:0:0:
413,219,17422,2,0,P|405:253|400:278,1,48.96,8|0,2:3|2:0,2:0:0:0:
279,323,17566,6,0,P|375:340|481:379,1,195.84,6|0,1:2|2:0,2:0:0:0:
302,224,17999,1,10,2:0:0:0:
476,139,18143,1,2,2:0:0:0:
402,266,18287,2,0,P|393:217|380:162,1,97.92,2|0,1:2|1:2,2:0:0:0:
450,38,18576,1,10,2:0:0:0:
302,224,18720,1,0,2:0:0:0:
359,70,18864,6,0,P|311:80|263:92,1,97.92,2|0,1:2|1:2,2:0:0:0:
382,170,19152,1,8,2:0:0:0:
282,319,19297,2,0,P|291:270|304:215,1,97.92,0|2,2:0|1:2,2:0:0:0:
107,142,19585,1,0,1:2:0:0:
210,251,19729,1,8,2:0:0:0:
0,295,19874,6,0,P|94:282|164:369,1,195.84,6|0,1:2|1:2,2:0:0:0:
305,228,20306,2,0,P|257:238|209:250,1,97.92,10|0,2:0|1:2,2:0:0:0:
11,119,20595,2,0,P|58:129|106:141,1,97.92,10|0,2:0|1:2,2:0:0:0:
30,0,20883,1,10,2:0:0:0:
242,92,21027,6,0,P|335:73|454:51,1,195.84,6|0,1:2|1:2,2:0:0:0:
465,44,21388,1,0,1:2:0:0:
465,44,21460,2,0,P|453:91|445:139,1,97.92,10|0,2:0|1:2,2:0:0:0:
281,0,21749,1,10,2:0:0:0:
452,229,21893,1,10,2:0:0:0:
452,229,22326,6,0,P|413:237|373:248,1,69.1199999999999,6|0,1:2|2:0,2:0:0:0:
251,285,22614,2,0,P|217:276|184:270,1,69.1199999999999,2|0,1:2|2:0,2:0:0:0:
62,207,22902,1,2,1:2:0:0:
62,207,23047,1,0,2:0:0:0:
197,136,23191,1,2,1:2:0:0:
64,42,23335,6,0,P|97:48|131:57,1,69.1199999999999,2|0,2:0|1:2,2:0:0:0:
284,68,23624,2,0,P|317:59|351:52,1,69.1199999999999,2|0,2:0|1:2,2:0:0:0:
490,0,23912,2,0,P|475:88|467:143,1,138.24,2|2,2:0|2:0,2:0:0:0:
286,216,24345,1,8,2:0:0:0:
393,283,24489,6,0,P|382:214|370:146,1,138.24,2|0,2:0|2:0,2:0:0:0:
218,200,24922,2,0,P|251:206|285:215,1,69.1199999999999,2|0,1:2|2:0,2:0:0:0:
181,312,25210,1,2,1:2:0:0:
298,381,25354,2,0,P|290:349|279:307,1,69.1199999999999,2|0,2:0|1:2,2:0:0:0:
124,229,25643,6,0,P|90:235|56:244,1,69.1199999999999,10|0,2:0|1:2,2:0:0:0:
0,110,25931,2,0,P|33:116|67:125,1,69.1199999999999,2|0,2:0|1:2,2:0:0:0:
189,43,26220,2,0,P|180:76|171:109,1,69.1199999999999,10|0,2:0|1:2,2:0:0:0:
370,14,26508,1,10,2:0:0:0:
269,102,26652,2,0,P|277:135|286:168,1,69.1199999999999,10|0,2:0|1:2,2:0:0:0:
424,269,26941,6,0,P|343:288|244:327,1,176.64,14|0,2:0|1:2,2:0:0:0:
40,246,27374,2,0,P|54:294|67:342,1,88.32,10|0,2:0|1:2,2:0:0:0:
192,176,27662,1,0,1:2:0:0:
57,91,27806,1,14,2:0:0:0:
160,270,27951,1,0,1:2:0:0:
299,103,28095,6,0,P|250:91|202:78,1,88.32,10|0,2:0|1:2,2:0:0:0:
327,237,28383,1,0,1:2:0:0:
140,111,28527,1,10,2:0:0:0:
323,18,28672,2,0,P|310:60|298:102,1,88.32,0|0,1:2|1:2,2:0:0:0:
451,167,28960,2,0,P|439:124|426:82,1,88.32,0|0,1:2|1:2,2:0:0:0:
327,237,29249,6,0,P|383:309|476:291,1,176.64,14|0,2:0|2:0,2:0:0:0:
215,283,29681,2,0,P|172:294|129:304,1,88.32,14|0,2:0|1:2,2:0:0:0:
232,147,29970,1,0,1:2:0:0:
75,93,30114,2,0,P|87:135|99:177,1,88.32,14|0,2:0|1:2,2:0:0:0:
219,50,30402,5,10,2:0:0:0:
0,159,30547,1,0,1:2:0:0:
232,147,30691,1,10,2:0:0:0:
13,256,30835,1,0,1:2:0:0:
210,338,30979,1,0,1:2:0:0:
210,338,31052,1,0,1:2:0:0:
210,338,31124,1,0,1:2:0:0:
210,338,31196,1,0,1:2:0:0:
210,338,31268,2,0,P|198:295|185:253,1,88.32,8|0,2:0|2:0,2:0:0:0:
362,118,31556,6,0,P|351:174|343:224,1,88.32,6|0,1:2|2:0,2:0:0:0:
171,48,31845,2,0,P|212:33|254:18,1,88.32,10|2,2:0|2:0,2:0:0:0:
113,174,32133,1,2,1:2:0:0:
241,234,32277,2,0,P|233:190|224:147,1,88.32,2|8,1:2|2:0,2:0:0:0:
65,293,32566,6,0,P|125:352|217:331,1,176.64,2|2,1:2|1:2,2:0:0:0:
112,175,32999,1,8,2:0:0:0:
324,204,33143,2,0,P|282:219|240:233,1,88.32,2|0,2:0|1:2,2:0:0:0:
348,384,33431,1,0,1:2:0:0:
348,384,33503,1,0,1:0:0:0:
348,384,33576,2,0,P|355:340|364:297,1,88.32,10|0,2:0|2:0,2:0:0:0:
465,100,33864,5,2,1:2:0:0:
324,204,34008,1,2,2:0:0:0:
269,43,34152,2,0,P|310:57|352:71,1,88.32,10|2,2:0|2:0,2:0:0:0:
159,160,34441,1,2,1:2:0:0:
286,250,34585,2,0,P|279:206|270:163,1,88.32,2|8,1:2|2:0,2:0:0:0:
128,325,34874,6,0,P|210:344|315:372,1,176.64,2|2,1:2|1:2,2:0:0:0:
159,160,35306,1,10,2:0:0:0:
376,292,35451,1,0,1:2:0:0:
270,163,35595,1,10,2:0:0:0:
422,93,35739,1,0,1:2:0:0:
285,249,35883,2,0,P|278:205|269:162,1,88.32,10|0,2:0|2:0,2:0:0:0:
137,8,36172,6,0,P|219:27|324:55,1,176.64,6|10,1:2|2:0,2:0:0:0:
140,211,36604,2,0,P|146:167|155:124,1,88.32,2|0,2:0|1:2,2:0:0:0:
285,249,36893,1,2,1:2:0:0:
228,65,37037,1,8,2:0:0:0:
477,185,37181,6,0,P|440:141|306:143,1,176.64,2|0,1:2|1:2,2:0:0:0:
422,316,37614,2,0,P|463:302|505:287,1,88.32,10|0,2:0|2:0,2:0:0:0:
285,249,37902,2,0,P|275:292|269:335,1,88.32,2|0,1:2|1:2,2:0:0:0:
385,222,38191,1,10,2:0:0:0:
187,288,38335,5,0,1:2:0:0:
187,288,38407,1,0,1:0:0:0:
187,288,38479,2,0,P|145:274|103:259,1,88.32,14|0,2:0|2:0,2:0:0:0:
239,119,38768,1,0,1:2:0:0:
94,59,38912,2,0,P|103:101|110:145,2,88.32,14|0|0,2:0|2:0|1:2,2:0:0:0:
206,195,39345,1,10,2:0:0:0:
0,138,39489,1,0,2:0:0:0:
181,0,39633,5,10,2:0:0:0:
106,236,39777,1,0,1:2:0:0:
332,141,39922,1,10,2:0:0:0:
187,100,40066,1,0,1:2:0:0:
355,265,40210,2,0,P|313:279|271:294,1,88.32,10|0,2:0|1:2,2:0:0:0:
436,376,40499,1,2,1:2:0:0:
234,206,40643,1,8,2:0:0:0:
373,166,40787,6,0,P|360:229|353:280,1,99.8400000000001,2|0,2:0|2:0,2:0:0:0:
215,107,41220,2,0,P|228:170|235:221,2,99.8400000000001,2|2|2,2:0|2:0|2:0,2:0:0:0:
111,248,41941,2,0,P|118:220|123:182,1,49.9200000000001,0|0,2:0|2:0,2:0:0:0:
209,328,42229,1,0,2:0:0:0:
209,328,42374,2,0,P|181:335|145:350,1,49.9200000000001,0|0,2:0|2:0,2:0:0:0:
233,205,42662,1,0,2:0:0:0:
233,205,42806,2,0,P|253:225|284:248,1,49.9200000000001,2|0,2:0|2:0,2:0:0:0:
442,289,43095,6,0,P|381:297|342:323,1,99.8400000000001,2|0,2:0|2:0,2:0:0:0:
451,187,43527,2,0,P|407:163|358:159,2,99.8400000000001,2|0|2,2:0|2:0|2:0,2:0:0:0:
409,24,44249,2,0,P|404:48|398:72,2,49.9200000000001,0|0|0,2:0|2:0|2:0,2:0:0:0:
289,43,44681,2,0,P|293:67|299:91,2,49.9200000000001,0|0|0,2:0|2:0|2:0,2:0:0:0:
194,17,45114,1,2,2:0:0:0:
194,17,45258,1,2,2:0:0:0:
118,103,45402,6,0,P|176:117|222:135,1,99.8400000000001,2|2,2:0|2:0,2:0:0:0:
150,246,45835,2,0,P|196:228|245:217,2,99.8400000000001,2|2|2,2:0|2:0|2:0,2:0:0:0:
253,338,46556,1,0,2:0:0:0:
27,230,46845,1,2,2:0:0:0:
249,100,47133,1,2,2:0:0:0:
150,246,47422,1,2,2:0:0:0:
150,246,47710,6,0,P|195:275|259:262,1,99.8400000000001,2|2,2:0|2:0,2:0:0:0:
310,193,48143,2,0,P|355:164|419:177,2,99.8400000000001,2|2|2,2:0|2:0|2:0,2:0:0:0:
413,297,48864,5,14,2:0:0:0:
329,60,49008,1,0,1:2:0:0:
413,297,49152,1,10,2:0:0:0:
216,143,49297,2,0,P|173:152|128:165,1,78.7200000000001,6|0,1:2|2:0,2:0:0:0:
33,248,49585,2,0,P|56:253|83:260,1,39.36,8|0,2:3|2:0,2:0:0:0:
189,333,49729,1,8,2:3:0:0:
189,333,49802,1,0,2:0:0:0:
189,333,49874,1,4,2:3:0:0:
189,333,49946,1,0,2:0:0:0:
189,333,50018,6,0,P|177:265|160:175,1,138.24,6|2,1:2|1:2,2:0:0:0:
292,278,50451,2,0,P|297:245|306:199,1,69.1199999999999,0|2,2:0|1:2,2:0:0:0:
353,361,50739,2,0,P|321:373|277:388,1,69.1199999999999,0|0,2:0|1:2,2:0:0:0:
397,268,51027,5,2,2:0:0:0:
397,268,51100,1,0,2:0:0:0:
397,268,51172,2,0,P|429:280|461:291,1,69.1199999999999,2|0,1:2|2:0,2:0:0:0:
398,104,51460,2,0,P|404:137|409:172,1,69.1199999999999,0|0,1:2|2:0,2:0:0:0:
292,278,51749,2,0,P|297:243|303:209,1,69.1199999999999,0|0,1:2|2:0,2:0:0:0:
100,285,52037,1,10,2:0:0:0:
213,176,52181,1,0,2:0:0:0:
11,53,52326,6,0,P|28:134|41:201,1,138.24,2|2,1:2|1:2,2:0:0:0:
213,176,52758,2,0,P|180:164|148:152,1,69.1199999999999,0|2,2:0|1:2,2:0:0:0:
169,38,53047,2,0,P|136:50|104:61,1,69.1199999999999,0|0,2:0|1:2,2:0:0:0:
270,90,53335,6,0,P|311:121|401:101,1,138.24,2|0,2:0|2:0,2:0:0:0:
224,244,53768,2,0,P|218:209|212:175,1,69.1199999999999,2|0,1:2|2:0,2:0:0:0:
360,241,54056,2,0,P|348:306|337:371,2,118.08,10|8|8,2:0|2:0|2:0,2:0:0:0:
214,334,54633,5,10,2:0:0:0:
488,267,54777,1,0,1:2:0:0:
498,252,55066,5,10,2:0:0:0:
224,185,55210,1,0,1:2:0:0:
210,167,55499,5,10,2:0:0:0:
484,100,55643,1,0,1:2:0:0:
500,86,55931,5,10,2:0:0:0:
226,19,56076,1,0,1:2:0:0:
206,0,56364,6,0,P|197:47|187:93,1,78.7200000000001,10|0,2:0|1:2,2:0:0:0:
408,189,56652,2,0,P|399:150|392:111,1,78.7200000000001,10|0,2:0|1:2,2:0:0:0:
190,361,56941,5,10,2:0:0:0:
280,138,57085,1,0,1:2:0:0:
259,123,57374,5,10,2:0:0:0:
349,346,57518,1,0,1:2:0:0:
366,368,57806,5,10,2:0:0:0:
456,145,57951,1,2,1:2:0:0:
465,130,58239,5,8,2:0:0:0:
229,222,58383,1,0,1:0:0:0:
385,288,58527,1,0,1:2:0:0:
385,288,58600,1,0,1:0:0:0:
385,288,58672,2,0,P|376:249|369:210,1,78.7200000000001,10|10,2:0|2:0,2:0:0:0:
207,46,58960,1,10,2:0:0:0:
465,130,59104,1,14,2:0:0:0:
67,352,60979,6,0,P|68:295|114:267,1,103.68,2|0,2:0|2:0,2:0:0:0:
179,230,61268,2,0,P|159:182|151:177,1,44.16,2|0,2:0|2:0,2:0:0:0:
113,128,61412,6,0,P|128:239|145:367,1,195.84,6|0,1:2|1:2,2:0:0:0:
313,233,61845,1,10,2:0:0:0:
216,384,61989,1,2,2:0:0:0:
426,266,62133,1,2,1:2:0:0:
230,155,62277,2,0,P|278:141|333:124,1,97.9200000000001,2|8,1:2|2:0,2:0:0:0:
512,38,62566,6,0,P|405:17|305:-3,1,195.84,2|2,1:2|1:2,2:0:0:0:
464,197,62999,1,10,2:0:0:0:
311,96,63143,1,2,2:0:0:0:
411,289,63287,1,2,1:2:0:0:
230,155,63431,2,0,P|217:208|203:264,1,97.9200000000001,2|10,1:2|2:0,2:0:0:0:
49,50,63720,6,0,P|97:36|152:19,1,97.9200000000001,6|0,1:2|2:0,2:0:0:0:
94,190,64008,2,0,P|46:176|0:161,1,97.9200000000001,2|8,1:2|2:0,2:0:0:0:
230,155,64297,2,0,P|217:208|203:264,1,97.9200000000001,2|0,2:0|1:2,2:0:0:0:
375,327,64585,2,0,P|363:279|351:231,1,97.9200000000001,2|8,1:2|2:0,2:0:0:0:
481,54,64874,6,0,P|431:121|326:104,1,195.84,2|0,1:2|1:2,2:0:0:0:
512,235,65306,1,10,2:0:0:0:
375,327,65451,1,0,1:0:0:0:
407,206,65595,2,0,L|355:227,1,48.9600000000001,8|0,2:3|2:0,2:0:0:0:
249,285,65739,2,0,L|203:266,1,48.9600000000001,8|0,2:3|2:0,2:0:0:0:
270,166,65883,1,10,2:0:0:0:
179,359,66027,6,0,P|163:262|143:150,1,195.84,6|0,1:2|1:2,2:0:0:0:
0,35,66460,2,0,P|46:49|93:63,1,97.9200000000001,10|0,2:0|2:0,2:0:0:0:
270,166,66749,2,0,P|317:152|363:137,1,97.9200000000001,2|0,1:2|1:2,2:0:0:0:
236,54,67037,1,10,2:0:0:0:
54,204,67181,6,0,P|95:268|233:247,1,195.84,4|0,1:2|1:2,2:0:0:0:
339,380,67614,2,0,P|327:332|315:284,1,97.9200000000001,10|0,2:0|2:0,2:0:0:0:
363,136,67902,2,0,P|316:152|270:166,1,97.9200000000001,2|0,1:2|1:2,2:0:0:0:
435,247,68191,1,10,2:0:0:0:
262,69,68335,6,0,P|353:87|482:116,1,195.84,4|0,1:2|1:2,2:0:0:0:
368,6,68768,5,10,2:0:0:0:
435,247,68912,1,0,1:2:0:0:
262,69,69056,5,10,2:0:0:0:
329,310,69201,1,0,1:2:0:0:
161,123,69345,5,10,2:0:0:0:
228,364,69489,1,0,1:2:0:0:
335,201,69633,6,0,L|285:191,3,48.9600000000001,8|0|0|0,2:0|1:2|1:2|1:2,2:0:0:0:
200,259,69922,2,0,L|151:268,3,48.9600000000001,8|0|0|0,2:3|1:2|1:2|1:2,2:0:0:0:
72,201,70210,1,10,2:0:0:0:
329,310,70354,1,6,1:2:0:0:
329,310,70643,6,0,P|340:216|357:92,1,195.84,6|0,1:2|1:2,2:0:0:0:
512,217,71076,2,0,P|465:231|418:245,1,97.9200000000001,10|2,2:0|2:0,2:0:0:0:
512,67,71364,1,2,1:2:0:0:
352,115,71508,2,0,P|305:129|258:143,1,97.9200000000001,2|8,1:2|2:0,2:0:0:0:
32,56,71797,6,0,P|105:80|121:198,1,195.84,2|2,1:2|1:2,2:0:0:0:
59,339,72229,1,10,2:0:0:0:
242,232,72374,1,2,2:0:0:0:
340,353,72518,1,2,1:2:0:0:
463,207,72662,2,0,P|416:221|369:235,1,97.9200000000001,2|10,1:2|2:0,2:0:0:0:
235,47,72951,6,0,P|246:94|257:142,1,97.9200000000001,6|0,1:2|2:0,2:0:0:0:
73,220,73239,2,0,P|83:172|95:124,1,97.9200000000001,2|8,1:2|2:0,2:0:0:0:
243,302,73527,2,0,P|196:316|149:330,1,97.9200000000001,2|0,2:0|1:2,2:0:0:0:
369,234,73816,2,0,P|416:248|463:262,1,97.9200000000001,2|8,1:2|2:0,2:0:0:0:
418,98,74104,6,0,P|325:78|251:172,1,195.84,2|2,1:2|1:2,2:0:0:0:
354,0,74537,1,10,2:0:0:0:
281,222,74681,1,0,1:2:0:0:
127,60,74826,1,10,2:0:0:0:
266,94,74970,1,0,1:2:0:0:
144,265,75114,2,0,P|154:217|166:169,1,97.9200000000001,10|0,2:0|2:0,2:0:0:0:
319,344,75402,6,0,P|215:365|111:389,2,195.84,6|10|2,1:2|2:0|1:2,2:0:0:0:
420,140,76124,1,0,1:2:0:0:
281,222,76268,1,8,2:0:0:0:
461,330,76412,6,0,P|499:277|445:161,1,195.84,2|0,2:0|1:2,2:0:0:0:
258,126,76845,2,0,P|269:173|280:221,1,97.9200000000001,10|0,2:0|2:0,2:0:0:0:
383,40,77133,1,0,1:2:0:0:
160,121,77277,1,10,2:0:0:0:
318,297,77422,1,10,2:0:0:0:
91,274,77566,6,0,P|185:247|288:218,1,195.84,6|2,1:2|1:2,2:0:0:0:
13,52,77999,2,0,P|58:124|176:107,1,195.84,8|0,2:0|1:2,2:0:0:0:
251,0,78431,1,0,1:2:0:0:
181,216,78576,2,0,P|170:168|158:120,1,97.9200000000001,8|0,2:0|2:0,2:0:0:0:
376,33,78864,6,0,P|364:80|353:128,1,97.9200000000001,2|0,1:2|1:0,2:0:0:0:
251,0,79152,1,10,2:0:0:0:
459,128,79297,1,0,2:0:0:0:
280,202,79441,2,0,L|293:251,1,48.9600000000001,8|8,2:0|2:0,2:0:0:0:
451,250,79585,2,0,L|438:299,1,48.9600000000001,0|0,1:2|1:2,2:0:0:0:
353,360,79729,1,0,1:2:0:0:
353,360,79802,1,0,1:2:0:0:
353,360,79874,1,0,1:2:0:0:
353,360,79946,1,0,1:2:0:0:
353,360,80018,6,0,P|298:372|247:385,1,97.9200000000001,14|0,2:0|2:0,2:0:0:0:
381,187,80306,1,10,2:0:0:0:
193,136,80451,2,0,P|206:183|221:229,1,97.9200000000001,0|10,1:2|2:0,2:0:0:0:
320,38,80739,1,0,1:2:0:0:
102,209,80883,2,0,P|54:197|6:186,1,97.9200000000001,10|0,2:0|1:2,2:0:0:0:
163,26,81172,5,10,2:0:0:0:
312,297,81316,2,0,P|359:285|407:274,1,97.9200000000001,0|10,1:2|2:0,2:0:0:0:
193,136,81604,1,0,1:2:0:0:
384,69,81749,2,0,P|370:116|355:162,1,97.9200000000001,10|0,2:0|1:2,2:0:0:0:
167,253,82037,1,10,2:0:0:0:
325,379,82181,5,0,1:2:0:0:
325,379,82253,1,0,1:2:0:0:
325,379,82326,2,0,P|309:332|295:285,1,97.9200000000001,14|0,2:0|1:2,2:0:0:0:
89,384,82614,1,10,2:0:0:0:
167,253,82758,2,0,P|119:240|71:229,1,97.9200000000001,0|10,1:2|2:0,2:0:0:0:
280,115,83047,1,0,1:2:0:0:
102,9,83191,1,10,2:0:0:0:
279,239,83335,1,0,1:2:0:0:
0,134,83479,6,0,P|47:121|95:110,1,97.9200000000001,10|0,2:0|1:2,2:0:0:0:
309,21,83768,2,0,P|295:67|279:114,1,97.9200000000001,10|8,2:0|2:0,2:0:0:0:
279,114,83984,1,8,2:0:0:0:
279,114,84056,1,8,2:0:0:0:
363,194,84201,1,8,2:3:0:0:
466,171,84345,1,8,2:3:0:0:
318,281,84489,1,4,2:3:0:0:
428,356,84633,6,0,P|407:252|373:76,1,276.48,6|2,1:2|2:0,2:0:0:0:
76,256,85643,6,0,P|153:200|235:221,1,176.64,6|0,1:2|1:2,2:0:0:0:
38,79,86076,1,10,2:0:0:0:
