osu file format v14

[General]
AudioFilename: audio.mp3
AudioLeadIn: 0
PreviewTime: 198474
Countdown: 0
SampleSet: Soft
StackLeniency: 0.7
Mode: 0
LetterboxInBreaks: 0
WidescreenStoryboard: 1

[Editor]
Bookmarks: 89435,235974
DistanceSpacing: 1
BeatDivisor: 4
GridSize: 32
TimelineZoom: 2.4

[Metadata]
Title:Belief
TitleUnicode:Belief
Artist:May'n
ArtistUnicode:May'n
Creator:-Hitomi
Version:maya's Hard
Source:TABOO TATTOO
Tags:タブー・タトゥー op opening anime japanese jrock rock j-rock full version ver female vocals vocalist l1ght_u light_u kalibe kanau silky uniform maya- little CloudSplash16 fuyuyu- mamayu sahuang
BeatmapID:3294610
BeatmapSetID:1604959

[Difficulty]
HPDrainRate:4.8
CircleSize:3.5
OverallDifficulty:6.5
ApproachRate:8
SliderMultiplier:1.3
SliderTickRate:1

[Events]
//Background and Video events
0,0,"yep.jpg",0,0
//Break Periods
2,41303,48430
2,182071,185737
//Storyboard Layer 0 (Background)
//Storyboard Layer 1 (Fail)
//Storyboard Layer 2 (Pass)
//Storyboard Layer 3 (Foreground)
//Storyboard Layer 4 (Overlay)
//Storyboard Sound Samples

[TimingPoints]
720,288.461538461538,4,2,1,50,1,0
1296,-153.846153846153,4,2,1,50,0,0
1728,-133.333333333333,4,2,1,50,0,0
3604,315.789473684211,4,2,1,50,1,0
4077,288.461538461538,4,2,1,50,1,0
4077,-133.333333333333,4,2,1,50,0,0
5230,326.086956521739,4,2,1,50,1,0
5882,299.625468164794,4,2,1,50,1,0
5882,-153.846153846153,4,2,1,50,0,0
6481,288.461538461538,4,2,1,50,1,0
6488,-200,4,2,1,50,0,0
8218,-133.333333333333,4,2,1,50,0,0
8788,289.57528957529,4,2,1,50,1,0
8788,-133.333333333333,4,2,1,50,0,0
10526,-100,4,2,1,50,0,0
11104,288.461538461538,4,2,1,60,1,0
11104,-100,4,2,1,60,0,0
13267,-90.9090909090909,4,2,1,70,0,0
22642,-133.333333333333,4,2,1,40,0,0
26968,-100,4,2,1,40,0,0
27257,-100,4,2,1,60,0,0
29565,284.36018957346,4,2,1,60,1,0
30702,279.06976744186,4,2,1,60,1,0
31260,306.90537084399,4,2,1,60,1,0
31260,-100,4,2,1,60,0,0
31566,-100,4,2,1,60,0,0
31872,-100,4,2,1,60,0,0
31873,288.461538461538,4,2,1,60,1,0
41103,-133.333333333333,4,2,69,50,0,0
49180,-100,4,2,1,60,0,0
49901,-100,4,2,1,60,0,0
50334,-100,4,2,1,50,0,0
54372,-71.4285714285714,4,2,1,80,0,0
54949,-100,4,2,1,60,0,0
57257,-100,4,2,1,70,0,0
61295,-133.333333333333,4,2,69,40,0,0
61728,-90.9090909090909,4,2,3,80,0,1
62017,-90.9090909090909,4,2,1,80,0,1
65911,-90.9090909090909,4,2,1,80,0,1
66199,-90.9090909090909,4,2,1,80,0,1
69949,-100,4,2,1,80,0,0
70670,-133.333333333333,4,2,1,80,0,0
70959,-90.9090909090909,4,2,3,80,0,1
71247,-90.9090909090909,4,2,1,80,0,1
80334,-90.9090909090909,4,2,3,80,0,1
80622,-90.9090909090909,4,2,1,80,0,1
84949,-200,4,2,1,80,0,0
85959,-100,4,2,1,70,0,1
86031,-100,4,2,1,70,0,0
87113,-100,4,2,1,70,0,0
88988,-100,4,2,1,70,0,0
89420,-90.9090909090909,4,2,1,70,0,0
98795,-133.333333333333,4,2,1,50,0,0
103122,-100,4,2,1,50,0,0
103411,-100,4,2,1,60,0,0
108026,-111.111111111111,4,2,1,40,0,0
114661,-100,4,2,1,40,0,0
116103,-100,4,2,1,40,0,0
116968,-100,4,2,1,40,0,0
117257,-100,4,2,1,50,0,0
121295,-71.4285714285714,4,2,1,60,0,0
121872,-100,4,2,1,60,0,0
124180,-100,4,2,69,60,0,0
125334,-100,4,2,1,70,0,0
127930,-111.111111111111,4,2,1,70,0,0
128218,-100,4,2,1,70,0,0
128651,-90.9090909090909,4,2,3,80,0,1
128795,-90.9090909090909,4,2,1,80,0,1
132834,-100,4,2,1,80,0,1
133122,-90.9090909090909,4,2,1,80,0,1
136872,-100,4,2,1,80,0,0
137882,-90.9090909090909,4,2,3,80,0,1
138026,-90.9090909090909,4,2,1,80,0,1
145238,277.777777777778,4,2,1,80,1,1
145238,-90.9090909090909,4,2,1,80,0,1
145793,312.5,4,2,1,80,1,1
146103,260.869565217391,4,2,1,80,1,1
146363,300,4,2,1,80,1,1
146963,294.117647058824,4,2,1,80,1,1
146963,-90.9090909090909,4,2,1,80,0,1
147257,288.461538461538,4,2,1,60,1,0
147257,-111.111111111111,4,2,1,60,0,0
156488,-100,4,2,1,60,0,0
157785,-99.009900990099,4,2,1,60,0,0
157930,283.018867924528,4,2,1,60,1,0
158779,294.117647058824,4,2,1,60,1,0
159661,288.461538461538,4,2,1,60,1,0
159949,288.461538461538,4,2,69,60,1,0
159949,-100,4,2,69,60,0,0
160958,-111.111111111111,4,2,1,60,0,0
162690,-100,4,2,1,60,0,0
163266,-111.111111111111,4,2,1,60,0,0
164997,-100,4,2,1,60,0,0
165574,-111.111111111111,4,2,1,60,0,0
167305,-100,4,2,1,60,0,0
167881,-111.111111111111,4,2,1,60,0,0
169179,-111.111111111111,4,2,1,65,0,0
169612,-100,4,2,1,65,0,0
170189,-90.9090909090909,4,2,1,70,0,1
178410,283.018867924528,4,2,1,70,1,1
178410,-76.9230769230769,4,2,1,70,0,1
178976,294.117647058824,4,2,1,70,1,1
178976,-111.111111111111,4,2,1,70,0,1
179417,-111.111111111111,4,2,35,70,0,1
179564,288.461538461538,4,2,1,60,1,0
179564,-200,4,2,35,70,0,0
179636,-200,4,2,1,15,0,0
186487,-200,4,2,1,45,0,0
188794,-111.111111111111,4,2,1,50,0,0
193410,-200,4,2,1,50,0,0
194563,-133.333333333333,4,2,1,50,0,0
195717,-100,4,2,1,60,0,0
196727,-100,4,2,1,70,0,0
198602,-133.333333333333,4,2,69,50,0,0
198892,-133.333333333333,4,2,1,50,0,0
199035,-90.9090909090909,4,2,3,80,0,1
199324,-90.9090909090909,4,2,1,80,0,1
207256,-100,4,2,1,80,0,0
207978,-133.333333333333,4,2,1,50,0,0
208265,-90.9090909090909,4,2,3,80,0,1
208555,-90.9090909090909,4,2,1,80,0,1
217640,-90.9090909090909,4,2,3,80,0,1
217786,-90.9090909090909,4,2,1,80,0,1
219948,285.714285714286,4,2,1,80,1,1
219948,-90.9090909090909,4,2,1,80,0,1
221662,292.682926829268,4,2,1,80,1,1
221662,-90.9090909090909,4,2,1,80,0,1
222247,294.117647058824,4,2,1,60,1,0
222247,-200,4,2,1,60,0,0
223276,285.714285714286,4,2,1,60,1,0
223276,-100,4,2,1,60,0,1
223347,-100,4,2,1,60,0,0
223990,288.461538461538,4,2,1,60,1,0
224420,-200,4,2,1,60,0,0
226297,260.869565217391,4,2,1,60,1,0
226297,-133.333333333333,4,2,1,60,0,0
226584,-133.333333333333,4,2,1,60,0,0
226688,310.880829015544,4,2,1,60,1,0
226688,-90.9090909090909,4,2,1,60,0,0
226998,293.757649938801,4,2,1,60,1,0
227144,293.757649938801,4,2,1,60,1,0
227144,-90.9090909090909,4,2,1,60,0,0
227878,-90.0900900900901,4,2,1,60,0,0
228025,288.461538461538,4,2,1,60,1,0
228169,-90.9090909090909,4,2,1,60,0,0
237257,-90.9090909090909,4,2,1,50,0,0
238699,-90.9090909090909,4,2,1,40,0,0
240142,-90.9090909090909,4,2,1,30,0,0
241584,-90.9090909090909,4,2,1,20,0,0
241726,-100,4,2,2,20,0,0

[Colours]
Combo1 : 255,155,195
Combo2 : 245,255,155
Combo3 : 155,255,215
Combo4 : 165,155,255

[HitObjects]
159,97,1296,6,2,P|141:147|148:199,1,105.624995164871,0|0,0:0|0:0,0:0:0:0:
163,218,1729,6,0,L|271:204,1,97.50000371933,2|0,0:0|0:0,0:0:0:0:
333,254,2162,2,0,L|326:313,1,48.750001859665,2|2,0:0|0:0,0:0:0:0:
260,359,2450,1,2,0:0:0:0:
260,359,2594,1,2,0:0:0:0:
435,344,2883,2,0,P|454:292|439:239,1,97.50000371933,2|2,0:2|0:0,0:0:0:0:
391,182,3316,2,0,L|332:175,2,48.750001859665,2|0|2,0:0|0:0|0:0,0:0:0:0:
434,105,3761,1,2,0:0:0:0:
261,138,4077,6,0,P|253:185|272:230,1,97.50000371933,2|2,0:0|0:0,0:0:0:0:
434,105,4653,2,0,P|441:57|422:12,1,97.50000371933,2|2,0:0|0:0,0:0:0:0:
347,121,5230,1,2,0:0:0:0:
103,32,5882,6,0,P|173:14|189:99,1,168.999992263794,2|4,0:1|1:0,0:0:0:0:
422,12,7634,5,4,1:0:0:0:
481,187,8788,6,0,L|368:197,1,97.50000371933,4|0,1:0|1:0,0:0:0:0:
289,328,9367,2,0,L|386:319,1,97.50000371933,0|0,1:0|1:0,0:0:0:0:
254,225,9946,1,0,1:0:0:0:
165,209,10235,1,0,1:0:0:0:
76,193,10526,1,0,1:0:0:0:
149,298,10815,1,8,0:0:0:0:
168,190,11104,6,0,L|158:99,2,65,12|0|0,0:0|1:0|1:0,0:0:0:0:
237,258,11536,2,0,L|227:349,2,65,8|0|0,0:0|1:0|1:0,0:0:0:0:
310,199,11968,1,8,0:0:0:0:
395,258,12113,1,0,1:0:0:0:
395,258,12185,1,0,1:0:0:0:
395,258,12257,2,0,P|427:259|457:248,1,65,8|0,0:0|1:0,0:0:0:0:
440,117,12545,2,0,P|407:115|377:126,1,65,8|0,0:0|1:0,0:0:0:0:
512,172,12834,1,8,0:0:0:0:
512,172,12978,1,8,0:0:0:0:
407,24,13267,6,0,B|349:26|349:26|324:43|324:43|269:45,1,143.000004364014,4|0,1:0|1:0,0:0:0:0:
166,15,13699,1,8,0:0:0:0:
227,166,13988,2,0,P|191:128|85:140,1,143.000004364014,0|8,1:0|0:0,0:0:0:0:
94,226,14421,2,0,P|130:264|236:252,1,143.000004364014,2|0,0:0|1:0,0:0:0:0:
303,224,14853,1,8,0:0:0:0:
482,265,15142,1,0,1:0:0:0:
418,322,15286,2,0,L|335:312,1,71.5000021820069,0|8,1:0|0:0,0:0:0:0:
397,215,15574,6,0,P|429:132|392:77,1,143.000004364014,4|0,1:0|1:0,0:0:0:0:
330,44,16007,2,0,B|297:58|297:58|261:57,1,71.5000021820069,8|0,0:0|0:0,0:0:0:0:
175,43,16295,1,0,1:0:0:0:
91,25,16440,2,0,B|55:24|55:24|22:38,1,71.5000021820069,0|8,1:0|0:0,0:0:0:0:
1,132,16728,2,0,L|148:144,1,143.000004364014,2|0,0:0|1:0,0:0:0:0:
236,127,17161,2,0,P|246:161|247:196,1,71.5000021820069,8|0,0:0|0:0,0:0:0:0:
135,250,17449,2,0,P|135:214|146:180,2,71.5000021820069,10|8|8,0:2|3:0|0:0,0:0:0:0:
230,300,17882,6,0,B|269:331|269:331|361:321,1,143.000004364014,4|0,1:0|1:0,0:0:0:0:
438,267,18315,2,0,B|440:209|440:209|457:184|457:184|459:129,1,143.000004364014,8|2,0:0|1:2,0:0:0:0:
351,13,18892,2,0,L|268:23,1,71.5000021820069,8|0,0:0|0:0,0:0:0:0:
207,73,19180,2,0,B|221:106|221:106|220:142,1,71.5000021820069,2|2,1:2|1:2,0:0:0:0:
121,206,19468,2,0,B|107:173|107:173|108:137,1,71.5000021820069,8|0,0:0|0:0,0:0:0:0:
224,247,19757,2,0,L|307:237,2,71.5000021820069,0|0|8,1:0|1:0|0:0,0:0:0:0:
143,312,20190,6,0,P|77:335|16:302,1,143.000004364014,4|0,1:0|1:0,0:0:0:0:
34,199,20622,2,0,P|65:182|100:175,1,71.5000021820069,8|0,0:0|1:0,0:0:0:0:
85,84,20911,2,0,P|120:85|154:97,1,71.5000021820069,8|0,0:0|1:0,0:0:0:0:
236,162,21199,1,8,0:0:0:0:
323,140,21343,2,0,B|325:82|325:82|342:57|342:57|344:2,1,143.000004364014,4|0,1:0|1:0,0:0:0:0:
343,2,21704,1,0,1:0:0:0:
343,2,21776,1,8,0:0:0:0:
452,124,22065,5,10,0:0:0:0:
427,216,22209,1,8,1:2:0:0:
437,224,22642,6,0,L|448:338,2,97.50000371933,4|0|0,1:0|1:0|1:0,0:0:0:0:
260,295,23507,1,0,1:0:0:0:
260,295,23651,2,0,P|197:273|174:233,1,97.50000371933,2|2,0:0|0:0,0:0:0:0:
184,89,24228,2,0,P|247:111|270:151,1,97.50000371933,2|0,0:0|0:0,0:0:0:0:
294,212,24661,1,8,0:0:0:0:
300,32,24949,6,0,L|410:42,2,97.50000371933,4|0|0,1:0|1:0|1:0,0:0:0:0:
109,8,25815,1,0,1:0:0:0:
109,8,25959,2,0,B|58:5|58:5|19:32,1,97.50000371933,8|0,0:0|0:0,0:0:0:0:
43,144,26536,2,0,B|68:145|68:145|87:131,1,48.750001859665,10|0,0:0|1:0,0:0:0:0:
184,89,26824,5,8,0:0:0:0:
184,89,26896,1,8,0:0:0:0:
184,89,26968,2,0,L|177:153,1,65,8|0,0:0|1:0,0:0:0:0:
114,213,27257,2,0,P|172:190|260:215,1,130,12|0,0:0|1:0,0:0:0:0:
327,288,27690,2,0,P|269:311|181:286,1,130,8|0,0:0|1:0,0:0:0:0:
324,200,28122,1,8,0:0:0:0:
468,262,28411,6,0,B|467:301|467:301|479:323,2,65,8|0|0,0:0|1:0|1:0,0:0:0:0:
507,175,28843,2,0,B|510:108|510:108|474:56,1,130,8|0,0:0|1:0,0:0:0:0:
425,134,29276,1,8,0:0:0:0:
295,30,29565,6,0,L|158:16,1,130,12|0,0:0|1:0,0:0:0:0:
106,125,29991,2,0,L|243:111,1,130,8|0,0:0|1:0,0:0:0:0:
318,152,30418,1,8,0:0:0:0:
204,242,30702,5,8,0:0:0:0:
204,242,30841,1,0,1:0:0:0:
266,303,30981,2,0,L|330:309,1,65,8|0,0:0|1:0,0:0:0:0:
418,278,31260,1,4,3:0:0:0:
418,278,31336,1,4,3:0:0:0:
418,278,31413,2,0,L|470:271,2,32.5,8|8|8,3:0|3:0|0:0,0:0:0:0:
223,122,31873,6,0,L|144:114,1,65,4|0,1:0|0:0,0:0:0:0:
109,194,32161,2,0,B|144:222|144:222|228:213,1,130,8|0,0:0|1:0,0:0:0:0:
319,232,32594,2,0,P|342:270|336:313,1,65,0|8,1:0|0:0,0:0:0:0:
269,348,32882,2,0,P|320:332|396:365,1,130,0|0,1:0|1:0,0:0:0:0:
508,266,33459,2,0,L|497:123,1,130,2|0,0:0|1:0,0:0:0:0:
410,120,33892,2,0,B|381:134|381:134|349:133,1,65,8|2,0:0|0:0,0:0:0:0:
288,60,34180,5,0,1:0:0:0:
288,60,34324,1,0,0:0:0:0:
219,120,34468,2,0,L|226:198,1,65,8|2,0:0|0:0,0:0:0:0:
143,229,34757,1,0,1:0:0:0:
65,183,34901,2,0,B|69:134|69:134|88:109|88:109|92:60,1,130,0|0,1:0|1:0,0:0:0:0:
251,24,35478,1,8,1:0:0:0:
304,109,35622,2,0,P|335:115|366:106,1,65,8|0,0:0|1:0,0:0:0:0:
449,29,35911,2,0,P|479:19|511:26,1,65,8|0,0:0|1:0,0:0:0:0:
483,112,36199,1,8,0:0:0:0:
512,275,36488,6,0,B|454:248|454:248|389:263,1,130,4|8,1:0|0:0,0:0:0:0:
303,296,36920,1,2,0:0:0:0:
216,328,37065,2,0,B|184:336|184:336|155:322,2,65,0|0|8,1:0|1:0|0:0,0:0:0:0:
228,235,37497,2,0,L|210:83,1,130,0|0,1:0|1:0,0:0:0:0:
129,71,37930,1,8,0:0:0:0:
42,215,38218,2,0,P|35:246|45:276,1,65,8|0,0:0|1:0,0:0:0:0:
116,339,38507,1,8,0:0:0:0:
116,339,38651,1,0,1:0:0:0:
204,293,38795,6,0,B|253:297|253:297|278:316|278:316|327:320,1,130,12|0,0:0|1:0,0:0:0:0:
420,305,39228,1,8,0:0:0:0:
446,215,39372,2,0,P|395:199|319:232,1,130,0|8,1:0|0:0,0:0:0:0:
175,141,39949,1,8,0:0:0:0:
175,141,40093,1,0,1:0:0:0:
99,188,40238,1,8,0:0:0:0:
99,188,40382,1,0,1:0:0:0:
27,127,40526,2,0,B|19:95|19:95|33:66,1,65,8|0,0:0|1:0,0:0:0:0:
113,10,40815,2,0,L|178:2,1,65,0|8,1:0|0:0,0:0:0:0:
254,55,41103,5,2,0:0:0:0:
169,128,49180,6,0,L|233:135,2,65,8|0|8,0:0|0:0|0:0,0:0:0:0:
134,208,49613,2,0,L|263:223,1,130,0|8,1:0|0:0,0:0:0:0:
263,223,49973,1,8,0:0:0:0:
263,223,50045,1,8,0:0:0:0:
235,311,50190,1,8,0:0:0:0:
300,369,50334,6,0,P|360:334|431:347,2,130,4|0|0,1:0|1:0|1:0,0:0:0:0:
145,314,51199,2,0,L|61:307,1,65,0|2,1:0|0:0,0:0:0:0:
202,236,51488,2,0,L|331:225,2,130,0|0|2,0:0|1:0|1:2,0:0:0:0:
5,259,52353,1,10,1:2:0:0:
78,86,52642,6,0,P|132:75|192:132,1,130,0|0,1:0|1:0,0:0:0:0:
273,179,53074,1,2,0:0:0:0:
273,179,53218,2,0,P|327:190|387:133,1,130,0|0,1:0|1:0,0:0:0:0:
464,201,53651,1,2,0:1:0:0:
464,201,53795,1,0,0:0:0:0:
317,298,54084,1,0,1:0:0:0:
177,213,54372,6,0,B|180:142|180:142|169:111|169:111|183:60,2,136.499995834351,8|8|8,0:0|0:0|0:0,0:0:0:0:
168,302,54949,5,12,0:0:0:0:
168,302,55093,1,0,1:0:0:0:
62,153,55382,5,8,0:0:0:0:
62,153,55526,1,0,1:0:0:0:
206,26,55815,5,8,0:0:0:0:
206,26,55959,1,0,1:0:0:0:
310,176,56247,5,8,0:0:0:0:
310,176,56391,1,0,1:0:0:0:
119,95,56680,6,0,L|111:22,1,65,8|0,0:0|1:0,0:0:0:0:
213,117,56968,2,0,L|205:190,1,65,8|0,0:0|1:0,0:0:0:0:
194,270,57257,5,8,0:0:0:0:
272,251,57401,1,0,1:0:0:0:
385,105,57690,5,8,0:0:0:0:
307,86,57834,1,0,1:0:0:0:
415,248,58122,5,8,0:0:0:0:
450,176,58267,1,0,1:0:0:0:
276,278,58555,5,8,0:0:0:0:
327,346,58699,2,0,B|358:353|358:353|390:346,1,65,0|0,1:0|1:0,0:0:0:0:
405,336,58916,1,0,1:0:0:0:
405,336,58988,2,0,L|411:250,1,65,8|0,0:0|1:0,0:0:0:0:
363,202,59276,1,8,0:0:0:0:
407,124,59420,1,0,1:0:0:0:
71,123,61295,6,0,B|30:98|30:98|80:102,1,97.50000371933,2|0,0:0|0:0,0:0:0:0:
157,145,61728,6,0,B|152:198|152:198|131:226|131:226|127:280,1,143.000004364014,12|0,1:0|1:0,0:0:0:0:
230,335,62161,2,0,L|220:255,1,71.5000021820069,8|0,0:0|0:0,0:0:0:0:
267,150,62449,1,8,1:0:0:0:
331,214,62593,2,0,L|322:284,1,71.5000021820069,8|8,1:0|0:0,0:0:0:0:
414,362,62882,6,0,P|469:345|498:260,1,143.000004364014,8|0,1:0|1:0,0:0:0:0:
427,196,63315,2,0,P|412:163|417:129,1,71.5000021820069,8|2,0:0|0:0,0:0:0:0:
465,60,63603,1,8,1:0:0:0:
465,60,63747,1,8,1:0:0:0:
297,50,64036,6,0,B|225:66|225:66|161:36,1,143.000004364014,12|0,1:0|1:0,0:0:0:0:
61,29,64468,1,8,0:0:0:0:
40,125,64613,2,0,B|111:108|111:108|175:138,1,143.000004364014,2|8,0:0|1:0,0:0:0:0:
99,201,65045,2,0,L|165:231,1,71.5000021820069,8|0,0:0|0:0,0:0:0:0:
256,205,65334,6,0,B|241:236|241:236|249:272,1,71.5000021820069,0|0,0:0|1:0,0:0:0:0:
289,347,65622,2,0,P|235:324|159:371,1,143.000004364014,8|8,0:0|0:0,0:0:0:0:
164,361,65983,1,4,3:0:0:0:
164,361,66055,1,8,3:0:0:0:
109,300,66199,1,8,0:0:0:0:
119,215,66343,6,0,B|157:184|157:184|249:194,1,143.000004364014,12|8,1:0|1:0,0:0:0:0:
274,92,66776,2,0,L|203:100,1,71.5000021820069,8|0,0:0|0:0,0:0:0:0:
346,155,67065,2,0,P|373:132|389:101,2,71.5000021820069,8|8|8,1:0|1:0|0:0,0:0:0:0:
250,194,67497,6,0,P|227:237|253:328,1,143.000004364014,8|0,1:0|0:0,0:0:0:0:
340,312,67930,1,8,0:0:0:0:
503,339,68218,1,8,1:0:0:0:
466,251,68363,1,8,1:0:0:0:
466,251,68507,1,8,0:0:0:0:
512,173,68651,6,0,L|370:157,1,143.000004364014,12|0,1:0|1:0,0:0:0:0:
297,101,69084,1,8,0:0:0:0:
297,101,69228,1,0,1:0:0:0:
209,136,69372,2,0,B|194:167|194:167|202:203,1,71.5000021820069,8|0,0:0|1:0,0:0:0:0:
273,275,69661,2,0,L|371:259,1,71.5000021820069,8|0,0:0|1:0,0:0:0:0:
206,343,69949,5,8,0:0:0:0:
206,343,70021,1,8,0:0:0:0:
206,343,70093,1,8,0:0:0:0:
122,286,70238,2,0,L|73:278,2,32.5,8|8|0,1:2|1:0|1:0,0:0:0:0:
190,220,70526,5,10,0:0:0:0:
111,160,70670,1,8,0:0:0:0:
101,176,70959,6,0,L|243:160,1,143.000004364014,12|0,1:0|1:0,0:0:0:0:
315,78,71392,2,0,P|315:42|334:13,2,71.5000021820069,8|0|8,0:0|0:0|1:0,0:0:0:0:
410,101,71824,1,8,1:0:0:0:
328,228,72113,6,0,P|374:197|466:234,1,143.000004364014,8|0,1:0|1:0,0:0:0:0:
447,314,72545,2,0,L|376:322,1,71.5000021820069,8|2,0:0|0:0,0:0:0:0:
283,362,72834,1,8,1:0:0:0:
223,298,72978,2,0,L|152:290,1,71.5000021820069,8|8,1:0|0:0,0:0:0:0:
64,337,73267,6,0,B|33:299|33:299|43:207,1,143.000004364014,12|8,1:0|1:0,0:0:0:0:
102,132,73699,1,8,0:0:0:0:
38,70,73843,2,0,B|23:39|23:39|31:3,1,71.5000021820069,2|8,0:0|1:0,0:0:0:0:
135,40,74132,2,0,B|150:71|150:71|142:107,1,71.5000021820069,0|8,1:0|0:0,0:0:0:0:
34,192,74420,6,0,P|15:186|-3:184,2,35.7500010910034,8|0|0,1:0|0:0|0:0,0:0:0:0:
103,259,74709,1,8,1:0:0:0:
171,192,74853,2,0,P|206:184|241:189,1,71.5000021820069,8|0,0:0|0:0,0:0:0:0:
355,261,75142,2,0,P|319:256|285:264,1,71.5000021820069,8|8,0:0|3:0,0:0:0:0:
271,347,75430,1,8,0:0:0:0:
366,376,75574,1,0,0:0:0:0:
366,376,75646,1,0,0:0:0:0:
366,376,75718,6,0,B|418:368|418:368|450:381|450:381|504:372,1,143.000004364014,12|8,1:0|0:0,0:0:0:0:
505,213,76295,2,0,B|513:177|513:177|498:146,1,71.5000021820069,8|8,1:0|1:0,0:0:0:0:
411,191,76584,1,8,0:0:0:0:
339,269,76728,6,0,B|309:207|309:207|325:135,1,143.000004364014,12|0,1:0|1:0,0:0:0:0:
394,68,77161,2,0,L|465:60,1,71.5000021820069,8|0,0:0|0:0,0:0:0:0:
323,8,77449,2,0,L|252:0,1,71.5000021820069,8|8,1:0|1:0,0:0:0:0:
180,55,77738,1,8,0:0:0:0:
99,9,77882,6,0,B|68:47|68:47|78:139,1,143.000004364014,12|0,1:0|1:0,0:0:0:0:
156,200,78315,2,0,P|191:192|226:197,1,71.5000021820069,8|0,0:0|0:0,0:0:0:0:
128,286,78603,2,0,P|93:294|58:289,1,71.5000021820069,8|8,1:0|1:0,0:0:0:0:
0,219,78892,1,8,0:0:0:0:
173,190,79180,5,8,1:0:0:0:
173,190,79324,1,0,0:0:0:0:
248,249,79468,2,0,B|279:264|279:264|315:256,1,71.5000021820069,8|0,0:0|0:0,0:0:0:0:
350,169,79757,2,0,L|401:159,3,35.7500010910034,8|8|8|8,0:0|0:0|0:0|0:0,0:0:0:0:
415,165,80045,2,0,L|466:155,3,35.7500010910034,8|8|8|8,1:0|1:0|1:0|1:0,0:0:0:0:
439,196,80334,6,0,P|459:235|426:328,1,143.000004364014,12|8,1:0|0:0,0:0:0:0:
309,356,80767,2,0,P|278:293|300:227,1,143.000004364014,0|0,1:0|1:0,0:0:0:0:
241,136,81199,6,0,B|293:128|293:128|325:141|325:141|379:132,1,143.000004364014,8|8,0:0|0:0,0:0:0:0:
387,39,81632,2,0,B|331:48|331:48|299:35|299:35|247:43,1,143.000004364014,0|0,1:0|1:0,0:0:0:0:
160,68,82065,2,0,P|125:76|90:71,2,71.5000021820069,8|0|8,0:0|1:0|0:0,0:0:0:0:
241,136,82497,1,8,1:0:0:0:
241,136,82569,1,8,1:0:0:0:
241,136,82642,6,0,B|272:174|272:174|262:266,1,143.000004364014,12|8,0:0|0:0,0:0:0:0:
173,334,83074,2,0,B|142:296|142:296|152:204,1,143.000004364014,0|0,1:0|1:0,0:0:0:0:
58,136,83507,2,0,B|50:207,1,71.5000021820069,8|0,0:0|1:0,0:0:0:0:
41,292,83795,5,8,0:0:0:0:
41,292,83940,1,0,1:0:0:0:
117,342,84084,2,0,B|153:350|153:350|184:335,1,71.5000021820069,8|8,0:0|1:2,0:0:0:0:
204,322,84300,1,8,1:2:0:0:
204,322,84372,2,0,B|235:307|235:307|271:315,1,71.5000021820069,8|0,1:2|0:0,0:0:0:0:
357,349,84661,2,0,P|392:353|426:345,1,71.5000021820069,2|0,0:0|0:0,0:0:0:0:
478,270,84949,5,4,1:0:0:0:
404,57,85959,6,0,B|373:43|373:43|344:53|344:53|312:45|312:45|282:59,1,130,4|0,1:0|0:0,0:0:0:0:
205,115,86392,1,8,0:0:0:0:
256,192,87113,12,0,88988,0:0:0:0:
289,209,89420,6,0,B|250:240|250:240|158:230,1,143.000004364014,4|0,1:0|1:0,0:0:0:0:
74,296,89853,1,8,0:0:0:0:
6,152,90142,1,8,1:0:0:0:
6,152,90286,1,8,1:0:0:0:
59,69,90430,2,0,B|92:63|92:63|139:78,1,71.5000021820069,8|0,0:0|0:0,0:0:0:0:
189,153,90718,1,8,1:0:0:0:
189,153,90863,1,8,1:0:0:0:
257,78,91007,2,0,B|293:79|293:79|326:65,1,71.5000021820069,8|0,0:0|0:0,0:0:0:0:
402,3,91295,1,8,1:0:0:0:
439,78,91440,2,0,L|449:161,1,71.5000021820069,0|10,1:0|0:0,0:0:0:0:
379,207,91728,6,0,P|444:183|505:216,1,143.000004364014,4|0,1:0|0:0,0:0:0:0:
472,326,92161,2,0,P|406:349|345:316,1,143.000004364014,8|8,0:0|1:0,0:0:0:0:
277,269,92593,1,0,1:0:0:0:
200,306,92738,1,8,0:0:0:0:
38,262,93026,2,0,B|30:297|30:297|38:332,1,71.5000021820069,8|0,1:0|1:0,0:0:0:0:
126,208,93315,2,0,B|133:172|133:172|125:137,1,71.5000021820069,8|8,0:0|1:0,0:0:0:0:
125,138,93531,1,8,1:0:0:0:
125,138,93603,1,8,0:0:0:0:
78,64,93747,2,0,P|43:57|8:61,1,71.5000021820069,8|4,1:3|1:3,0:0:0:0:
160,21,94036,6,0,P|225:44|286:11,1,143.000004364014,12|0,1:0|0:0,0:0:0:0:
359,64,94468,2,0,L|349:147,1,71.5000021820069,8|0,0:0|0:0,0:0:0:0:
299,203,94757,1,2,1:2:0:0:
299,203,94901,1,2,1:2:0:0:
354,265,95045,2,0,P|388:271|423:267,1,71.5000021820069,8|0,0:0|0:0,0:0:0:0:
466,351,95334,2,0,B|408:353|408:353|383:370|383:370|328:372,1,143.000004364014,2|8,1:2|0:0,0:0:0:0:
163,348,95911,2,0,B|127:349|127:349|93:336,2,71.5000021820069,8|8|8,1:0|1:0|0:0,0:0:0:0:
141,257,96343,6,0,B|137:185|137:185|163:118,1,143.000004364014,12|0,1:0|1:0,0:0:0:0:
244,74,96776,2,0,P|275:91|310:98,1,71.5000021820069,8|0,0:0|1:0,0:0:0:0:
295,189,97065,2,0,P|330:188|364:176,1,71.5000021820069,8|0,0:0|1:0,0:0:0:0:
431,104,97353,1,8,0:0:0:0:
490,176,97497,2,0,B|459:215|459:215|469:307,1,143.000004364014,12|8,1:0|1:0,0:0:0:0:
469,307,97858,1,8,1:0:0:0:
469,307,97930,1,8,0:0:0:0:
330,359,98218,5,8,0:0:0:0:
355,267,98362,1,8,1:2:0:0:
84,50,98795,5,4,1:0:0:0:
220,180,99084,2,0,P|267:186|312:168,1,97.50000371933,8|0,0:0|1:0,0:0:0:0:
323,85,99517,2,0,L|266:75,1,48.750001859665,8|2,0:0|0:0,0:0:0:0:
395,137,99805,2,2,L|509:117,1,97.50000371933,8|0,0:0|1:0,0:0:0:0:
489,205,100238,2,0,P|482:228|485:252,1,48.750001859665,2|2,0:0|0:0,0:0:0:0:
504,335,100526,1,0,1:0:0:0:
504,335,100670,1,0,1:0:0:0:
426,371,100815,1,8,0:0:0:0:
466,202,101103,5,2,1:2:0:0:
291,203,101392,2,0,P|244:197|199:215,1,97.50000371933,8|0,0:0|0:0,0:0:0:0:
189,299,101825,2,0,L|246:309,1,48.750001859665,8|0,1:2|0:0,0:0:0:0:
117,247,102113,2,0,L|3:267,1,97.50000371933,8|0,0:0|0:0,0:0:0:0:
23,179,102546,2,0,P|29:155|26:131,1,48.750001859665,0|10,1:0|0:0,0:0:0:0:
8,49,102834,1,0,1:0:0:0:
8,49,102978,1,8,0:0:0:0:
91,17,103122,1,8,0:0:0:0:
232,73,103411,6,0,B|205:131|205:131|220:196,1,130,12|0,0:0|1:0,0:0:0:0:
335,185,103843,2,0,B|362:127|362:127|347:62,1,130,8|0,0:0|1:0,0:0:0:0:
280,6,104276,1,8,0:0:0:0:
239,161,104565,2,0,L|249:290,1,130,8|0,0:0|1:0,0:0:0:0:
327,355,104997,1,0,1:0:0:0:
415,311,105142,2,0,B|428:282|428:282|421:249,1,65,8|0,0:0|1:0,0:0:0:0:
356,181,105430,1,8,0:0:0:0:
356,181,105574,1,0,1:0:0:0:
392,98,105718,6,0,P|450:72|512:87,1,130,12|0,0:0|1:0,0:0:0:0:
459,160,106151,1,8,0:0:0:0:
310,113,106440,1,0,1:0:0:0:
252,31,106584,2,0,L|150:42,1,97.5,8|0,0:0|0:0,0:0:0:0:
140,59,106872,2,0,P|137:91|152:119,2,65,8|0|8,0:0|1:0|0:0,0:0:0:0:
65,10,107305,1,0,1:0:0:0:
65,10,107377,1,0,1:0:0:0:
65,10,107449,2,0,L|0:3,1,65,4|8,3:0|3:0,0:0:0:0:
0,93,107738,2,0,L|6:157,1,65,8|2,3:0|3:0,0:0:0:0:
72,215,108026,6,0,B|129:203|129:238|187:222,3,116.999996429443,4|0|0|0,1:0|1:0|1:0|1:0,0:0:0:0:
270,115,109180,2,0,B|212:99|212:134|155:122,2,116.999996429443,0|0|0,0:0|1:0|1:0,0:0:0:0:
351,246,110045,1,8,0:0:0:0:
351,246,110334,6,0,P|299:271|244:254,3,116.999996429443,0|0|0|0,1:0|1:0|1:0|1:0,0:0:0:0:
200,182,111343,1,2,1:0:0:0:
242,110,111488,2,0,P|293:84|348:101,1,116.999996429443,0|2,0:0|0:0,0:0:0:0:
392,175,111920,1,8,0:2:0:0:
465,140,112065,2,0,B|478:111|478:111|471:78,1,58.4999982147217,0|0,1:0|0:0,0:0:0:0:
389,15,112353,2,0,B|376:44|376:44|383:77,1,58.4999982147217,0|0,1:0|0:0,0:0:0:0:
303,113,112642,6,0,B|263:108|263:108|235:124|235:124|190:120,3,116.999996429443,4|0|0|0,1:0|1:0|1:0|1:0,0:0:0:0:
10,182,113795,2,0,B|49:177|49:177|77:193|77:193|122:189,2,116.999996429443,0|0|0,1:0|1:0|1:0,0:0:0:0:
26,347,114661,2,0,L|34:282,1,65,8|2,0:0|0:0,0:0:0:0:
113,357,114949,6,0,P|169:328|228:351,1,130,12|0,0:0|1:0,0:0:0:0:
302,305,115382,1,8,0:0:0:0:
383,330,115526,2,0,P|441:352|498:324,1,130,0|8,1:0|0:0,0:0:0:0:
411,159,116103,2,0,L|269:147,1,130,8|8,0:0|0:0,0:0:0:0:
214,94,116536,2,0,L|211:61,2,32.5,8|8|8,1:2|1:2|1:2,0:0:0:0:
158,163,116824,2,0,L|152:227,2,65,0|8|8,0:0|0:0|0:0,0:0:0:0:
118,79,117257,6,0,P|54:73|0:107,2,130,4|0|0,1:0|1:0|1:0,0:0:0:0:
155,254,118122,2,0,L|148:338,1,65,0|2,1:0|0:0,0:0:0:0:
250,348,118411,2,0,L|239:219,2,130,0|0|2,0:0|1:0|1:2,0:0:0:0:
423,291,119276,1,10,1:2:0:0:
331,161,119565,6,0,P|277:150|217:207,1,130,0|0,1:0|1:0,0:0:0:0:
134,195,119997,1,2,0:0:0:0:
134,195,120141,2,0,P|80:206|20:149,1,130,0|0,1:0|1:0,0:0:0:0:
76,95,120574,1,2,0:0:0:0:
76,95,120718,1,0,1:0:0:0:
253,3,121007,1,2,1:2:0:0:
381,155,121295,6,0,B|379:177|390:198|390:198|363:231|367:284,2,121.333329630534,8|8|8,0:0|0:0|0:0,0:0:0:0:
390,71,121872,5,12,0:0:0:0:
390,71,122017,1,8,1:0:0:0:
270,179,122304,5,8,0:0:0:0:
270,179,122449,1,8,1:0:0:0:
138,79,122738,5,8,0:0:0:0:
138,79,122883,1,8,1:0:0:0:
10,187,123170,5,8,0:0:0:0:
10,187,123315,1,8,1:0:0:0:
74,262,123459,1,8,1:0:0:0:
74,262,123531,1,8,1:0:0:0:
74,262,123603,2,0,L|138:255,1,65,8|8,0:0|1:0,0:0:0:0:
221,298,123892,6,0,B|227:244|227:244|240:236,2,65,8|8|2,0:0|1:0|0:0,0:0:0:0:
351,187,125334,6,0,L|367:271,1,65,8|0,0:0|1:0,0:0:0:0:
256,198,125622,2,0,L|250:283,1,65,8|0,0:0|1:0,0:0:0:0:
160,185,125911,2,0,L|132:266,1,65,8|0,0:0|1:0,0:0:0:0:
149,331,126199,1,8,0:0:0:0:
73,375,126343,1,12,1:0:0:0:
287,105,127786,5,8,1:0:0:0:
287,105,127858,1,8,1:0:0:0:
287,105,127930,2,0,P|259:113|229:114,1,58.4999982147217,8|8,0:0|1:0,0:0:0:0:
157,67,128218,1,8,0:0:0:0:
157,67,128291,1,8,0:0:0:0:
157,67,128363,2,0,L|113:59,3,32.5,8|8|8|8,1:2|1:2|0:0|0:0,0:0:0:0:
102,69,128651,6,0,B|71:107|71:107|81:199,1,143.000004364014,12|0,1:0|0:0,0:0:0:0:
141,279,129084,2,0,P|173:293|207:289,1,71.5000021820069,8|2,0:0|0:0,0:0:0:0:
290,234,129372,1,8,1:0:0:0:
354,179,129517,2,0,P|388:174|420:189,1,71.5000021820069,8|8,1:0|0:0,0:0:0:0:
466,276,129805,6,0,L|486:116,1,143.000004364014,8|0,1:0|0:0,0:0:0:0:
415,63,130238,2,0,B|383:78|383:78|347:70,1,71.5000021820069,8|2,0:0|0:0,0:0:0:0:
267,35,130526,1,8,1:0:0:0:
267,35,130670,1,8,1:0:0:0:
109,28,130959,6,0,P|54:45|25:130,1,143.000004364014,12|8,1:0|1:0,0:0:0:0:
84,188,131392,1,8,0:0:0:0:
39,265,131536,2,0,L|30:335,1,71.5000021820069,2|8,0:0|1:0,0:0:0:0:
116,371,131824,2,0,B|180:341|180:341|251:358,1,143.000004364014,8|8,1:0|1:0,0:0:0:0:
331,310,132257,6,0,B|339:274|339:274|324:242,1,71.5000021820069,0|8,0:0|1:0,0:0:0:0:
224,193,132545,2,0,B|216:229|216:229|231:261,1,71.5000021820069,8|0,0:0|0:0,0:0:0:0:
302,155,132834,1,8,0:0:0:0:
302,155,132978,1,8,3:0:0:0:
255,76,133122,1,8,0:0:0:0:
325,23,133267,6,0,B|378:28|378:28|406:49|406:49|460:53,1,143.000004364014,12|8,1:0|1:0,0:0:0:0:
507,127,133699,2,0,L|498:197,1,71.5000021820069,8|0,0:0|0:0,0:0:0:0:
411,239,133988,2,0,P|392:208|394:173,2,71.5000021820069,8|8|8,1:0|1:0|0:0,0:0:0:0:
487,294,134420,6,0,P|454:355|386:369,1,143.000004364014,12|0,1:0|1:0,0:0:0:0:
321,303,134853,2,0,L|250:294,1,71.5000021820069,8|0,0:0|0:0,0:0:0:0:
180,350,135142,1,8,1:0:0:0:
23,296,135430,1,8,0:0:0:0:
110,259,135574,6,0,B|141:221|141:221|131:129,1,143.000004364014,12|0,1:0|1:0,0:0:0:0:
172,47,136007,2,0,P|202:28|237:30,1,71.5000021820069,8|8,0:0|1:0,0:0:0:0:
306,98,136295,1,8,0:0:0:0:
306,98,136440,1,8,1:0:0:0:
385,52,136584,2,0,P|420:50|450:68,1,71.5000021820069,8|8,0:0|1:0,0:0:0:0:
461,86,136800,1,8,1:0:0:0:
467,103,136872,6,0,L|502:96,4,32.5,8|8|8|8|8,0:0|0:0|0:0|0:0|1:0,0:0:0:0:
405,171,137305,5,8,1:0:0:0:
405,171,137377,1,0,1:0:0:0:
405,171,137449,1,12,0:0:0:0:
484,231,137593,1,8,1:0:0:0:
493,210,137882,6,0,B|440:215|440:215|412:236|412:236|358:240,1,143.000004364014,12|0,1:0|1:0,0:0:0:0:
319,157,138315,1,8,0:0:0:0:
170,190,138603,2,0,L|179:260,2,71.5000021820069,8|8|8,1:0|1:0|0:0,0:0:0:0:
97,120,139036,6,1,P|42:137|13:222,1,143.000004364014,8|0,1:0|0:0,0:0:0:0:
42,301,139468,2,0,B|78:293|78:293|110:308,1,71.5000021820069,8|2,0:0|0:0,0:0:0:0:
205,291,139757,1,8,1:0:0:0:
253,362,139901,2,0,B|289:370|289:370|321:355,1,71.5000021820069,8|8,1:0|0:0,0:0:0:0:
395,290,140190,6,0,L|415:130,1,143.000004364014,12|0,1:0|1:0,0:0:0:0:
255,104,140767,2,0,B|184:121|184:121|120:91,1,143.000004364014,2|8,0:0|1:0,0:0:0:0:
34,81,141199,1,8,0:0:0:0:
1,161,141343,2,0,L|9:231,1,71.5000021820069,8|0,1:0|0:0,0:0:0:0:
98,193,141632,6,0,B|150:199|150:199|178:221|178:221|231:227,1,143.000004364014,8|0,1:0|0:0,0:0:0:0:
289,155,142065,1,10,0:0:0:0:
440,176,142353,1,8,0:0:0:0:
393,244,142497,1,8,0:0:0:0:
428,318,142642,6,0,B|390:349|390:349|296:338,2,143.000004364014,12|8|8,1:0|0:0|1:0,0:0:0:0:
469,235,143363,2,0,L|460:164,1,71.5000021820069,8|8,1:0|0:0,0:0:0:0:
362,104,143651,6,0,L|344:245,1,143.000004364014,12|8,1:0|1:0,0:0:0:0:
259,299,144084,2,0,P|257:255|175:212,1,143.000004364014,8|10,0:0|0:0,0:0:0:0:
94,199,144517,1,8,1:0:0:0:
94,199,144661,1,8,0:0:0:0:
43,120,144805,6,0,P|64:54|129:28,1,143.000004364014,12|0,1:0|1:0,0:0:0:0:
205,88,145238,6,0,L|305:76,1,95.3333362426759,8|0,0:0|0:0,0:0:0:0:
338,37,145515,6,0,L|432:48,1,95.3333362426759,8|0,1:2|0:0,0:0:0:0:
470,88,145793,5,10,0:2:0:0:
460,218,146103,1,12,1:0:0:0:
347,277,146363,1,8,1:0:0:0:
259,184,146663,1,8,1:0:0:0:
321,63,146963,2,0,L|313:-5,2,47.6666681213379,4|8|8,0:3|0:3|0:3,0:0:0:0:
357,100,147257,6,0,L|221:90,1,116.999996429443,4|0,1:0|0:0,0:0:0:0:
162,54,147690,1,0,1:0:0:0:
103,118,147834,1,8,0:0:0:0:
194,253,148122,1,2,0:0:0:0:
252,190,148267,2,0,P|306:172|360:192,1,116.999996429443,0|8,1:0|0:0,0:0:0:0:
328,278,148699,2,0,L|256:290,1,58.4999982147217,0|0,1:0|1:0,0:0:0:0:
396,340,148988,2,0,L|511:359,2,116.999996429443,8|8|4,0:0|0:0|1:0,0:0:0:0:
475,181,149853,5,2,0:0:0:0:
475,181,149997,1,8,1:0:0:0:
408,122,150142,2,0,B|352:153|352:153|302:133,1,116.999996429443,8|8,0:0|0:0,0:0:0:0:
237,60,150574,1,2,1:2:0:0:
85,4,150863,2,0,B|59:-3|59:-3|29:10,1,58.4999982147217,8|0,0:0|0:0,0:0:0:0:
22,110,151151,1,0,1:0:0:0:
22,110,151295,2,0,B|29:174,1,58.4999982147217,8|4,0:0|0:3,0:0:0:0:
126,206,151584,2,0,B|133:264,1,58.4999982147217,8|8,0:3|0:3,0:0:0:0:
81,331,151872,6,0,P|135:313|189:333,1,116.999996429443,4|0,1:0|1:0,0:0:0:0:
271,365,152305,1,8,1:0:0:0:
330,301,152449,1,8,0:0:0:0:
233,174,152738,2,0,L|164:167,1,58.4999982147217,2|8,0:0|1:0,0:0:0:0:
308,220,153026,2,0,L|423:201,1,116.999996429443,2|2,1:2|0:0,0:0:0:0:
490,145,153459,1,0,1:0:0:0:
490,145,153531,1,0,1:0:0:0:
490,145,153603,2,0,P|493:116|483:89,1,58.4999982147217,8|0,0:2|0:0,0:0:0:0:
407,47,153892,1,2,0:0:0:0:
329,89,154036,1,8,0:0:0:0:
248,45,154180,6,0,B|195:72|195:72|141:53,1,116.999996429443,12|0,1:0|1:0,0:0:0:0:
73,108,154613,2,0,B|122:140|122:140|133:195,1,116.999996429443,8|0,0:0|1:0,0:0:0:0:
216,229,155045,2,0,B|219:169|219:169|261:132,1,116.999996429443,8|0,0:0|1:0,0:0:0:0:
348,154,155478,1,8,0:0:0:0:
348,154,155622,1,0,0:0:0:0:
406,309,155911,1,8,0:0:0:0:
406,309,156055,1,0,0:0:0:0:
481,261,156199,2,0,B|493:232|493:232|486:206,1,58.4999982147217,0|2,1:0|1:2,0:0:0:0:
437,123,156488,6,0,L|445:44,2,65,12|0|0,1:0|0:0|1:0,0:0:0:0:
368,196,156920,2,0,P|306:211|247:185,1,130,8|0,0:0|0:0,0:0:0:0:
212,94,157353,2,0,P|229:67|232:35,2,65,8|8|0,0:0|1:0|0:0,0:0:0:0:
117,123,157785,2,0,B|89:158|89:158|98:242,1,130,8|0,0:0|1:0,0:0:0:0:
154,319,158213,2,0,B|186:320|186:320|215:306,1,65,8|0,0:0|1:0,0:0:0:0:
262,230,158496,2,0,B|294:229|294:229|323:243,1,65,8|0,0:0|1:0,0:0:0:0:
347,259,158708,1,0,1:0:0:0:
370,275,158779,5,8,0:0:0:0:
459,226,158926,2,0,L|506:217,2,32.5,8|0|0,0:0|1:0|1:0,0:0:0:0:
370,161,159220,2,0,L|323:152,2,32.5,8|8|0,0:0|1:2|0:0,0:0:0:0:
459,96,159514,2,0,L|506:87,1,32.5,8|0,0:0|1:0,0:0:0:0:
508,105,159661,5,8,1:0:0:0:
486,9,159805,1,0,1:0:0:0:
233,64,160958,6,0,P|289:47|341:70,1,116.999996429443,4|0,1:0|1:0,0:0:0:0:
386,152,161392,2,0,L|376:209,1,58.4999982147217,8|0,0:0|0:0,0:0:0:0:
280,259,161680,2,0,L|270:201,1,58.4999982147217,2|0,1:2|0:0,0:0:0:0:
377,259,161968,2,0,L|367:316,1,58.4999982147217,10|0,0:0|0:0,0:0:0:0:
277,357,162257,2,0,P|224:334|169:350,1,116.999996429443,2|10,1:2|0:0,0:0:0:0:
146,254,162690,6,0,B|177:240|177:240|206:250|206:250|238:242|238:242|268:256,1,130,2|2,0:0|0:0,0:0:0:0:
337,194,163122,1,10,0:0:0:0:
275,128,163266,6,0,B|218:147|218:147|167:121,1,116.999996429443,12|0,1:0|1:0,0:0:0:0:
120,40,163699,2,0,P|137:72|145:107,1,58.4999982147217,8|0,0:0|0:0,0:0:0:0:
22,147,163987,2,0,P|41:116|67:91,1,58.4999982147217,2|0,1:2|0:0,0:0:0:0:
164,178,164276,2,0,P|127:176|93:166,1,58.4999982147217,10|0,0:0|0:0,0:0:0:0:
227,116,164564,2,0,L|358:124,1,116.999996429443,2|8,1:2|0:0,0:0:0:0:
424,188,164997,5,2,1:2:0:0:
424,188,165069,1,2,1:2:0:0:
424,188,165142,1,10,0:0:0:0:
494,130,165286,2,0,L|490:64,1,65,10|10,0:0|0:0,0:0:0:0:
418,13,165574,6,0,P|365:35|310:19,1,116.999996429443,12|0,1:0|1:0,0:0:0:0:
245,78,166007,2,0,L|179:74,1,58.4999982147217,8|0,0:0|1:0,0:0:0:0:
186,74,166223,1,0,1:0:0:0:
186,74,166295,2,0,L|120:70,1,58.4999982147217,8|2,1:0|1:2,0:0:0:0:
27,69,166584,1,8,0:0:0:0:
73,241,166872,2,0,P|36:239|3:229,1,58.4999982147217,0|0,1:0|1:0,0:0:0:0:
37,153,167161,1,8,0:0:0:0:
128,160,167304,5,2,1:2:0:0:
128,160,167376,1,2,1:2:0:0:
128,160,167449,2,0,L|192:163,1,65,10|10,0:0|0:0,0:0:0:0:
280,114,167737,1,10,0:0:0:0:
362,165,167881,6,0,P|384:217|368:272,1,116.999996429443,12|0,1:0|1:0,0:0:0:0:
296,313,168315,1,8,0:0:0:0:
296,313,168459,1,0,1:0:0:0:
236,251,168603,2,0,B|207:243|207:243|179:252,1,58.4999982147217,8|0,0:0|1:0,0:0:0:0:
149,337,168892,2,0,B|177:344|177:344|205:335,1,58.4999982147217,8|0,0:0|1:0,0:0:0:0:
79,274,169179,6,0,L|50:269,4,29.2499991073609,8|0|8|8|8,0:0|1:0|1:0|1:0|1:0,0:0:0:0:
137,201,169612,2,0,L|169:196,4,32.5,8|0|0|0|8,0:0|1:0|1:0|1:0|1:0,0:0:0:0:
74,134,170045,1,8,0:0:0:0:
130,58,170189,6,0,B|188:60|188:60|213:77|213:77|268:79,1,143.000004364014,12|0,1:0|1:0,0:0:0:0:
350,118,170622,2,0,P|363:146|359:200,1,71.5000021820069,8|2,0:0|0:0,0:0:0:0:
271,242,170911,2,0,P|256:209|257:173,1,71.5000021820069,2|2,1:2|1:2,0:0:0:0:
356,197,171199,1,8,0:0:0:0:
366,291,171343,6,0,P|296:285|243:330,1,143.000004364014,12|0,1:0|1:0,0:0:0:0:
158,355,171776,2,0,L|75:345,1,71.5000021820069,8|2,0:0|0:0,0:0:0:0:
23,288,172065,1,8,1:0:0:0:
78,218,172209,2,0,L|148:209,1,71.5000021820069,8|8,1:0|0:0,0:0:0:0:
242,228,172497,6,0,P|274:145|237:90,1,143.000004364014,12|0,1:0|1:0,0:0:0:0:
189,45,172930,1,8,0:0:0:0:
105,77,173074,2,0,B|72:91|72:91|36:90,1,71.5000021820069,2|8,0:0|1:0,0:0:0:0:
58,5,173363,1,8,1:0:0:0:
58,5,173507,1,8,0:0:0:0:
157,4,173651,6,0,L|304:16,1,143.000004364014,12|2,1:0|1:2,0:0:0:0:
362,78,174084,2,0,P|372:112|373:147,1,71.5000021820069,10|2,0:0|0:0,0:0:0:0:
257,199,174372,2,0,P|257:163|268:129,2,71.5000021820069,8|8|8,1:0|1:0|0:0,0:0:0:0:
343,263,174805,6,0,B|382:294|382:294|474:284,1,143.000004364014,12|0,1:0|1:0,0:0:0:0:
507,188,175238,1,8,0:0:0:0:
440,123,175382,2,0,B|385:118|385:118|358:132|358:132|300:127,1,143.000004364014,2|2,0:0|0:2,0:0:0:0:
224,81,175815,1,10,0:0:0:0:
156,30,175959,1,2,0:2:0:0:
36,126,176247,6,0,B|44:160|44:160|36:196,1,71.5000021820069,2|10,1:2|0:0,0:0:0:0:
84,272,176536,2,0,L|155:281,1,71.5000021820069,2|2,0:0|1:2,0:0:0:0:
233,225,176824,1,2,1:2:0:0:
233,225,176968,1,10,0:0:0:0:
312,273,177113,6,0,P|378:296|439:263,1,143.000004364014,12|0,1:0|1:0,0:0:0:0:
423,179,177545,2,0,P|392:162|357:155,1,71.5000021820069,8|8,0:0|1:0,0:0:0:0:
371,70,177834,2,0,P|336:71|302:83,1,71.5000021820069,8|8,0:0|1:0,0:0:0:0:
232,135,178122,1,8,0:0:0:0:
175,73,178266,5,0,1:0:0:0:
175,73,178338,1,0,1:0:0:0:
175,73,178410,2,0,B|133:67|133:67|106:79|106:79|51:72,2,126.749994197846,4|8|8,1:3|1:3|1:3,0:0:0:0:
241,146,178976,2,0,B|269:142|269:142|288:150|288:150|327:145,2,87.7499973220826,8|8|2,0:0|0:3|0:0,0:0:0:0:
173,208,179564,6,0,B|166:245|166:245|173:283|173:283|162:328|162:328|223:384|298:357|320:312|324:303|329:295|350:249|429:237|483:289|491:341,1,520
256,192,186487,12,0,188217,0:0:0:0:
274,262,188794,6,0,B|217:250|217:285|159:269,3,116.999996429443,4|0|0|0,1:0|1:0|1:0|1:0,0:0:0:0:
37,170,189948,2,0,B|94:158|94:193|152:177,3,116.999996429443,0|0|0|0,1:0|1:0|1:0|1:0,0:0:0:0:
215,113,190958,1,8,0:0:0:0:
169,36,191102,2,0,P|131:22|56:48,1,116.999996429443,0|0,1:0|1:0,0:0:0:0:
261,192,191679,2,0,P|299:206|374:180,1,116.999996429443,0|0,1:0|1:0,0:0:0:0:
215,113,192256,1,0,1:0:0:0:
154,278,192544,1,0,1:0:0:0:
214,346,192688,2,0,L|330:336,1,116.999996429443,8|2,0:3|0:3,0:0:0:0:
296,255,193121,2,0,L|238:260,1,58.4999982147217,4|8,0:3|0:3,0:0:0:0:
154,278,193410,6,0,B|142:222|142:222|170:205|183:179|181:145|164:121|134:110|96:120|77:146|77:165,1,260,4|4,1:0|1:0,0:0:0:0:
80,177,194852,6,0,L|177:168,2,97.50000371933,2|2|2,0:0|0:0|0:0,0:0:0:0:
249,33,195717,5,8,1:0:0:0:
249,33,195862,1,8,0:0:0:0:
306,99,196006,2,0,L|312:168,1,65,8|8,0:0|1:0,0:0:0:0:
311,163,196222,1,8,1:0:0:0:
311,163,196294,1,8,0:0:0:0:
407,140,196438,2,0,L|413:71,1,65,8|0,0:0|1:0,0:0:0:0:
423,65,196655,1,0,1:0:0:0:
423,65,196727,6,0,P|462:84|477:185,1,130,12|10,0:0|3:2,0:0:0:0:
430,247,197160,1,8,0:0:0:0:
441,123,198602,6,0,B|482:98|482:98|432:102,1,97.50000371933,2|2,0:0|0:0,0:0:0:0:
359,145,199035,6,0,P|297:113|233:141,1,143.000004364014,12|0,1:0|1:0,0:0:0:0:
186,215,199468,2,0,L|106:225,1,71.5000021820069,8|0,0:0|0:0,0:0:0:0:
64,145,199756,1,8,1:0:0:0:
0,209,199900,2,0,L|9:279,1,71.5000021820069,8|8,1:0|0:0,0:0:0:0:
77,350,200188,6,0,B|130:358|130:358|162:344|162:344|215:351,1,143.000004364014,8|0,1:0|1:0,0:0:0:0:
286,293,200621,2,0,P|271:260|276:226,1,71.5000021820069,8|2,0:0|0:0,0:0:0:0:
370,250,200910,1,8,1:0:0:0:
370,250,201054,1,8,1:0:0:0:
455,206,201198,1,8,0:0:0:0:
401,130,201342,6,0,P|347:153|271:106,1,143.000004364014,12|8,1:0|1:0,0:0:0:0:
218,43,201775,1,8,0:0:0:0:
151,98,201919,2,0,B|120:113|120:113|84:105,1,71.5000021820069,2|0,0:0|1:0,0:0:0:0:
0,59,202208,1,8,1:0:0:0:
0,59,202352,1,8,0:0:0:0:
14,160,202496,6,0,B|29:191|29:191|21:227,1,71.5000021820069,8|0,1:0|0:0,0:0:0:0:
55,328,202785,1,8,1:0:0:0:
156,335,202929,2,0,B|227:352|227:352|291:322,1,143.000004364014,8|8,0:0|0:0,0:0:0:0:
290,323,203289,1,4,3:0:0:0:
290,323,203362,1,8,3:0:0:0:
219,258,203506,1,8,0:0:0:0:
145,195,203650,6,0,B|183:164|183:164|275:174,1,143.000004364014,12|8,1:0|1:0,0:0:0:0:
357,217,204083,2,0,P|384:194|400:163,1,71.5000021820069,8|0,0:0|0:0,0:0:0:0:
364,83,204371,1,8,1:0:0:0:
280,61,204515,2,0,P|252:37|236:6,1,71.5000021820069,8|8,1:0|0:0,0:0:0:0:
141,16,204804,6,0,P|147:64|92:140,1,143.000004364014,12|0,1:0|1:0,0:0:0:0:
28,206,205237,2,0,B|13:237|13:237|21:273,1,71.5000021820069,8|0,0:0|0:0,0:0:0:0:
90,335,205525,1,8,1:0:0:0:
263,285,205813,1,8,0:0:0:0:
343,352,205958,6,0,L|359:210,1,143.000004364014,12|8,1:0|1:0,0:0:0:0:
359,209,206318,1,8,1:0:0:0:
359,209,206390,1,8,0:0:0:0:
289,136,206535,1,8,1:0:0:0:
324,48,206679,2,0,B|355:33|355:33|391:41,1,71.5000021820069,8|8,0:0|1:0,0:0:0:0:
461,111,206967,1,8,0:0:0:0:
461,111,207112,1,0,1:0:0:0:
416,194,207256,6,0,L|367:186,3,32.5,8|8|0|0,0:0|0:0|1:2|1:2,0:0:0:0:
359,209,207544,2,0,L|310:217,3,32.5,0|0|0|0,1:2|1:2|1:2|1:2,0:0:0:0:
307,202,207833,5,10,0:0:0:0:
231,272,207977,1,4,1:0:0:0:
217,251,208265,6,0,B|270:256|270:256|298:278|298:278|350:285,1,143.000004364014,12|0,1:0|1:0,0:0:0:0:
436,353,208698,1,8,0:0:0:0:
436,353,208842,1,2,0:0:0:0:
507,282,208987,2,0,P|507:246|488:217,2,71.5000021820069,8|8|8,1:0|1:0|0:0,0:0:0:0:
436,353,209419,6,0,P|390:322|298:359,1,143.000004364014,8|0,1:0|1:0,0:0:0:0:
224,310,209852,2,0,L|153:318,1,71.5000021820069,8|2,0:0|0:0,0:0:0:0:
61,351,210140,1,8,1:0:0:0:
16,277,210285,2,0,L|24:206,1,71.5000021820069,8|8,1:0|0:0,0:0:0:0:
102,132,210573,6,0,B|140:163|140:163|232:153,1,143.000004364014,12|8,1:0|1:0,0:0:0:0:
318,192,211006,1,8,0:0:0:0:
382,130,211150,2,0,B|397:99|397:99|389:63,1,71.5000021820069,2|8,0:0|1:0,0:0:0:0:
300,7,211438,2,0,B|285:38|285:38|293:74,1,71.5000021820069,0|8,1:0|0:0,0:0:0:0:
225,144,211727,6,0,L|176:135,2,35.7500010910034,8|2|2,1:0|0:0|0:0,0:0:0:0:
295,207,212015,1,8,1:0:0:0:
245,288,212160,2,0,P|210:296|175:291,1,71.5000021820069,8|8,0:0|0:0,0:0:0:0:
175,291,212376,1,8,0:0:0:0:
175,291,212448,2,0,L|177:210,1,71.5000021820069,8|8,3:0|3:0,1:0:0:0:
107,159,212737,2,0,L|105:78,1,71.5000021820069,8|8,0:0|3:0,1:0:0:0:
186,33,213025,6,0,B|238:41|238:41|270:28|270:28|324:37,1,143.000004364014,12|8,1:0|0:0,0:0:0:0:
358,123,213458,1,2,0:0:0:0:
318,198,213602,2,0,B|310:234|310:234|325:265,1,71.5000021820069,8|8,1:0|1:0,0:0:0:0:
404,221,213890,1,8,0:0:0:0:
472,148,214035,6,0,B|502:210|502:210|486:282,1,143.000004364014,12|0,1:0|1:0,0:0:0:0:
418,346,214467,2,0,L|342:348,1,71.5000021820069,8|0,0:0|0:0,0:0:0:0:
249,335,214756,1,8,1:0:0:0:
192,253,214900,1,8,1:0:0:0:
192,253,215044,1,8,0:0:0:0:
107,317,215188,6,0,B|76:279|76:279|86:187,1,143.000004364014,12|8,1:0|1:0,0:0:0:0:
101,170,215549,1,0,0:0:0:0:
101,170,215621,2,0,P|117:164|135:162,3,35.7500010910034,8|8|0|0,0:0|0:0|1:0|1:0,0:0:0:0:
161,175,215910,2,0,P|177:180|195:182,3,35.7500010910034,0|0|8|8,1:0|1:0|1:0|1:0,0:0:0:0:
228,167,216198,2,0,L|238:127,4,35.7500010910034,8|8|8|8|8,0:0|0:0|0:0|0:0|1:0,0:0:0:0:
309,231,216631,5,8,0:0:0:0:
309,231,216703,1,8,0:0:0:0:
309,231,216775,2,0,L|360:221,3,35.7500010910034,8|8|8|8,1:0|1:0|1:0|1:0,1:0:0:0:
366,203,217063,2,0,L|417:213,3,35.7500010910034,2|2|2|2,1:2|1:2|1:2|1:2,0:0:0:0:
425,230,217352,2,0,L|476:220,3,35.7500010910034,2|2|2|2,1:2|1:2|1:2|1:2,0:0:0:0:
474,243,217640,6,0,P|493:212|493:177,2,71.5000021820069,12|0|8,1:0|1:0|0:0,0:0:0:0:
387,303,218073,2,0,P|405:333|405:368,2,71.5000021820069,0|8|0,1:0|0:0|1:0,0:0:0:0:
291,262,218506,6,0,B|265:258|265:258|249:264|249:264|222:260,2,71.5000021820069,8|0|8,0:0|1:0|0:0,0:0:0:0:
337,178,218938,2,0,B|363:174|363:174|379:180|379:180|406:176,2,71.5000021820069,0|8|0,1:0|0:0|1:0,0:0:0:0:
256,125,219371,2,0,L|266:41,1,71.5000021820069,8|0,0:0|1:0,0:0:0:0:
189,7,219660,1,8,0:0:0:0:
145,89,219804,1,0,1:0:0:0:
145,89,219876,1,0,1:0:0:0:
145,89,219948,6,0,B|126:104|126:104|80:99,2,71.5000021820069,12|0|8,0:0|0:0|0:0,0:0:0:0:
207,161,220376,2,0,B|226:176|226:176|272:171,2,71.5000021820069,0|8|0,1:0|0:0|1:0,0:0:0:0:
122,203,220805,2,0,B|114:274,1,71.5000021820069,8|0,0:0|1:0,0:0:0:0:
158,351,221090,5,8,0:0:0:0:
229,293,221233,1,0,1:0:0:0:
303,348,221376,2,0,B|339:356|339:356|370:341,1,71.5000021820069,8|8,0:0|0:0,0:0:0:0:
383,322,221590,1,8,0:0:0:0:
383,322,221662,6,0,P|379:287|387:256,2,47.6666681213379,4|8|8,1:3|1:3|1:3,1:0:0:0:
423,331,221954,2,0,P|437:298|459:275,2,47.6666681213379,4|8|8,1:3|1:3|0:3,1:0:0:0:
453,366,222247,5,4,1:0:0:0:
404,57,223276,6,0,B|373:43|373:43|344:53|344:53|312:45|312:45|282:59,1,130,12|0,0:0|1:0,0:0:0:0:
205,115,223704,2,0,L|222:192,1,65,8|0,0:0|0:0,0:0:0:0:
288,250,223990,2,0,L|338:240,5,32.5,2|2|2|2|8|8,3:0|3:0|3:0|3:0|3:0|3:0,0:0:0:0:
345,220,224422,5,12,0:0:0:0:
256,192,224494,12,0,226297,0:0:0:0:
74,231,226688,6,0,B|113:262|113:262|205:252,1,143.000004364014,4|0,1:0|1:0,0:0:0:0:
293,274,227144,2,0,P|307:241|306:205,1,71.5000021820069,8|0,0:0|0:0,0:0:0:0:
263,128,227437,2,0,B|205:130|205:130|180:147|180:147|125:149,1,143.000004364014,0|8,1:0|0:0,0:0:0:0:
59,83,227878,2,0,P|95:45|201:57,1,143.000004364014,2|0,0:0|1:0,0:0:0:0:
253,112,228313,2,0,L|336:102,1,71.5000021820069,8|0,0:0|0:0,0:0:0:0:
408,68,228601,1,0,1:0:0:0:
451,141,228746,2,0,B|452:177|452:177|438:210,1,71.5000021820069,0|8,1:0|0:0,0:0:0:0:
378,277,229034,6,0,P|461:245|516:282,1,143.000004364014,4|0,1:0|1:0,0:0:0:0:
485,359,229467,2,0,L|414:367,1,71.5000021820069,8|0,0:0|0:0,0:0:0:0:
314,364,229755,2,0,L|243:355,1,71.5000021820069,0|0,1:0|1:0,0:0:0:0:
191,283,230044,1,8,0:0:0:0:
191,283,230188,1,0,0:0:0:0:
245,207,230332,2,0,P|255:173|256:138,1,71.5000021820069,0|0,1:0|1:0,0:0:0:0:
188,70,230621,2,0,L|117:78,1,71.5000021820069,8|0,0:0|1:0,0:0:0:0:
117,78,230837,1,0,1:0:0:0:
117,78,230909,1,10,0:0:0:0:
19,52,231053,2,0,L|27:122,1,71.5000021820069,8|10,3:0|0:0,0:0:0:0:
0,209,231342,6,0,B|68:232|68:232|130:197,1,143.000004364014,4|0,1:0|1:0,0:0:0:0:
222,176,231775,2,0,B|220:234|220:234|203:259|203:259|201:314,1,143.000004364014,8|2,0:0|1:2,0:0:0:0:
285,358,232207,1,2,1:2:0:0:
362,325,232351,2,0,L|445:335,1,71.5000021820069,8|0,0:0|0:0,0:0:0:0:
499,263,232640,2,0,B|485:230|485:230|486:194,1,71.5000021820069,2|2,1:2|1:2,0:0:0:0:
486,102,232928,2,0,P|453:87|417:88,1,71.5000021820069,8|0,0:0|0:0,0:0:0:0:
332,139,233217,2,0,L|249:129,2,71.5000021820069,0|0|8,1:0|1:0|0:0,0:0:0:0:
377,227,233650,6,0,P|341:265|235:253,1,143.000004364014,4|0,1:0|1:0,0:0:0:0:
234,245,234010,1,0,1:0:0:0:
234,245,234082,2,0,P|203:228|168:221,1,71.5000021820069,8|0,0:0|1:0,0:0:0:0:
181,135,234371,2,0,P|146:136|112:148,1,71.5000021820069,8|0,0:0|1:0,0:0:0:0:
23,114,234659,1,8,0:0:0:0:
51,213,234803,2,0,B|57:267|57:267|76:291|76:291|83:348,1,143.000004364014,4|0,1:0|1:0,0:0:0:0:
109,364,235164,1,0,1:0:0:0:
109,364,235236,2,0,B|145:365|145:365|178:351,1,71.5000021820069,8|0,0:0|1:0,0:0:0:0:
256,299,235525,5,10,0:0:0:0:
232,200,235669,1,8,1:2:0:0:
377,316,235957,5,12,1:0:0:0:
256,192,236101,12,2,241726,0:0:0:0:
