osu file format v14

[General]
AudioFilename: audio.mp3
AudioLeadIn: 0
PreviewTime: 198474
Countdown: 0
SampleSet: Soft
StackLeniency: 0.4
Mode: 0
LetterboxInBreaks: 0
WidescreenStoryboard: 1

[Editor]
Bookmarks: 22657,41118,61383,89435,215493,217657
DistanceSpacing: 1
BeatDivisor: 4
GridSize: 32
TimelineZoom: 1.9

[Metadata]
Title:Belief
TitleUnicode:Belief
Artist:May'n
ArtistUnicode:May'n
Creator:-Hitomi
Version:Kalibe's Expert
Source:TABOO TATTOO
Tags:タブー・タトゥー op opening anime japanese jrock rock j-rock full version ver female vocals vocalist l1ght_u light_u kalibe kanau silky uniform maya- little CloudSplash16 fuyuyu- mamayu sahuang
BeatmapID:3277653
BeatmapSetID:1604959

[Difficulty]
HPDrainRate:6
CircleSize:4
OverallDifficulty:8
ApproachRate:9
SliderMultiplier:1.65
SliderTickRate:1

[Events]
//Background and Video events
0,0,"yep.jpg",0,0
//Break Periods
2,179617,185888
//Storyboard Layer 0 (Background)
//Storyboard Layer 1 (Fail)
//Storyboard Layer 2 (Pass)
//Storyboard Layer 3 (Foreground)
//Storyboard Layer 4 (Overlay)
//Storyboard Sound Samples

[TimingPoints]
720,288.461538461538,4,2,1,50,1,0
1295,-100,4,2,1,50,0,0
1729,-142.857142857143,4,2,1,50,0,0
3604,315.789473684211,4,2,1,50,1,0
4077,288.461538461538,4,2,1,50,1,0
4077,-142.857142857143,4,2,1,50,0,0
5230,326.086956521739,4,2,1,50,1,0
5230,-111.111111111111,4,2,1,50,0,0
5882,299.625468164794,4,2,1,50,1,0
5882,-142.857142857143,4,2,1,50,0,0
6481,288.461538461538,4,2,1,50,1,0
6481,-200,4,2,1,50,0,0
7634,-142.857142857143,4,2,1,50,0,0
8788,289.57528957529,4,2,1,50,1,0
8788,-142.857142857143,4,2,1,50,0,0
10526,-100,4,2,1,50,0,0
10815,-80,4,2,1,50,0,0
11104,288.461538461538,4,2,1,60,1,0
11104,-100,4,2,1,60,0,0
13267,-100,4,2,1,70,0,0
15574,-100,4,2,1,70,0,0
17882,-100,4,2,1,70,0,0
22642,-125,4,2,1,40,0,0
26968,-90.9090909090909,4,2,1,40,0,0
27257,-100,4,2,1,60,0,0
29565,284.36018957346,4,2,1,60,1,0
29565,-100,4,2,1,60,0,0
30702,279.06976744186,4,2,1,60,1,0
30702,-100,4,2,1,60,0,0
31260,306.90537084399,4,2,1,60,1,0
31260,-100,4,2,1,60,0,0
31566,-125,4,2,1,60,0,0
31873,288.461538461538,4,2,1,60,1,0
31873,-100,4,2,1,60,0,0
41103,-125,4,2,69,50,0,0
41392,-125,4,2,68,50,0,0
43411,-125,4,2,69,50,0,0
43843,-125,4,2,68,50,0,0
45718,-125,4,2,69,50,0,0
46151,-125,4,2,68,50,0,0
47089,-125,4,2,69,50,0,0
47161,-125,4,2,69,50,0,0
47305,-125,4,2,68,50,0,0
48459,-111.111111111111,4,2,68,50,0,0
49036,-111.111111111111,4,2,69,50,0,0
49180,-90.9090909090909,4,2,1,60,0,0
49901,-90.9090909090909,4,2,1,60,0,0
50334,-100,4,2,1,50,0,0
53795,-100,4,2,1,50,0,0
54372,-83.3333333333333,4,2,1,80,0,0
54949,-83.3333333333333,4,2,1,60,0,0
57257,-80,4,2,1,70,0,0
61295,-80,4,2,69,40,0,0
61728,-90.9090909090909,4,2,3,80,0,1
62017,-90.9090909090909,4,2,1,80,0,1
65911,-83.3333333333333,4,2,1,80,0,1
66199,-83.3333333333333,4,2,1,80,0,1
66343,-90.9090909090909,4,2,1,80,0,1
69949,-83.3333333333333,4,2,1,80,0,0
70670,-142.857142857143,4,2,1,80,0,0
70959,-90.9090909090909,4,2,3,80,0,1
71247,-90.9090909090909,4,2,1,80,0,1
80045,-83.3333333333333,4,2,1,80,0,1
80334,-83.3333333333333,4,2,3,80,0,1
80622,-83.3333333333333,4,2,1,80,0,1
84949,-142.857142857143,4,2,1,80,0,0
85959,-90.9090909090909,4,2,1,70,0,1
86031,-90.9090909090909,4,2,1,70,0,0
86392,-142.857142857143,4,2,1,70,0,0
87113,-200,4,2,1,70,0,0
88988,-200,4,2,1,70,0,0
89132,-100,4,2,1,70,0,0
98795,-125,4,2,1,50,0,0
103122,-90.9090909090909,4,2,1,50,0,0
103411,-100,4,2,1,60,0,0
108026,-125,4,2,1,40,0,0
114661,-111.111111111111,4,2,1,40,0,0
116103,-100,4,2,1,40,0,0
116968,-90.9090909090909,4,2,1,40,0,0
117257,-100,4,2,1,50,0,0
121295,-83.3333333333333,4,2,1,60,0,0
124180,-200,4,2,69,60,0,0
125334,-200,4,2,1,70,0,0
128291,-133.333333333333,4,2,1,70,0,0
128651,-90.9090909090909,4,2,3,80,0,1
128795,-90.9090909090909,4,2,1,80,0,1
132834,-80,4,2,1,80,0,1
133122,-80,4,2,1,80,0,1
133267,-90.9090909090909,4,2,1,80,0,1
136872,-80,4,2,1,80,0,0
137449,-80,4,2,1,80,0,0
137593,-142.857142857143,4,2,1,80,0,0
137882,-90.9090909090909,4,2,3,80,0,1
138026,-90.9090909090909,4,2,1,80,0,1
145238,277.777777777778,4,2,1,80,1,1
145238,-90.9090909090909,4,2,1,80,0,1
145793,312.5,4,2,1,80,1,1
145793,-90.9090909090909,4,2,1,80,0,1
146103,260.869565217391,4,2,1,80,1,1
146103,-90.9090909090909,4,2,1,80,0,1
146263,-90.9090909090909,4,2,1,80,0,1
146363,300,4,2,1,80,1,1
146363,-90.9090909090909,4,2,1,80,0,1
146963,294.117647058824,4,2,1,80,1,1
146963,-90.9090909090909,4,2,1,80,0,1
147257,288.461538461538,4,2,1,60,1,0
147257,-125,4,2,1,60,0,0
157930,283.018867924528,4,2,1,60,1,0
157930,-125,4,2,1,60,0,0
158779,294.117647058824,4,2,1,60,1,0
158779,-100,4,2,1,60,0,0
159661,288.461538461538,4,2,1,60,1,0
159949,288.461538461538,4,2,69,60,1,0
159949,-142.857142857143,4,2,69,60,0,0
160238,-142.857142857143,4,2,69,60,0,0
160382,-142.857142857143,4,2,69,60,0,0
160525,-142.857142857143,4,2,1,60,0,0
160959,-100,4,2,1,60,0,0
169180,-100,4,2,1,65,0,0
170190,-100,4,2,1,70,0,0
178410,283.018867924528,4,2,1,70,1,0
178976,294.117647058824,4,2,1,70,1,0
178976,-83.3333333333333,4,2,1,70,0,0
179420,-142.857142857143,4,2,2,70,0,0
179564,288.461538461538,4,2,1,60,1,0
188795,-125,4,2,1,50,0,0
195718,-125,4,2,1,60,0,0
196728,-125,4,2,1,70,0,0
197882,-125,4,2,1,70,0,0
197954,-125,4,2,1,70,0,0
198603,-80,4,2,69,50,0,0
198892,-80,4,2,1,50,0,0
199035,-90.9090909090909,4,2,3,80,0,1
199324,-90.9090909090909,4,2,1,80,0,1
203218,-80,4,2,1,80,0,1
203507,-90.9090909090909,4,2,1,80,0,1
207256,-90.9090909090909,4,2,1,80,0,0
207834,-80,4,2,1,80,0,0
207978,-142.857142857143,4,2,1,50,0,0
208265,-90.9090909090909,4,2,3,80,0,1
208555,-90.9090909090909,4,2,1,80,0,1
217640,-90.9090909090909,4,2,3,80,0,1
217786,-90.9090909090909,4,2,1,80,0,1
219948,285.714285714286,4,2,1,80,1,1
219948,-90.9090909090909,4,2,1,80,0,1
221662,292.682926829268,4,2,1,80,1,1
221662,-90.9090909090909,4,2,1,80,0,1
222247,294.117647058824,4,2,1,60,1,0
222247,-200,4,2,1,60,0,0
223276,285.714285714286,4,2,1,60,1,0
223276,-90.9090909090909,4,2,1,60,0,1
223347,-90.9090909090909,4,2,1,60,0,0
223699,-200,4,2,1,60,0,0
223990,288.461538461538,4,2,1,60,1,0
224276,-100,4,2,1,60,0,0
224420,-200,4,2,1,60,0,0
226295,-200,4,2,1,60,0,0
226297,260.869565217391,4,2,1,60,1,0
226440,-100,4,2,1,60,0,0
226688,310.880829015544,4,2,1,60,1,0
226998,293.757649938801,4,2,1,60,1,0
227144,293.757649938801,4,2,1,60,1,0
227878,-99.009900990099,4,2,1,60,0,0
228025,288.461538461538,4,2,1,60,1,0
228747,-80,4,2,1,60,0,0
229034,-100,4,2,1,60,0,0
237257,-100,4,2,1,50,0,0
238699,-100,4,2,1,40,0,0
240142,-100,4,2,1,30,0,0
241584,-100,4,2,1,20,0,0
241726,-200,4,2,2,20,0,0

[Colours]
Combo1 : 255,155,195
Combo2 : 245,255,155
Combo3 : 155,255,215
Combo4 : 165,155,255

[HitObjects]
98,109,1729,6,0,P|191:119|176:175,1,173.24999471283,2|2,0:0|0:0,0:0:0:0:
114,252,2306,2,0,L|101:183,2,57.7499982376099,2|2|2,0:0|0:0|0:0,0:0:0:0:
303,337,2883,6,0,P|307:281|316:221,1,115.49999647522,2|2,0:2|0:0,0:0:0:0:
414,186,3316,2,0,L|489:210,2,57.7499982376099,2|0|2,0:0|0:0|0:0,0:0:0:0:
328,127,3761,1,2,0:0:0:0:
328,127,4077,6,0,P|275:108|204:89,1,115.49999647522,2|2,0:0|0:0,0:0:0:0:
21,162,4653,2,0,P|80:161|137:152,1,115.49999647522,2|2,0:0|0:0,0:0:0:0:
310,38,5230,6,0,B|281:87|281:87|313:160|265:186|288:263,1,222.74999320221,2|0,0:0|0:0,0:0:0:0:
213,141,5882,2,2,P|199:196|198:254,1,115.49999647522,2|0,0:1|0:0,0:1:0:0:
367,200,6481,6,0,P|290:170|198:135,1,165,4|0,1:0|0:0,0:0:0:0:
213,140,7634,2,0,P|268:130|334:121,2,115.49999647522,4|0|0,1:0|0:0|0:0,0:0:0:0:
27,183,8788,6,0,P|90:193|156:210,1,115.49999647522,4|0,1:0|1:0,0:0:0:0:
312,321,9367,2,0,P|261:297|207:265,1,115.49999647522,0|0,1:0|1:0,0:0:0:0:
202,58,9946,2,0,P|217:123|222:176,1,115.49999647522,0|0,1:0|1:0,0:0:0:0:
192,368,10525,1,0,1:0:0:0:
384,208,10815,1,8,0:0:0:0:
384,208,11103,5,12,0:0:0:0:
267,145,11247,2,0,P|258:185|256:228,1,82.5,0|0,1:0|1:0,0:0:0:0:
384,128,11536,5,8,0:0:0:0:
278,49,11680,2,0,P|236:56|189:76,1,82.5,0|0,1:0|1:0,0:0:0:0:
78,123,11968,2,0,P|118:131|174:151,1,82.5,8|0,0:0|1:0,0:0:0:0:
157,144,12185,1,0,1:0:0:0:
157,144,12257,6,0,L|127:231,1,82.5,8|0,0:0|1:0,0:0:0:0:
307,126,12545,2,0,L|278:49,1,82.5,8|0,0:0|1:0,0:0:0:0:
71,116,12834,5,8,0:0:0:0:
251,200,12978,2,0,P|180:217|114:222,1,123.75,8|0,0:0|0:0,0:0:0:0:
47,240,13267,6,0,P|132:260|212:290,1,165,4|0,1:0|1:0,0:0:0:0:
331,363,13699,2,0,P|340:321|357:261,1,82.5,8|0,0:0|0:0,0:0:0:0:
305,140,13988,1,0,1:0:0:0:
305,140,14132,1,0,1:0:0:0:
230,268,14276,1,8,0:0:0:0:
111,165,14420,6,0,B|83:286|83:286|104:330,1,165,2|0,0:0|1:0,0:0:0:0:
184,199,14853,1,8,0:0:0:0:
390,297,14998,2,0,B|330:278|330:278|278:281|278:281|219:265,1,165,2|0,0:0|1:0,0:0:0:0:
111,165,15430,1,8,0:0:0:0:
248,108,15574,6,0,P|301:119|279:212,1,165,4|0,1:0|1:0,0:0:0:0:
150,269,16007,2,0,P|110:259|53:247,1,82.5,8|0,0:0|0:0,0:0:0:0:
143,121,16295,2,0,P|156:78|172:35,1,82.5,0|0,1:0|1:0,0:0:0:0:
284,207,16584,1,8,0:0:0:0:
384,97,16728,6,0,B|321:66|263:71|263:71|247:89|247:121,1,165,2|0,0:0|1:0,0:0:0:0:
382,172,17161,1,8,0:0:0:0:
294,289,17305,2,0,P|288:246|284:194,1,82.5,2|10,0:0|0:2,0:0:0:0:
356,19,17593,2,0,P|372:63|387:110,1,82.5,8|8,3:0|0:0,0:0:0:0:
441,261,17882,6,0,P|365:236|277:205,1,165,4|0,1:0|1:0,0:0:0:0:
148,134,18315,2,0,P|160:175|170:235,1,82.5,8|0,0:0|0:0,0:0:0:0:
224,350,18603,2,0,P|226:312|247:234,1,82.5,2|2,1:2|1:2,0:0:0:0:
296,135,18892,1,8,0:0:0:0:
296,135,19036,1,0,0:0:0:0:
168,58,19180,6,0,B|146:180|146:180|177:228,1,165,2|8,1:2|0:0,0:0:0:0:
315,187,19613,1,2,0:0:0:0:
271,29,19757,2,0,L|254:125,1,82.5,0|0,1:0|1:0,0:0:0:0:
231,256,20045,1,8,0:0:0:0:
473,199,20190,6,0,B|362:170|362:170|311:188,1,165,4|0,1:0|1:0,0:0:0:0:
336,333,20622,2,0,P|352:293|370:246,1,82.5,8|0,0:0|1:0,0:0:0:0:
467,122,20911,2,0,L|373:98,1,82.5,8|0,0:0|1:0,0:0:0:0:
280,205,21199,1,8,0:0:0:0:
158,54,21343,6,0,B|143:155|143:155|168:216,1,165,4|0,1:0|1:0,0:0:0:0:
172,218,21704,1,0,1:0:0:0:
177,223,21776,2,0,P|134:213|83:203,1,82.5,8|0,0:0|1:0,0:0:0:0:
160,38,22065,1,10,0:0:0:0:
238,154,22209,1,8,1:2:0:0:
238,154,22642,6,0,P|164:137|87:122,1,132,4|2,1:0|1:2,0:0:0:0:
201,69,23074,1,2,0:2:0:0:
247,180,23218,2,0,P|252:214|258:263,2,66,0|0|0,1:0|0:0|1:0,0:0:0:0:
99,132,23651,6,0,P|77:187|54:261,1,132,2|2,0:0|0:0,0:0:0:0:
78,373,24084,1,0,1:0:0:0:
180,296,24228,2,0,P|110:268|42:254,1,132,2|0,0:0|0:0,0:0:0:0:
162,194,24661,1,8,0:0:0:0:
188,326,24805,1,2,0:0:0:0:
303,298,24949,6,0,L|380:317,1,66,4|0,1:0|0:0,0:0:0:0:
302,168,25238,2,0,L|254:224,1,66,0|0,1:0|0:0,0:0:0:0:
188,326,25526,1,0,1:0:0:0:
132,212,25670,2,0,B|217:199|217:199|263:220,1,132,2|8,0:0|0:0,0:0:0:0:
409,172,26103,5,0,0:0:0:0:
313,101,26247,2,0,P|278:104|237:114,1,66,0|0,0:0|1:0,0:0:0:0:
132,212,26536,2,0,P|138:180|154:129,1,66,10|0,0:0|1:0,0:0:0:0:
207,45,26824,1,8,0:0:0:0:
297,180,26968,1,8,0:0:0:0:
297,180,27113,1,0,1:0:0:0:
403,120,27257,6,0,B|287:89|287:89|246:111,1,165,12|0,0:0|1:0,0:0:0:0:
335,347,27690,2,0,B|368:282|309:244|341:181,1,165,8|0,0:0|1:0,0:0:0:0:
255,331,28122,2,0,L|362:352,1,82.5,8|0,0:0|1:0,0:0:0:0:
421,175,28411,2,0,L|322:188,1,82.5,8|0,0:0|1:0,0:0:0:0:
216,193,28699,5,0,1:0:0:0:
416,335,28843,2,0,B|366:325|366:325|303:341|303:341|250:330,1,165,8|0,0:0|1:0,0:0:0:0:
328,201,29276,1,8,0:0:0:0:
180,214,29420,1,0,1:0:0:0:
274,55,29565,6,0,P|288:130|209:115,1,165,12|0,0:0|1:0,0:0:0:0:
117,23,29991,2,0,B|142:103|142:103|110:188,1,165,8|0,0:0|0:0,0:0:0:0:
207,294,30418,2,0,P|199:255|188:207,1,82.5,8|0,0:0|1:0,0:0:0:0:
279,26,30702,6,0,B|200:48|187:-2|114:23,1,165,8|8,0:0|0:0,0:0:0:0:
242,102,31120,1,0,1:0:0:0:
63,186,31260,5,4,3:0:0:0:
63,186,31336,1,4,3:0:0:0:
63,186,31413,2,0,L|112:195,1,41.25,8|8,3:0|3:0,0:0:0:0:
189,213,31566,1,8,0:0:0:0:
189,213,31873,6,0,P|176:252|156:313,1,82.5,4|0,1:0|0:0,0:0:0:0:
302,204,32161,2,0,P|289:166|268:125,1,82.5,8|2,0:0|0:0,0:0:0:0:
96,110,32449,1,0,1:0:0:0:
96,110,32594,2,0,P|77:146|62:187,1,82.5,0|8,1:0|0:0,0:0:0:0:
156,342,32882,6,0,L|179:174,1,165,0|0,1:0|1:0,0:0:0:0:
255,50,33315,1,8,0:0:0:0:
432,101,33459,2,0,P|343:113|260:130,1,165,2|0,0:0|1:0,0:0:0:0:
130,183,33892,1,8,0:0:0:0:
266,241,34036,1,2,0:0:0:0:
130,183,34180,6,0,L|33:208,1,82.5,0|0,1:0|0:0,0:0:0:0:
189,106,34468,2,0,L|275:129,1,82.5,8|2,0:0|0:0,0:0:0:0:
380,184,34757,1,0,1:0:0:0:
280,322,34901,2,0,P|271:282|264:220,1,82.5,0|8,1:0|0:0,0:0:0:0:
400,96,35190,6,0,P|379:180|357:265,1,165,0|0,1:0|1:0,0:0:0:0:
268,127,35622,1,8,0:0:0:0:
183,253,35767,2,0,L|282:238,1,82.5,0|8,1:0|0:0,0:0:0:0:
115,179,36055,1,0,1:0:0:0:
291,118,36199,1,8,0:0:0:0:
291,118,36488,6,0,L|125:84,1,165,4|8,1:0|0:0,0:0:0:0:
35,199,36920,2,0,P|74:190|120:178,1,82.5,2|0,0:0|1:0,0:0:0:0:
272,37,37209,1,0,1:0:0:0:
272,37,37353,2,0,P|283:77|292:128,1,82.5,8|0,0:0|1:0,0:0:0:0:
203,238,37642,6,0,B|324:220|324:220|357:246,1,165,0|8,1:0|0:0,0:0:0:0:
255,139,38074,1,0,0:0:0:0:
189,319,38218,2,0,L|205:223,1,82.5,8|0,0:0|1:0,0:0:0:0:
343,165,38507,2,0,L|358:254,1,82.5,8|0,0:0|1:0,0:0:0:0:
264,362,38795,6,0,P|178:336|85:318,1,165,12|0,0:0|1:0,0:0:0:0:
274,279,39228,2,0,P|357:268|451:265,1,165,8|0,0:0|0:0,0:0:0:0:
401,89,39661,2,0,P|376:117|345:164,1,82.5,8|0,0:0|1:0,0:0:0:0:
274,279,39949,5,8,0:0:0:0:
229,163,40093,1,0,1:0:0:0:
191,329,40238,1,8,0:0:0:0:
297,205,40382,1,0,1:0:0:0:
354,329,40526,6,0,B|323:315|273:326|273:326|221:339|188:329,1,165,8|0,0:0|1:0,0:0:0:0:
212,82,40959,2,0,L|231:178,1,82.5,8|2,0:0|0:0,0:0:0:0:
354,329,41392,5,2,0:0:0:0:
323,234,41536,2,0,L|179:252,1,132,2|2,0:0|0:0,0:0:0:0:
5,182,42113,1,2,0:0:0:0:
99,152,42257,6,0,P|91:209|76:291,1,132,2|0,0:0|0:0,0:0:0:0:
209,381,42690,2,0,P|197:305|190:234,1,132,2|0,0:0|0:0,0:0:0:0:
254,173,43122,2,0,P|285:179|320:192,1,66,2|0,0:0|0:0,0:0:0:0:
406,235,43411,6,0,L|273:251,1,132,2|0,0:0|0:0,0:0:0:0:
124,149,43843,2,0,L|263:174,1,132,2|2,0:0|0:0,0:0:0:0:
443,231,44420,1,2,0:0:0:0:
381,309,44565,6,0,P|360:236|345:179,1,132,2|0,0:0|0:0,0:0:0:0:
289,45,44997,2,0,P|270:108|253:172,1,132,2|0,0:0|0:0,0:0:0:0:
227,268,45430,1,2,0:0:0:0:
227,268,45574,1,2,0:0:0:0:
345,181,45718,6,0,P|407:177|474:228,1,132,2|0,0:0|0:0,0:0:0:0:
441,310,46151,2,0,P|379:314|312:263,1,132,2|2,0:0|0:0,0:0:0:0:
187,131,46728,1,2,0:0:0:0:
108,190,46872,6,0,B|88:258|88:258|103:323,1,132,2|2,0:0|0:0,0:0:0:0:
193,356,47305,1,2,0:0:0:0:
297,283,47449,2,0,L|164:259,1,132,2|2,0:0|0:0,0:0:0:0:
29,116,48026,6,0,P|91:107|180:105,1,132,2|0,0:0|0:0,0:0:0:0:
261,151,48459,2,0,P|330:168|427:174,1,148.49999546814,2|0,0:0|0:0,0:0:0:0:
229,39,49036,1,2,0:0:0:0:
135,137,49180,6,0,L|26:155,1,90.7500027694703,8|0,0:0|0:0,0:0:0:0:
120,38,49468,1,8,0:0:0:0:
225,125,49613,2,0,B|301:156|319:102|404:135,1,181.500005538941,0|8,1:0|0:0,0:0:0:0:
402,134,49973,1,8,0:0:0:0:
402,134,50045,1,8,0:0:0:0:
416,270,50190,1,8,0:0:0:0:
297,234,50334,6,0,B|181:201|181:201|180:255,1,165,4|0,1:0|1:0,0:0:0:0:
305,314,50767,2,0,L|284:136,1,165,2|2,0:0|0:0,0:0:0:0:
270,58,51199,1,0,1:0:0:0:
135,95,51343,6,0,P|112:176|98:263,1,165,2|0,0:0|0:0,0:0:0:0:
183,202,51776,1,0,1:0:0:0:
195,320,51920,1,0,0:0:0:0:
283,150,52065,1,2,1:2:0:0:
260,266,52209,1,0,0:0:0:0:
282,127,52353,2,0,L|261:27,1,82.5,10|2,1:2|0:0,0:0:0:0:
121,95,52642,6,0,P|198:113|292:129,1,165,0|0,1:0|1:0,0:0:0:0:
414,176,53074,2,0,P|328:178|232:201,1,165,2|2,0:0|0:0,0:0:0:0:
157,239,53507,1,0,1:0:0:0:
228,357,53651,6,0,P|245:271|251:168,1,165,2|0,0:1|0:0,0:0:0:0:
295,56,54084,1,0,1:0:0:0:
414,176,54228,1,0,0:0:0:0:
246,159,54372,6,0,B|190:154|190:154|143:164|143:164|95:159,2,148.49999546814,8|8|8,0:0|0:0|0:0,0:0:0:0:
389,85,54949,6,0,L|279:51,1,98.9999969787599,12|0,0:0|1:0,0:0:0:0:
372,280,55382,2,0,L|433:190,1,98.9999969787599,8|0,0:0|1:0,0:0:0:0:
199,129,55815,2,0,L|210:247,1,98.9999969787599,8|0,0:0|1:0,0:0:0:0:
306,172,56247,5,8,0:0:0:0:
310,176,56392,1,0,1:0:0:0:
97,70,56680,6,0,P|88:117|81:169,1,98.9999969787599,8|0,0:0|1:0,0:0:0:0:
327,273,56968,2,0,P|319:223|307:167,1,98.9999969787599,8|0,0:0|1:0,0:0:0:0:
206,105,57257,5,8,0:0:0:0:
189,227,57401,1,0,1:0:0:0:
327,21,57690,5,8,0:0:0:0:
220,83,57834,1,0,1:0:0:0:
467,89,58122,5,8,0:0:0:0:
364,17,58267,1,0,1:0:0:0:
446,250,58555,5,8,0:0:0:0:
475,129,58699,1,0,1:0:0:0:
302,307,58988,5,8,0:0:0:0:
418,265,59132,1,0,1:0:0:0:
323,185,59276,1,8,0:0:0:0:
302,307,59420,1,0,1:0:0:0:
82,53,61295,5,2,0:0:0:0:
344,113,61584,2,0,L|276:127,1,51.5625,2|0,0:0|0:0,0:0:0:0:
163,176,61728,6,0,B|279:159|279:159|343:195,1,181.500005538941,12|0,1:0|1:0,0:0:0:0:
251,332,62161,2,0,L|270:220,1,90.7500027694703,8|0,0:0|0:0,0:0:0:0:
361,93,62449,1,8,1:0:0:0:
424,176,62593,2,0,L|335:190,1,90.7500027694703,8|8,1:0|0:0,0:0:0:0:
182,59,62882,6,0,P|261:73|365:93,1,181.500005538941,8|0,1:0|1:0,0:0:0:0:
225,185,63315,1,8,0:0:0:0:
272,28,63459,1,2,0:0:0:0:
401,88,63603,1,8,1:0:0:0:
401,88,63747,2,0,L|281:101,1,90.7500027694703,8|8,1:0|0:0,0:0:0:0:
181,155,64036,6,0,B|251:143|267:192|362:172,1,181.500005538941,12|0,1:0|1:0,0:0:0:0:
225,78,64468,1,8,0:0:0:0:
207,241,64613,2,0,L|96:254,1,90.7500027694703,2|8,0:0|1:0,0:0:0:0:
135,60,64901,2,0,L|234:79,1,90.7500027694703,8|8,1:0|0:0,0:0:0:0:
372,146,65190,6,0,P|362:267|343:360,1,181.500005538941,8|0,1:0|1:0,0:0:0:0:
258,189,65622,1,8,0:0:0:0:
116,251,65767,1,0,1:0:0:0:
166,80,65911,6,0,L|157:148,1,49.4999984893799,8|4,0:0|3:0,0:0:0:0:
252,286,66055,2,0,B|262:240|262:240|256:171,1,98.9999969787599,8|8,3:0|0:0,1:0:0:0:
75,280,66343,6,0,B|144:315|175:252|254:286,1,181.500005538941,12|8,1:0|1:0,0:0:0:0:
401,351,66776,2,0,P|370:231|413:207,1,181.500005538941,8|8,0:0|1:0,0:0:0:0:
252,286,67209,1,8,1:0:0:0:
210,147,67353,1,8,0:0:0:0:
64,221,67497,6,0,B|130:253|196:239|196:239|209:259|240:285,1,181.500005538941,8|0,1:0|0:0,0:0:0:0:
297,125,67930,2,0,P|251:133|197:152,1,90.7500027694703,8|0,0:0|0:0,0:0:0:0:
82,43,68218,2,0,P|125:51|180:69,1,90.7500027694703,8|8,1:0|1:0,0:0:0:0:
318,135,68507,1,8,0:0:0:0:
422,74,68651,6,0,P|319:84|203:116,1,181.500005538941,12|0,1:0|1:0,0:0:0:0:
237,266,69084,2,0,P|279:283|340:296,1,90.7500027694703,8|0,0:0|1:0,0:0:0:0:
412,157,69372,2,0,P|365:161|306:173,1,90.7500027694703,8|0,0:0|1:0,0:0:0:0:
167,224,69661,2,0,P|150:266|138:309,1,90.7500027694703,8|0,0:0|1:0,0:0:0:0:
323,293,69949,6,0,L|388:283,2,49.4999984893799,8|8|8,0:0|0:0|0:0,0:0:0:0:
158,222,70238,2,0,L|106:207,2,49.4999984893799,8|8|0,1:2|1:0|1:0,0:0:0:0:
328,172,70526,5,10,0:0:0:0:
255,97,70670,2,0,P|225:85|181:72,1,57.7499982376099,8|0,0:0|0:0,0:0:0:0:
243,235,70959,6,0,P|328:211|452:203,1,181.500005538941,12|0,1:0|1:0,0:0:0:0:
305,319,71392,1,8,0:0:0:0:
238,201,71536,1,0,0:0:0:0:
362,93,71680,1,8,1:0:0:0:
362,93,71824,2,0,P|350:136|339:192,1,90.7500027694703,8|8,1:0|0:0,0:0:0:0:
224,320,72113,6,0,P|213:232|191:115,1,181.500005538941,8|0,1:0|1:0,0:0:0:0:
56,223,72545,2,0,P|97:242|158:260,1,90.7500027694703,8|2,0:0|0:0,0:0:0:0:
294,198,72834,1,8,1:0:0:0:
219,53,72978,2,0,P|200:112|196:153,1,90.7500027694703,8|8,1:0|0:0,0:0:0:0:
248,296,73267,6,0,B|321:334|356:274|431:314,1,181.500005538941,12|8,1:0|1:0,0:0:0:0:
299,206,73699,1,8,0:0:0:0:
154,280,73843,2,0,P|109:289|51:297,1,90.7500027694703,2|8,0:0|1:0,0:0:0:0:
210,187,74132,2,0,P|252:194|309:208,1,90.7500027694703,0|8,1:0|0:0,0:0:0:0:
108,119,74420,6,0,P|77:232|62:309,1,181.500005538941,8|8,1:0|1:0,0:0:0:0:
215,359,74853,2,0,P|208:314|196:250,1,90.7500027694703,8|0,0:0|0:0,0:0:0:0:
108,119,75142,1,8,0:0:0:0:
64,295,75286,1,8,3:0:0:0:
223,262,75430,1,8,0:0:0:0:
74,195,75574,1,2,1:2:0:0:
233,155,75718,6,0,B|288:145|288:145|343:183|421:183,1,181.500005538941,12|8,1:0|0:0,0:0:0:0:
352,87,76151,1,2,0:0:0:0:
277,221,76295,2,0,P|176:248|135:192,1,181.500005538941,8|8,1:0|0:0,0:0:0:0:
186,94,76728,1,12,1:0:0:0:
310,199,76872,6,0,B|324:336|324:336|296:382,1,181.500005538941,2|8,0:0|0:0,0:0:0:0:
190,252,77305,1,0,0:0:0:0:
76,314,77449,2,0,L|181:330,1,90.7500027694703,8|8,1:0|1:0,0:0:0:0:
319,269,77738,1,8,0:0:0:0:
266,88,77882,6,0,P|208:192|189:253,1,181.500005538941,12|0,1:0|1:0,0:0:0:0:
385,215,78315,2,0,P|343:194|284:180,1,90.7500027694703,8|0,0:0|0:0,0:0:0:0:
151,247,78603,2,0,P|143:291|143:337,1,90.7500027694703,8|8,1:0|1:0,0:0:0:0:
316,267,78892,1,8,0:0:0:0:
195,157,79036,1,2,0:0:0:0:
218,297,79180,5,8,1:0:0:0:
385,215,79324,1,2,0:0:0:0:
303,65,79468,2,0,L|276:163,1,90.7500027694703,8|0,0:0|0:0,0:0:0:0:
353,268,79757,5,8,0:0:0:0:
353,268,79829,1,8,0:0:0:0:
353,268,79901,1,8,0:0:0:0:
353,268,79973,1,8,0:0:0:0:
353,268,80045,1,8,1:0:0:0:
412,256,80118,1,8,1:0:0:0:
450,298,80190,1,8,1:0:0:0:
443,352,80262,1,8,1:0:0:0:
387,360,80334,6,0,B|314:331|262:390|188:355,1,197.99999395752,12|8,1:0|0:0,0:0:0:0:
31,294,80767,2,0,P|155:313|176:236,1,197.99999395752,0|0,1:0|1:0,0:0:0:0:
121,97,81199,2,0,L|98:202,1,98.9999969787599,8|0,0:0|1:0,0:0:0:0:
192,357,81488,5,8,0:0:0:0:
366,291,81632,2,0,B|229:248|229:248|162:272,1,197.99999395752,0|0,1:0|1:0,0:0:0:0:
343,199,82065,2,0,L|455:233,1,98.9999969787599,8|0,0:0|1:0,0:0:0:0:
323,363,82353,2,0,L|222:330,1,98.9999969787599,8|8,0:0|1:0,0:0:0:0:
81,229,82642,6,0,P|99:137|195:147,1,197.99999395752,12|8,0:0|0:0,0:0:0:0:
355,192,83074,2,0,P|303:194|237:202,1,98.9999969787599,0|8,1:0|0:0,0:0:0:0:
87,256,83363,2,0,P|138:264|210:284,1,98.9999969787599,0|8,1:0|0:0,0:0:0:0:
351,334,83651,1,0,1:0:0:0:
257,200,83795,5,8,0:0:0:0:
173,302,83940,1,0,1:0:0:0:
211,128,84084,5,8,0:0:0:0:
354,180,84228,1,8,1:2:0:0:
354,180,84300,1,8,1:2:0:0:
354,180,84372,2,0,B|244:203,1,98.9999969787599,8|0,1:2|0:0,0:0:0:0:
115,103,84661,2,0,B|217:129,1,98.9999969787599,2|0,0:0|0:0,0:0:0:0:
312,50,84949,5,4,1:0:0:0:
312,50,85526,1,2,0:0:0:0:
312,50,85959,6,0,B|244:40|244:40|189:63|189:63|127:55,1,181.500005538941,4|0,1:0|0:0,0:0:0:0:
7,114,86392,6,0,B|62:92|62:92|114:135,1,115.49999647522,8|2,0:0|0:0,0:0:0:0:
257,274,86968,1,2,0:0:0:0:
257,274,87113,1,2,0:0:0:0:
256,192,87185,12,0,89132,0:0:0:0:
93,217,89420,6,0,P|175:203|276:189,1,165,4|0,1:0|1:0,0:0:0:0:
403,166,89853,2,0,P|396:204|384:270,1,82.5,8|0,0:0|0:0,0:0:0:0:
302,125,90142,2,0,P|277:94|239:51,1,82.5,8|8,1:0|1:0,0:0:0:0:
134,156,90430,1,8,0:0:0:0:
210,253,90574,6,0,P|227:177|246:68,1,165,2|8,0:0|1:0,0:0:0:0:
53,137,91007,2,0,L|156:161,1,82.5,8|0,0:0|0:0,0:0:0:0:
291,241,91295,2,0,L|190:255,1,82.5,8|0,1:0|1:0,0:0:0:0:
94,298,91584,1,10,0:0:0:0:
238,332,91728,6,0,P|253:248|264:135,1,165,4|0,1:0|0:0,0:0:0:0:
168,52,92161,2,0,P|173:93|186:153,1,82.5,8|0,0:0|0:0,0:0:0:0:
350,103,92449,2,0,P|310:92|258:83,1,82.5,8|0,1:0|1:0,0:0:0:0:
136,152,92738,1,8,0:0:0:0:
252,208,92882,6,0,B|273:283|230:293|251:373,1,165,2|0,0:0|1:0,0:0:0:0:
398,352,93315,2,0,L|299:323,1,82.5,8|8,0:0|1:0,0:0:0:0:
318,328,93531,1,8,1:0:0:0:
318,328,93603,1,8,0:0:0:0:
245,188,93747,1,8,1:3:0:0:
158,351,93892,1,4,1:3:0:0:
92,282,94036,6,0,L|275:266,1,165,12|0,1:0|0:0,0:0:0:0:
176,117,94468,2,0,L|150:207,1,82.5,8|0,0:0|0:0,0:0:0:0:
353,287,94757,2,0,L|324:198,1,82.5,2|2,1:2|1:2,0:0:0:0:
265,74,95045,1,8,0:0:0:0:
153,196,95190,1,0,0:0:0:0:
28,115,95334,6,0,P|-5:220|30:284,1,165,2|8,1:2|0:0,0:0:0:0:
129,170,95767,1,0,0:0:0:0:
217,261,95911,2,0,P|212:303|206:348,1,82.5,8|8,1:0|1:0,0:0:0:0:
105,271,96199,1,8,0:0:0:0:
224,183,96343,6,0,B|291:173|301:223|386:207,1,165,12|0,1:0|1:0,0:0:0:0:
385,58,96776,2,0,P|363:93|344:137,1,82.5,8|0,0:0|1:0,0:0:0:0:
245,262,97065,2,0,P|235:218|212:152,1,82.5,8|0,0:0|1:0,0:0:0:0:
161,91,97353,1,8,0:0:0:0:
83,245,97497,6,0,B|195:271|195:271|268:257,1,165,12|8,1:0|1:0,0:0:0:0:
244,261,97858,1,8,1:0:0:0:
244,261,97930,1,8,0:0:0:0:
146,180,98074,1,8,1:0:0:0:
107,340,98218,5,8,0:0:0:0:
279,256,98363,1,8,1:2:0:0:
279,256,98795,6,0,P|311:262|364:278,1,66,4|0,1:0|1:0,0:0:0:0:
422,181,99084,2,0,P|388:185|328:200,1,66,8|0,0:0|0:0,0:0:0:0:
246,313,99372,1,0,1:0:0:0:
246,313,99517,2,0,P|264:286|281:250,1,66,8|2,0:0|0:0,0:0:0:0:
350,62,99805,6,2,B|342:150|342:150|361:204,1,132,8|0,0:0|1:0,0:0:0:0:
397,303,100238,1,2,0:0:0:0:
278,255,100382,2,0,P|243:260|203:272,2,66,2|0|0,0:0|1:0|1:0,0:0:0:0:
418,213,100815,2,0,P|384:203|342:183,1,66,8|0,0:0|0:0,0:0:0:0:
252,133,101103,5,2,1:2:0:0:
252,133,101247,1,2,1:2:0:0:
312,29,101392,2,0,P|329:60|341:96,1,66,8|0,0:0|0:0,0:0:0:0:
356,190,101680,1,0,0:0:0:0:
188,149,101824,2,0,P|219:138|267:132,1,66,8|0,1:2|0:0,0:0:0:0:
477,172,102113,6,0,P|409:160|351:194,1,132,8|0,0:0|0:0,0:0:0:0:
289,252,102545,1,0,1:0:0:0:
251,132,102690,2,0,P|253:98|265:52,2,66,10|0|8,0:0|1:0|0:0,0:0:0:0:
299,287,103122,5,8,0:0:0:0:
382,145,103267,1,0,1:0:0:0:
442,254,103411,5,12,0:0:0:0:
301,207,103555,2,0,B|175:222|175:222|213:260,1,165,0|8,0:0|0:0,0:0:0:0:
298,365,103988,2,0,B|320:312|320:312|300:203,1,165,0|8,0:0|0:0,0:0:0:0:
221,121,104420,1,0,1:0:0:0:
119,239,104565,6,0,L|218:250,1,82.5,8|0,0:0|1:0,0:0:0:0:
382,196,104853,2,0,L|285:208,1,82.5,0|0,1:0|1:0,0:0:0:0:
59,115,105142,2,0,B|126:140|145:89|221:121,1,165,8|8,0:0|0:0,0:0:0:0:
382,196,105574,1,0,1:0:0:0:
273,242,105718,6,0,P|303:151|344:94,1,165,12|0,0:0|1:0,0:0:0:0:
367,293,106151,2,0,P|271:297|195:267,1,165,8|0,0:0|0:0,0:0:0:0:
54,212,106584,2,0,L|74:309,1,82.5,8|0,0:0|1:0,0:0:0:0:
225,113,106872,6,0,B|209:168|209:168|218:221|218:221|204:285,1,165,8|8,0:0|0:0,0:0:0:0:
54,212,107305,1,0,1:0:0:0:
54,212,107377,1,0,1:0:0:0:
54,212,107449,2,0,L|149:222,1,82.5,4|8,3:0|3:0,0:0:0:0:
275,311,107738,1,8,3:0:0:0:
319,169,107882,1,2,3:0:0:0:
393,261,108026,6,0,L|247:228,1,132,4|0,1:0|1:0,0:0:0:0:
151,191,108459,2,0,P|168:250|185:334,2,132,2|2|2,0:0|0:0|0:0,0:0:0:0:
68,104,109180,2,0,P|99:113|153:126,1,66
243,81,109468,2,0,P|221:107|201:141,1,66,0|0,1:0|0:0,0:0:0:0:
179,250,109757,2,0,P|166:219|140:174,1,66,0|0,1:0|0:0,0:0:0:0:
90,42,110045,2,0,P|77:73|65:112,1,66,8|2,0:0|0:0,0:0:0:0:
58,242,110334,6,0,P|119:269|188:241,1,132,0|0,1:0|1:0,0:0:0:0:
286,199,110767,2,0,P|260:257|240:344,2,132,2|2|2,0:0|0:0|1:0,0:0:0:0:
384,131,111488,2,0,L|401:200,1,66
414,313,111776,2,0,L|338:279,1,66,2|8,0:0|0:2,0:0:0:0:
247,232,112065,2,0,L|316:197,1,66,0|2,1:0|0:0,0:0:0:0:
446,153,112353,2,0,L|368:125,1,66,0|2,1:0|3:2,0:0:0:0:
270,23,112642,6,0,P|250:92|237:160,1,132,4|0,1:0|1:0,0:0:0:0:
335,219,113074,2,0,P|332:146|322:67,2,132,2|2|2,0:0|0:0|0:0,0:0:0:0:
254,306,113795,2,0,P|219:299|167:281,1,66
76,254,114084,2,0,P|88:285|100:333,1,66,0|0,1:0|0:0,0:0:0:0:
149,203,114372,2,0,P|156:168|174:116,1,66,0|0,1:0|0:0,0:0:0:0:
7,227,114661,2,0,P|46:245|94:257,1,74.2499977340699,8|2,0:0|0:0,0:0:0:0:
238,210,114949,6,0,P|291:249|226:302,1,148.49999546814,12|0,0:0|1:0,0:0:0:0:
145,197,115382,2,0,P|199:157|239:210,1,148.49999546814,8|2,0:0|0:0,0:0:0:0:
177,358,115815,2,0,L|170:284,1,74.2499977340699,8|2,0:0|0:0,0:0:0:0:
214,114,116103,5,8,0:0:0:0:
351,169,116247,2,0,L|379:269,1,82.5,0|8,0:0|0:0,0:0:0:0:
265,317,116536,1,8,1:2:0:0:
265,317,116608,1,8,1:2:0:0:
265,317,116680,2,0,L|282:232,1,82.5,8|0,1:2|0:0,0:0:0:0:
323,78,116968,1,8,0:0:0:0:
373,248,117113,1,8,0:0:0:0:
253,159,117257,6,0,P|132:157|90:187,1,165,4|0,1:0|1:0,0:0:0:0:
159,337,117690,2,0,P|192:262|178:182,1,165,2|2,0:0|0:0,0:0:0:0:
97,73,118122,1,0,1:0:0:0:
15,205,118267,6,0,P|86:195|193:180,1,165,2|0,0:0|0:0,0:0:0:0:
319,137,118699,2,0,P|279:127|225:116,1,82.5,0|0,1:0|0:0,0:0:0:0:
233,268,118988,2,0,P|274:264|339:254,1,82.5,2|0,1:2|0:0,0:0:0:0:
453,205,119276,1,10,1:2:0:0:
364,120,119420,1,2,0:0:0:0:
314,258,119565,6,0,P|393:280|489:294,1,165,0|0,1:0|1:0,0:0:0:0:
314,258,119997,2,0,P|232:270|153:292,1,165,2|2,0:0|0:0,0:0:0:0:
57,335,120430,1,0,1:0:0:0:
137,210,120574,6,0,L|169:382,1,165,2|0,0:0|0:0,0:0:0:0:
319,295,121007,2,0,L|227:276,1,82.5,2|0,1:2|1:0,0:0:0:0:
63,208,121295,6,0,B|133:210|133:210|218:180,2,131.99999597168,8|8|8,0:0|0:0|0:0,0:0:0:0:
79,29,121872,6,0,P|103:72|123:117,1,98.9999969787599,12|8,0:0|1:0,0:0:0:0:
156,353,122305,2,0,P|162:303|172:255,1,98.9999969787599,8|8,0:0|1:0,0:0:0:0:
372,127,122738,2,0,P|324:136|254:157,1,98.9999969787599,8|8,0:0|1:0,0:0:0:0:
48,218,123170,5,8,0:0:0:0:
48,218,123315,1,8,1:0:0:0:
135,138,123459,6,0,L|186:152,1,49.4999984893799,8|8,1:0|1:0,0:0:0:0:
269,235,123603,2,0,L|170:255,1,98.9999969787599,8|8,0:0|1:0,0:0:0:0:
87,123,123892,2,0,L|207:158,1,98.9999969787599,8|8,0:0|1:0,0:0:0:0:
402,176,124180,6,0,B|361:161|324:186|324:186|278:145|210:145|135:213|229:297|277:224,1,330,2|8,0:0|0:0,0:0:0:0:
327,93,125478,1,0,1:0:0:0:
402,176,125622,1,8,0:0:0:0:
268,234,125767,1,0,1:0:0:0:
303,343,125911,1,8,0:0:0:0:
400,208,126055,1,0,1:0:0:0:
226,303,126199,5,8,0:0:0:0:
391,341,126343,1,12,1:0:0:0:
425,189,127786,5,8,1:0:0:0:
425,189,127858,1,8,1:0:0:0:
425,189,127930,2,0,L|350:176,1,61.875,8|0,0:0|0:0,0:0:0:0:
301,238,128218,5,8,0:0:0:0:
301,238,128291,2,0,P|357:236|365:179,1,123.750004720688,8|0,0:0|0:0,0:0:0:0:
286,127,128651,6,0,L|309:325,1,181.500005538941,12|0,1:0|0:0,0:0:0:0:
178,237,129084,2,0,P|131:224|83:214,1,90.7500027694703,8|2,0:0|0:0,0:0:0:0:
136,318,129372,1,8,1:0:0:0:
256,212,129517,2,0,L|294:100,1,90.7500027694703,8|8,1:0|0:0,0:0:0:0:
145,58,129805,6,0,P|166:171|179:243,1,181.500005538941,8|0,1:0|0:0,0:0:0:0:
393,334,130238,2,0,P|348:319|304:306,1,90.7500027694703,8|2,0:0|0:0,0:0:0:0:
161,333,130526,1,8,1:0:0:0:
256,212,130670,1,8,1:0:0:0:
306,306,130815,1,8,0:0:0:0:
434,162,130959,6,0,B|406:224|406:224|413:280|413:280|392:334,1,181.500005538941,12|8,1:0|1:0,0:0:0:0:
489,238,131392,1,8,0:0:0:0:
340,159,131536,2,0,P|295:162|230:177,1,90.7500027694703,2|8,0:0|1:0,0:0:0:0:
406,75,131824,2,0,P|423:116|435:171,1,90.7500027694703,8|8,1:0|0:0,0:0:0:0:
306,306,132113,6,0,P|186:287|150:246,1,181.500005538941,8|8,1:0|1:0,0:0:0:0:
231,82,132545,2,0,L|252:179,1,90.7500027694703,8|0,0:0|0:0,0:0:0:0:
433,161,132834,6,0,L|375:146,1,51.5625,8|4,0:0|3:0,0:0:0:0:
256,201,132978,2,0,L|368:234,1,103.125,8|8,3:0|0:0,0:0:0:0:
512,326,133267,6,0,B|416:292|430:360|331:331,1,181.500005538941,12|8,1:0|1:0,0:0:0:0:
204,271,133699,2,0,P|192:314|178:378,1,90.7500027694703,8|0,0:0|0:0,0:0:0:0:
354,229,133988,2,0,P|346:187|319:122,1,90.7500027694703,8|8,1:0|1:0,0:0:0:0:
256,201,134276,1,8,0:0:0:0:
442,133,134420,6,0,P|331:107|262:90,1,181.500005538941,12|0,1:0|1:0,0:0:0:0:
124,51,134853,2,0,P|136:96|153:153,1,90.7500027694703,8|0,0:0|0:0,0:0:0:0:
214,281,135142,2,0,P|235:241|265:182,1,90.7500027694703,8|8,1:0|1:0,0:0:0:0:
223,77,135430,1,8,0:0:0:0:
78,183,135574,6,0,B|140:179|194:207|194:207|262:199,1,181.500005538941,12|0,1:0|1:0,0:0:0:0:
340,318,136007,2,0,L|246:290,1,90.7500027694703,8|8,0:0|1:0,0:0:0:0:
67,362,136295,2,0,L|119:276,1,90.7500027694703,8|8,0:0|1:0,0:0:0:0:
255,199,136584,1,8,0:0:0:0:
93,133,136728,1,8,1:0:0:0:
93,133,136800,1,8,1:0:0:0:
93,133,136872,6,0,L|70:204,2,51.5625,8|8|8,0:0|0:0|0:0,0:0:0:0:
275,75,137161,2,0,L|290:134,2,51.5625,8|8|8,1:0|1:0|1:0,0:0:0:0:
129,14,137449,5,12,0:0:0:0:
186,86,137593,2,0,L|197:148,1,57.7499982376099,8|0,1:0|0:0,0:0:0:0:
462,175,137882,6,0,P|370:147|286:124,1,181.500005538941,12|0,1:0|1:0,0:0:0:0:
113,230,138315,2,0,P|200:225|302:216,1,181.500005538941,8|8,0:0|1:0,0:0:0:0:
287,124,138747,1,8,1:0:0:0:
244,310,138892,1,8,0:0:0:0:
123,155,139036,6,1,L|299:218,1,181.500005538941,8|0,1:0|0:0,0:0:0:0:
425,276,139468,2,0,L|315:301,1,90.7500027694703,8|2,0:0|0:0,0:0:0:0:
201,92,139757,2,0,L|288:124,1,90.7500027694703,8|8,1:0|1:0,0:0:0:0:
387,160,140045,1,8,0:0:0:0:
216,214,140190,6,0,P|171:314|216:374,1,181.500005538941,12|0,1:0|1:0,0:0:0:0:
336,296,140622,1,8,0:0:0:0:
227,194,140767,2,0,L|117:161,1,90.7500027694703,2|8,0:0|1:0,0:0:0:0:
115,380,141055,2,0,L|229:363,1,90.7500027694703,8|8,1:0|0:0,0:0:0:0:
363,305,141343,6,0,B|298:285|298:285|240:288|240:288|168:270,1,181.500005538941,8|8,1:0|1:0,0:0:0:0:
37,200,141776,2,0,B|81:202|81:202|136:190,1,90.7500027694703,8|0,0:0|0:0,0:0:0:0:
268,159,142065,1,10,0:0:0:0:
146,80,142209,1,8,1:0:0:0:
187,275,142353,1,8,0:0:0:0:
126,192,142497,1,8,0:0:0:0:
20,328,142642,6,0,P|97:345|203:356,2,181.500005538941,12|8|8,1:0|0:0|1:0,0:0:0:0:
107,225,143363,1,8,1:0:0:0:
219,267,143507,2,0,P|210:313|198:358,1,90.7500027694703,8|12,0:0|1:0,0:0:0:0:
107,225,143795,6,0,P|184:191|295:155,1,181.500005538941,2|8,1:2|0:0,0:0:0:0:
393,143,144228,1,0,0:0:0:0:
262,79,144372,1,10,0:0:0:0:
219,267,144517,1,8,1:0:0:0:
276,160,144661,1,8,0:0:0:0:
395,276,144805,6,0,P|273:288|208:303,1,181.500005538941,12|0,1:0|1:0,0:0:0:0:
65,213,145238,6,0,P|93:221|137:233,2,60.5000018463135,8|0|0,1:0|1:0|1:0,1:0:0:0:
85,100,145515,2,0,P|101:128|119:161,2,60.5000018463135,8|8|8,1:2|1:2|1:2,1:0:0:0:
181,35,145793,2,0,P|176:64|168:107,2,60.5000018463135,10|8|8,0:2|0:0|0:0,1:2:0:0:
290,0,146103,6,0,P|303:56|308:128,1,121.000003692627,12|0,1:0|1:0,0:0:0:0:
261,225,146363,6,0,P|249:253|240:283,2,60.5000018463135,8|8|8,1:0|0:3|0:3,0:0:0:0:
361,170,146663,2,0,P|391:164|442:164,2,60.5000018463135,12|8|8,1:3|0:3|0:3,0:0:0:0:
257,120,146963,2,0,P|244:92|232:52,2,60.5000018463135,4|8|8,0:3|0:3|0:3,0:0:0:0:
357,78,147257,6,0,L|336:227,1,132,4|0,1:0|0:0,0:0:0:0:
240,281,147690,1,0,1:0:0:0:
211,185,147834,2,0,P|277:202|354:244,1,132,8|0,0:0|0:0,0:0:0:0:
440,298,148267,6,0,P|358:301|300:319,1,132,0|8,1:0|0:0,0:0:0:0:
195,363,148699,2,0,L|214:293,1,66,0|0,1:0|1:0,0:0:0:0:
101,185,148988,2,0,L|119:330,1,132,8|8,0:0|0:0,0:0:0:0:
221,269,149420,1,0,1:0:0:0:
173,168,149565,6,0,P|97:150|37:136,1,132,4|2,1:0|0:0,0:0:0:0:
53,331,149997,2,0,L|134:311,1,66,8|8,1:0|0:0,0:0:0:0:
245,205,150286,2,0,L|214:292,1,66,0|8,0:0|0:0,0:0:0:0:
108,215,150574,2,0,L|95:132,1,66,0|2,1:0|0:0,0:0:0:0:
180,54,150863,6,0,P|256:81|274:141,1,132,8|0,0:0|1:0,0:0:0:0:
339,275,151295,2,0,P|307:219|244:204,1,132,8|8,0:0|0:3,0:0:0:0:
135,244,151728,1,8,0:3:0:0:
282,333,151872,6,0,P|349:326|426:318,1,132,4|0,1:0|1:0,0:0:0:0:
374,231,152305,1,8,1:0:0:0:
374,231,152449,2,0,P|307:217|242:204,1,132,8|2,0:0|0:0,0:0:0:0:
120,226,152882,1,8,1:0:0:0:
237,172,153026,5,2,1:2:0:0:
167,67,153170,2,0,L|150:140,1,66,8|2,0:0|0:0,0:0:0:0:
317,68,153459,1,0,1:0:0:0:
317,68,153531,1,0,1:0:0:0:
317,68,153603,2,0,L|252:32,1,66,8|0,0:2|0:0,0:0:0:0:
167,67,153892,1,2,0:0:0:0:
244,204,154036,1,8,0:0:0:0:
359,156,154180,6,0,P|389:221|352:299,1,132,12|0,1:0|1:0,0:0:0:0:
254,319,154613,2,0,L|107:286,1,132,8|0,0:0|1:0,0:0:0:0:
147,166,155045,1,8,0:0:0:0:
256,228,155190,6,0,L|275:311,1,66,0|0,0:0|1:0,0:0:0:0:
89,349,155478,2,0,L|111:266,1,66,8|0,0:0|0:0,0:0:0:0:
238,142,155767,1,0,1:0:0:0:
238,142,155839,1,0,1:0:0:0:
238,142,155911,2,0,L|253:213,1,66,8|0,0:0|0:0,0:0:0:0:
275,320,156199,1,0,1:0:0:0:
373,276,156343,1,2,1:2:0:0:
216,372,156488,6,0,P|147:371|79:342,1,132,12|0,1:0|1:0,0:0:0:0:
11,250,156920,1,8,0:0:0:0:
142,160,157065,2,0,P|156:218|162:296,1,132,8|8,1:0|0:0,0:0:0:0:
88,348,157497,1,8,1:0:0:0:
233,246,157642,6,0,P|265:237|311:222,1,66,0|8,0:0|0:0,0:0:0:0:
360,326,157930,2,0,P|325:317|289:306,1,66,8|0,1:0|1:0,0:0:0:0:
236,160,158213,2,0,P|251:130|277:85,1,66,8|0,0:0|1:0,0:0:0:0:
322,181,158496,1,8,0:0:0:0:
157,217,158637,1,0,1:0:0:0:
178,317,158779,5,8,0:0:0:0:
178,317,158852,2,0,B|232:295|232:295|316:312,1,123.75,8|0,0:0|1:0,0:0:0:0:
434,380,159220,1,0,1:0:0:0:
434,380,159293,2,0,B|419:323|419:323|440:261,1,123.75,0|0,1:0|1:0,0:0:0:0:
456,183,159587,5,0,1:0:0:0:
456,183,159661,2,0,B|414:188|414:188|361:170,1,82.5,8|0,1:0|1:0,0:0:0:0:
336,77,159949,6,0,L|365:271,1,173.24999471283,2|0,0:0|0:0,0:0:0:0:
230,298,160526,2,0,P|217:247|273:229,1,115.49999647522,2|0,0:0|0:0,0:0:0:0:
304,360,160959,6,0,P|211:344|141:312,1,165,4|0,1:0|1:0,0:0:0:0:
248,145,161392,2,0,L|269:241,1,82.5,8|0,0:0|0:0,0:0:0:0:
156,102,161680,2,0,L|230:37,1,82.5,2|0,1:2|0:0,0:0:0:0:
158,201,161968,2,0,L|67:172,1,82.5,10|0,0:0|0:0,0:0:0:0:
248,145,162257,6,0,L|289:327,1,165,2|10,1:2|0:0,0:0:0:0:
203,354,162690,1,2,0:0:0:0:
366,273,162834,1,2,1:2:0:0:
185,234,162978,1,2,0:0:0:0:
253,122,163122,1,10,0:0:0:0:
284,305,163267,6,0,P|192:286|120:271,1,165,12|0,1:0|1:0,0:0:0:0:
11,149,163699,2,0,P|50:141|99:132,1,82.5,8|0,0:0|0:0,0:0:0:0:
212,19,163988,2,0,P|199:59|181:119,1,82.5,2|0,1:2|0:0,0:0:0:0:
200,261,164276,2,0,P|186:221|166:165,1,82.5,10|0,0:0|0:0,0:0:0:0:
59,61,164565,6,0,P|40:138|22:242,1,165,2|8,1:2|0:0,0:0:0:0:
68,324,164997,1,2,1:2:0:0:
68,324,165069,1,2,1:2:0:0:
68,324,165142,1,10,0:0:0:0:
184,182,165286,1,10,0:0:0:0:
175,302,165430,1,10,0:0:0:0:
24,222,165574,6,0,P|107:200|196:180,1,165,12|0,1:0|1:0,0:0:0:0:
322,91,166007,2,0,L|296:180,1,82.5,8|0,0:0|1:0,0:0:0:0:
298,170,166223,1,0,1:0:0:0:
298,170,166295,2,0,P|338:161|392:158,1,82.5,8|2,1:0|1:2,0:0:0:0:
512,254,166584,2,0,P|472:249|423:235,1,82.5,10|0,0:0|1:0,0:0:0:0:
296,351,166872,6,0,L|477:333,1,165,0|8,1:0|0:0,0:0:0:0:
341,265,167305,1,2,1:2:0:0:
341,265,167377,1,2,1:2:0:0:
341,265,167449,1,10,0:0:0:0:
431,238,167593,1,10,0:0:0:0:
298,170,167738,1,10,0:0:0:0:
147,234,167882,6,0,P|77:235|9:156,1,165,12|0,1:0|1:0,0:0:0:0:
131,53,168315,2,0,P|152:89|161:139,1,82.5,8|0,0:0|1:0,0:0:0:0:
213,284,168603,2,0,P|177:305|127:314,1,82.5,8|0,0:0|1:0,0:0:0:0:
187,155,168892,2,0,P|227:163|262:184,1,82.5,8|0,0:0|1:0,0:0:0:0:
283,214,169108,1,0,1:0:0:0:
283,214,169180,6,0,L|374:202,1,82.5,8|8,0:0|1:0,0:0:0:0:
213,284,169468,2,0,L|155:274,2,41.25,8|0|8,1:0|1:0|0:0,0:0:0:0:
365,350,169757,2,0,L|271:331,1,82.5,0|8,1:0|1:0,0:0:0:0:
284,333,169973,1,8,1:0:0:0:
284,333,170045,1,8,0:0:0:0:
146,135,170190,6,0,P|198:222|214:300,1,165,12|0,1:0|1:0,0:0:0:0:
71,351,170622,2,0,P|78:310|86:258,1,82.5,8|2,0:0|0:0,0:0:0:0:
272,176,170911,2,0,P|285:215|300:276,1,82.5,2|2,1:2|1:2,0:0:0:0:
204,329,171199,1,8,0:0:0:0:
114,175,171343,6,0,B|207:153|207:153|277:178,1,165,12|0,1:0|1:0,0:0:0:0:
405,260,171776,2,0,L|310:281,1,82.5,8|2,0:0|0:0,0:0:0:0:
179,339,172065,2,0,L|226:255,1,82.5,8|8,1:0|1:0,0:0:0:0:
272,176,172353,1,8,0:0:0:0:
435,325,172497,6,0,L|259:364,1,165,12|0,1:0|1:0,0:0:0:0:
141,240,172930,2,0,P|179:253|242:274,1,82.5,8|2,0:0|0:0,0:0:0:0:
344,229,173218,2,0,P|352:188|358:147,1,82.5,8|8,1:0|1:0,0:0:0:0:
328,39,173507,1,8,0:0:0:0:
197,164,173651,6,0,P|274:216|368:227,1,165,12|2,1:0|1:2,0:0:0:0:
484,158,174084,2,0,L|388:134,1,82.5,10|2,0:0|0:0,0:0:0:0:
309,63,174372,1,8,1:0:0:0:
343,228,174517,1,8,1:0:0:0:
403,137,174661,1,8,0:0:0:0:
259,294,174805,6,0,P|161:304|99:256,1,165,12|0,1:0|1:0,0:0:0:0:
174,125,175238,2,0,L|196:227,1,82.5,8|2,0:0|0:0,0:0:0:0:
134,351,175526,1,2,0:2:0:0:
99,174,175670,1,2,0:2:0:0:
228,217,175815,1,10,0:0:0:0:
108,269,175959,1,2,0:2:0:0:
59,143,176103,6,0,P|67:105|92:46,1,82.5,2|2,0:0|1:2,0:0:0:0:
305,126,176392,2,0,B|240:137|240:137|196:118|196:118|140:128,1,165,10|2,0:0|1:2,0:0:0:0:
185,200,176824,1,2,1:2:0:0:
250,52,176968,1,10,0:0:0:0:
340,145,177113,6,0,P|346:257|333:308,1,165,12|0,1:0|1:0,0:0:0:0:
194,378,177545,2,0,P|181:339|169:278,1,82.5,8|8,0:0|1:0,0:0:0:0:
262,172,177834,2,0,P|300:155|360:141,1,82.5,8|8,0:0|1:0,0:0:0:0:
413,287,178122,2,0,P|373:299|297:312,1,82.5,8|0,0:0|1:0,0:0:0:0:
181,199,178410,6,0,L|347:226,1,165,4|8,1:3|1:0,0:0:0:0:
271,124,178834,1,8,1:3:0:0:
140,298,178976,5,8,0:0:0:0:
140,298,179123,2,0,B|187:309|230:296|230:296|277:315|277:315|302:306|342:307,1,197.99999395752,2|6,0:0|0:0,0:0:0:0:
256,192,186488,12,0,188651,0:0:0:0:
386,173,188795,6,0,P|319:182|249:193,1,132,4|0,1:0|1:0,0:0:0:0:
151,120,189228,1,2,0:0:0:0:
77,187,189372,1,0,1:0:0:0:
77,187,189515,2,0,L|63:258,1,66,2|0,0:0|1:0,0:0:0:0:
129,370,189805,6,0,P|145:301|163:229,1,132,2|2,0:0|0:0,0:0:0:0:
243,127,190238,2,0,L|259:211,1,66,0|2,1:0|0:0,0:0:0:0:
308,305,190526,1,0,1:0:0:0:
308,305,190670,2,0,L|236:284,1,66,2|0,0:0|1:0,0:0:0:0:
28,253,190959,6,0,P|93:247|179:240,1,132,8|2,0:0|0:0,0:0:0:0:
255,191,191390,1,0,1:0:0:0:
162,107,191535,2,0,L|135:175,1,66,2|0,0:0|1:0,0:0:0:0:
344,207,191823,2,0,L|322:129,1,66,2|0,0:0|1:0,0:0:0:0:
295,49,192112,1,2,0:0:0:0:
224,164,192256,6,0,P|227:231|235:308,1,132,0|0,1:0|1:0,0:0:0:0:
333,219,192688,1,8,0:3:0:0:
356,342,192833,2,0,P|282:310|225:293,1,132,8|4,1:3|0:3,0:0:0:0:
111,328,193265,1,8,0:3:0:0:
136,190,193410,1,4,1:0:0:0:
256,192,193482,12,4,194563,1:0:0:0:
54,148,194853,6,0,P|105:149|150:120,1,99,2|0,0:0|0:0,0:0:0:0:
178,36,195140,2,0,P|149:76|150:142,1,99,2|0,0:0|0:0,0:0:0:0:
227,173,195429,2,0,P|189:138|124:125,1,99,2|0,0:0|0:0,0:0:0:0:
54,148,195718,5,8,1:0:0:0:
178,36,195863,1,8,0:0:0:0:
241,203,196007,1,8,0:0:0:0:
152,133,196151,1,8,1:0:0:0:
152,133,196223,1,8,1:0:0:0:
152,133,196295,5,8,0:0:0:0:
329,94,196438,1,8,0:0:0:0:
242,41,196583,1,0,1:0:0:0:
242,41,196655,1,0,1:0:0:0:
242,41,196728,6,0,L|224:194,1,132,12|10,0:0|3:2,0:0:0:0:
288,334,197161,6,0,P|314:329|219:200,1,330,8|0,0:0|0:0,0:0:0:0:
288,334,198603,5,2,0:0:0:0:
44,199,198890,2,0,L|131:209,1,51.5625,2|0,0:0|0:0,0:0:0:0:
223,168,199035,6,0,P|146:178|159:274,1,181.500005538941,12|0,1:0|1:0,0:0:0:0:
310,219,199467,2,0,P|265:206|211:191,1,90.7500027694703,8|0,0:0|0:0,0:0:0:0:
75,121,199756,1,8,1:0:0:0:
202,79,199900,2,0,P|214:123|224:174,1,90.7500027694703,8|8,1:0|0:0,0:0:0:0:
63,298,200188,6,0,P|55:185|84:101,1,181.500005538941,8|0,1:0|1:0,0:0:0:0:
233,203,200621,2,0,P|235:249|219:305,1,90.7500027694703,8|2,0:0|0:0,0:0:0:0:
149,238,200910,1,8,1:0:0:0:
291,140,201054,2,0,P|308:180|317:249,1,90.7500027694703,8|8,1:0|0:0,0:0:0:0:
156,335,201342,6,0,B|257:313|217:377|337:353,1,181.500005538941,12|8,1:0|1:0,0:0:0:0:
290,255,201776,1,8,0:0:0:0:
140,340,201920,2,0,P|123:299|110:241,1,90.7500027694703,2|0,0:0|1:0,0:0:0:0:
203,107,202209,2,0,P|194:152|174:205,1,90.7500027694703,8|8,1:0|0:0,0:0:0:0:
29,109,202497,6,0,P|105:95|223:75,1,181.500005538941,8|8,1:0|1:0,0:0:0:0:
379,56,202930,2,0,P|366:97|343:160,1,90.7500027694703,8|0,0:0|0:0,0:0:0:0:
265,318,203218,6,0,L|254:247,1,51.5625,8|4,0:0|3:0,0:0:0:0:
247,168,203363,2,0,P|295:151|355:176,1,103.125,8|8,3:0|0:0,1:0:0:0:
439,316,203651,6,0,B|369:301|298:333|298:333|260:316,1,181.500005538941,12|8,1:0|1:0,0:0:0:0:
140,251,204084,1,8,0:0:0:0:
298,227,204228,1,2,0:0:0:0:
167,339,204372,2,0,P|120:326|61:308,1,90.7500027694703,8|8,1:0|1:0,0:0:0:0:
13,209,204661,1,8,0:0:0:0:
135,80,204805,6,0,B|153:137|153:137|127:189|127:189|141:254,1,181.500005538941,12|0,1:0|1:0,0:0:0:0:
310,218,205238,2,0,L|201:195,1,90.7500027694703,8|0,0:0|0:0,0:0:0:0:
64,127,205525,1,8,1:0:0:0:
140,251,205669,1,8,1:0:0:0:
215,78,205813,1,8,0:0:0:0:
398,164,205958,6,0,P|292:177|217:200,1,181.500005538941,12|8,1:0|1:0,0:0:0:0:
144,256,206318,1,8,1:0:0:0:
144,256,206390,2,0,P|182:281|240:300,1,90.7500027694703,8|8,0:0|1:0,0:0:0:0:
215,78,206679,2,0,P|172:93|134:118,1,90.7500027694703,8|8,0:0|1:0,0:0:0:0:
224,296,206967,1,8,0:0:0:0:
387,208,207112,1,0,1:0:0:0:
387,208,207184,1,0,1:0:0:0:
387,208,207257,6,0,L|399:155,2,45.3750013847352,8|8|0,0:0|0:0|1:2,0:0:0:0:
214,251,207545,2,0,L|226:309,2,45.3750013847352,0|0|0,1:2|1:2|1:2,0:0:0:0:
389,309,207834,5,10,0:0:0:0:
284,342,207978,2,0,L|212:324,1,57.7499982376099,4|0,1:0|0:0,0:0:0:0:
9,244,208265,6,0,B|70:231|70:231|116:257|116:257|192:245,1,181.500005538941,12|0,1:0|1:0,0:0:0:0:
147,79,208699,2,0,L|131:187,1,90.7500027694703,8|0,0:0|0:0,0:0:0:0:
66,328,208988,1,8,1:0:0:0:
0,222,209132,1,8,1:0:0:0:
133,168,209276,1,8,0:0:0:0:
266,277,209420,6,0,P|286:189|254:106,1,181.500005538941,8|0,1:0|1:0,0:0:0:0:
147,242,209853,2,0,P|152:285|159:350,1,90.7500027694703,8|2,0:0|0:0,0:0:0:0:
267,384,210140,1,8,1:0:0:0:
364,289,210285,2,0,P|371:244|375:183,1,90.7500027694703,8|8,1:0|0:0,0:0:0:0:
225,284,210573,6,0,P|325:310|429:340,1,181.500005538941,12|8,1:0|1:0,0:0:0:0:
497,249,211006,1,8,0:0:0:0:
344,169,211150,2,0,P|296:171|236:183,1,90.7500027694703,2|8,0:0|1:0,0:0:0:0:
123,292,211438,2,0,P|143:256|165:195,1,90.7500027694703,0|8,1:0|0:0,0:0:0:0:
138,39,211727,6,0,P|156:81|189:134,1,90.7500027694703,8|0,1:0|0:0,0:0:0:0:
296,247,212015,1,8,1:0:0:0:
431,193,212160,2,0,L|332:165,1,90.7500027694703,8|0,0:0|1:0,0:0:0:0:
343,168,212376,1,0,1:0:0:0:
343,168,212448,1,8,0:0:0:0:
293,71,212592,1,8,3:0:0:0:
203,219,212737,1,8,0:0:0:0:
138,39,212881,1,0,0:0:0:0:
32,165,213025,6,0,B|127:141|93:213|215:194,2,181.500005538941,12|8|8,1:0|0:0|1:0,0:0:0:0:
60,249,213746,1,8,1:0:0:0:
169,115,213890,2,0,P|165:71|158:7,1,90.7500027694703,8|12,0:0|1:0,0:0:0:0:
294,136,214179,6,0,P|288:222|276:335,1,181.500005538941,2|8,0:0|0:0,0:0:0:0:
204,239,214612,1,0,0:0:0:0:
378,163,214756,2,0,L|393:269,1,90.7500027694703,8|8,1:0|1:0,0:0:0:0:
293,355,215044,1,8,0:0:0:0:
164,236,215188,6,0,P|87:254|93:353,1,181.500005538941,12|8,1:0|1:0,0:0:0:0:
166,367,215549,1,0,1:0:0:0:
182,362,215621,5,8,0:0:0:0:
202,349,215693,1,8,0:0:0:0:
220,328,215765,1,8,1:0:0:0:
231,300,215838,1,8,1:0:0:0:
241,268,215910,2,0,L|185:238,3,45.3750013847352,0|0|8|8,1:0|1:0|1:0|1:0,0:0:0:0:
136,181,216198,5,8,0:0:0:0:
145,141,216270,1,8,0:0:0:0:
176,115,216342,1,8,0:0:0:0:
216,104,216414,1,8,0:0:0:0:
256,110,216487,2,0,L|272:180,1,45.3750013847352,8|8,1:0|1:0,0:0:0:0:
314,274,216631,5,8,0:0:0:0:
321,262,216703,1,8,0:0:0:0:
328,252,216775,1,8,0:0:0:0:
334,242,216847,1,8,0:0:0:0:
343,231,216919,2,0,L|367:166,1,45.3750013847352,8|8,1:0|1:0,0:0:0:0:
395,76,217063,2,0,L|447:112,3,45.3750013847352,2|2|2|2,1:2|1:2|1:2|1:2,0:0:0:0:
462,177,217352,5,0,1:0:0:0:
457,217,217424,1,0,1:0:0:0:
451,257,217496,1,0,1:0:0:0:
443,297,217568,1,0,1:0:0:0:
434,337,217640,6,0,B|331:358|351:287|255:306,1,181.500005538941,12|8,1:0|0:0,0:0:0:0:
99,363,218073,2,0,P|45:318|71:215,1,181.500005538941,0|0,1:0|1:0,0:0:0:0:
193,101,218506,2,0,L|222:198,1,90.7500027694703,8|0,0:0|1:0,0:0:0:0:
263,306,218794,5,8,0:0:0:0:
388,227,218938,2,0,B|324:198|324:198|268:209|268:209|197:179,1,181.500005538941,0|0,1:0|1:0,0:0:0:0:
382,137,219371,2,0,L|479:183,1,90.7500027694703,8|0,0:0|1:0,0:0:0:0:
392,333,219660,2,0,L|297:284,1,90.7500027694703,8|0,0:0|1:0,0:0:0:0:
202,153,219948,6,0,B|156:239|231:239|181:330,1,181.500005538941,12|8,0:0|0:0,0:0:0:0:
15,282,220376,2,0,B|58:279|58:279|129:272,1,90.7500027694703,0|8,1:0|0:0,0:0:0:0:
361,233,220662,2,0,B|316:221|316:221|254:204,1,90.7500027694703,0|8,1:0|0:0,0:0:0:0:
110,148,220948,1,0,1:0:0:0:
251,38,221090,6,0,B|293:159|293:159|268:220,1,181.500005538941,8|8,0:0|0:0,0:0:0:0:
200,312,221519,1,8,0:0:0:0:
122,158,221662,1,4,1:3:0:0:
122,158,221735,1,8,1:3:0:0:
122,158,221808,2,0,L|146:60,1,90.7500027694703,8|4,0:3|1:3,0:0:0:0:
210,159,222101,1,2,1:2:0:0:
156,244,222247,6,0,P|77:238|28:164,1,165,4|2,1:0|0:0,0:0:0:0:
405,49,223276,6,0,B|386:104|386:104|409:169|409:169|390:234,1,181.500005538941,12|0,0:0|1:0,0:0:0:0:
386,310,223704,6,0,P|352:288|304:276,1,82.5,10|2,0:0|3:0,0:0:0:0:
286,276,224062,1,2,3:0:0:0:
262,284,224134,1,2,3:0:0:0:
243,300,224206,1,2,3:0:0:0:
231,326,224278,2,8,L|237:376,1,41.25,8|8,3:0|3:0,3:0:0:0:
323,359,224422,5,12,0:0:0:0:
256,192,224494,12,0,226296,0:0:0:0:
330,27,226557,6,0,L|340:79,1,41.25,2|0,0:0|0:0,0:0:0:0:
349,157,226688,6,0,P|262:133|177:108,1,165,4|0,1:0|1:0,0:0:0:0:
47,68,227144,2,0,P|56:109|71:171,1,82.5,8|0,0:0|0:0,0:0:0:0:
99,292,227437,2,0,P|114:252|136:193,1,82.5,0|0,1:0|1:0,0:0:0:0:
190,112,227731,1,8,0:0:0:0:
251,280,227878,6,0,P|147:311|83:279,1,165,2|0,0:0|1:0,0:0:0:0:
224,201,228313,2,0,L|255:292,1,82.5,8|0,0:0|0:0,0:0:0:0:
394,244,228601,2,0,L|293:214,1,82.5,0|0,1:0|1:0,0:0:0:0:
134,170,228890,1,8,0:0:0:0:
283,61,229034,6,0,P|316:173|312:235,1,165,4|0,1:0|1:0,0:0:0:0:
238,360,229467,2,0,L|251:270,1,82.5,8|0,0:0|0:0,0:0:0:0:
405,175,229755,2,0,L|417:262,1,82.5,0|0,1:0|1:0,0:0:0:0:
325,338,230044,1,8,0:0:0:0:
184,233,230188,6,0,P|144:220|102:208,1,82.5,0|0,0:0|1:0,0:0:0:0:
14,326,230476,2,0,P|55:319|99:308,1,82.5,0|8,1:0|0:0,0:0:0:0:
137,132,230765,1,0,1:0:0:0:
137,132,230837,1,0,1:0:0:0:
137,132,230909,2,0,P|119:172|99:223,1,82.5,10|8,0:0|3:0,0:0:0:0:
116,355,231198,1,10,0:0:0:0:
249,278,231342,6,0,P|251:164|225:107,1,165,4|0,1:0|1:0,0:0:0:0:
104,207,231775,2,0,L|197:231,1,82.5,8|0,0:0|0:0,0:0:0:0:
330,265,232063,2,0,L|235:280,1,82.5,2|2,1:2|1:2,0:0:0:0:
126,320,232351,1,8,0:0:0:0:
183,227,232496,1,2,0:0:0:0:
309,348,232640,6,0,P|391:360|490:373,1,165,2|8,1:2|0:0,0:0:0:0:
359,258,233073,1,2,0:0:0:0:
248,277,233217,2,0,P|229:314|211:374,1,82.5,0|0,1:0|1:0,0:0:0:0:
392,251,233505,1,8,0:0:0:0:
270,165,233650,6,0,P|160:131|90:129,1,165,4|0,1:0|1:0,0:0:0:0:
76,146,234010,1,0,1:0:0:0:
76,146,234082,2,0,B|62:188|62:188|71:228,1,82.5,8|0,0:0|1:0,0:0:0:0:
275,244,234371,2,0,B|283:206|283:206|269:164,1,82.5,8|0,0:0|1:0,0:0:0:0:
196,59,234659,1,8,0:0:0:0:
171,205,234803,6,0,P|162:285|153:381,1,165,4|0,1:0|1:0,0:0:0:0:
154,369,235164,1,0,1:0:0:0:
154,369,235236,1,8,0:0:0:0:
447,325,235525,5,10,0:0:0:0:
304,282,235669,1,8,1:2:0:0:
7,304,235957,5,12,1:0:0:0:
256,192,236029,12,2,241726,0:0:0:0:
