osu file format v14

[General]
AudioFilename: audio.mp3
AudioLeadIn: 0
PreviewTime: 93819
Countdown: 1
SampleSet: Normal
StackLeniency: 0.7
Mode: 0
LetterboxInBreaks: 0
WidescreenStoryboard: 0

[Editor]
DistanceSpacing: 1
BeatDivisor: 4
GridSize: 4
TimelineZoom: 1

[Metadata]
Title:Stress mit mir
TitleUnicode:Stress mit mir
Artist:Maxwell & RAF Camora
ArtistUnicode:Maxwell & RAF Camora
Creator:Rebanto
Version:Westafrikaner
Source:Kohldampf
Tags:187 raf camora maxwell german rap deutschrap
BeatmapID:1966374
BeatmapSetID:941659

[Difficulty]
HPDrainRate:5
CircleSize:4
OverallDifficulty:8.7
ApproachRate:9.3
SliderMultiplier:2.4
SliderTickRate:1

[Events]
//Background and Video events
0,0,"maxwell-187.jpg",0,0
//Break Periods
//Storyboard Layer 0 (Background)
//Storyboard Layer 1 (Fail)
//Storyboard Layer 2 (Pass)
//Storyboard Layer 3 (Foreground)
//Storyboard Sound Samples

[TimingPoints]
15688.1315063188,483.870967741935,4,2,0,65,1,0
38913,-66.6666666666667,4,1,0,65,0,1
54397,-100,4,2,0,65,0,0
93107,-64.5161290322581,4,1,0,65,0,1
108591,-90.9090909090909,4,2,0,65,0,0
124075,-62.5,4,1,0,65,0,1
139559,-100,4,2,0,65,0,0

[HitObjects]
256,192,13752,12,0,15688,0:0:0:0:
96,294,16413,5,0,0:0:0:0:
96,294,16534,1,0,0:0:0:0:
96,294,16655,2,0,L|222:286,1,120,4|0,0:0|0:0,0:0:0:0:
336,274,17018,1,0,0:0:0:0:
336,274,17139,2,0,P|307:207|351:122,1,120
430,201,17502,1,0,0:0:0:0:
430,201,17623,1,4,0:0:0:0:
207,48,17865,5,0,0:0:0:0:
207,48,17986,1,0,0:0:0:0:
207,48,18107,2,0,L|213:181,1,120
252,318,18470,1,0,0:0:0:0:
252,318,18591,2,0,P|183:290|125:309,1,120,4|0,0:0|0:0,0:0:0:0:
318,219,18954,1,0,0:0:0:0:
318,219,19075,2,0,P|376:227|429:200,1,120
426,88,19438,1,0,0:0:0:0:
426,88,19559,1,4,0:0:0:0:
215,281,19801,5,0,0:0:0:0:
215,281,19922,1,0,0:0:0:0:
215,281,20042,2,0,L|208:144,1,120
310,99,20405,1,0,0:0:0:0:
310,99,20526,2,0,L|321:271,1,120,4|0,0:0|0:0,0:0:0:0:
224,63,20889,1,0,0:0:0:0:
224,63,21010,2,0,P|268:12|352:33,1,120
390,53,21373,1,0,0:0:0:0:
277,163,21494,6,0,L|115:154,1,120,4|0,0:0|0:0,0:0:0:0:
384,284,21857,1,0,0:0:0:0:
324,289,21978,2,0,L|167:296,1,120
137,240,22341,1,0,0:0:0:0:
210,96,22462,2,0,B|235:152|235:152|205:255,1,120,4|0,0:0|0:0,0:0:0:0:
153,48,22825,1,0,0:0:0:0:
153,48,22946,2,0,L|327:54,1,120
430,58,23309,5,0,0:0:0:0:
430,58,23430,2,0,L|310:53,1,120,4|0,0:0|0:0,0:0:0:0:
197,233,23792,1,0,0:0:0:0:
197,233,23913,2,0,B|256:245|256:245|319:223,1,120
118,157,24276,1,0,0:0:0:0:
118,157,24397,2,0,P|86:237|111:293,1,120,4|0,0:0|0:0,0:0:0:0:
385,317,24881,2,0,P|415:266|409:207,1,120
190,51,25365,6,0,L|319:61,1,120,4|0,0:0|0:0,0:0:0:0:
64,183,25728,1,0,0:0:0:0:
123,178,25849,2,0,L|242:168,1,120
435,82,26212,1,0,0:0:0:0:
435,82,26333,2,0,B|374:68|374:68|310:93,1,120,4|0,0:0|0:0,0:0:0:0:
392,280,26696,1,0,0:0:0:0:
392,280,26817,2,0,L|376:141,1,120
435,82,27180,1,0,0:0:0:0:
435,82,27301,1,4,0:0:0:0:
451,343,27542,5,0,0:0:0:0:
451,343,27663,1,0,0:0:0:0:
451,343,27784,2,0,P|380:368|339:352,1,120
251,203,28147,1,0,0:0:0:0:
251,203,28268,2,0,L|245:343,1,120,4|0,0:0|0:0,0:0:0:0:
62,159,28631,1,0,0:0:0:0:
62,159,28752,2,0,B|112:130|112:130|191:144,1,120
131,229,29115,1,0,0:0:0:0:
131,229,29236,1,4,0:0:0:0:
241,188,29478,5,0,0:0:0:0:
241,188,29599,1,0,0:0:0:0:
241,188,29720,1,0,0:0:0:0:
339,256,29962,2,0,L|331:330,2,60,0|0|4,0:0|0:0|0:0,0:0:0:0:
359,104,30446,1,0,0:0:0:0:
359,104,30567,1,0,0:0:0:0:
359,104,30688,1,0,0:0:0:0:
156,154,30930,1,0,0:0:0:0:
156,154,31051,1,0,0:0:0:0:
145,67,31172,6,0,P|207:80|238:166,1,120,4|0,0:0|0:0,0:0:0:0:
57,305,31534,1,0,0:0:0:0:
57,305,31655,2,0,L|63:185,1,120
237,372,32018,1,0,0:0:0:0:
237,372,32139,2,0,L|231:252,1,120,4|0,0:0|0:0,0:0:0:0:
216,57,32502,1,0,0:0:0:0:
220,140,32623,2,0,B|161:162|161:162|88:146,1,120
298,54,32986,5,0,0:0:0:0:
298,54,33107,2,0,B|357:32|357:32|412:44,1,120,4|0,0:0|0:0,0:0:0:0:
372,244,33470,1,0,0:0:0:0:
372,244,33591,2,0,L|363:105,1,120
429,325,33954,1,0,0:0:0:0:
429,325,34075,2,0,P|336:336|286:305,1,120,4|0,0:0|0:0,0:0:0:0:
180,155,34438,1,0,0:0:0:0:
186,238,34559,2,0,L|196:384,1,120
174,75,34922,5,0,0:0:0:0:
180,155,35042,2,0,B|240:168|240:168|331:133,1,120,4|0,0:0|0:0,0:0:0:0:
98,121,35405,1,0,0:0:0:0:
98,121,35526,2,0,B|85:181|85:181|120:272,1,120
280,319,35889,1,0,0:0:0:0:
280,319,36010,2,0,L|152:323,1,120,4|0,0:0|0:0,0:0:0:0:
215,229,36373,1,0,0:0:0:0:
215,229,36494,1,0,0:0:0:0:
440,222,36857,5,0,0:0:0:0:
440,222,36978,2,0,L|312:226,1,120,4|0,0:0|0:0,0:0:0:0:
375,132,37341,1,0,0:0:0:0:
375,132,37462,1,0,0:0:0:0:
215,229,37704,5,0,0:0:0:0:
215,229,37825,1,0,0:0:0:0:
215,229,37946,1,4,0:0:0:0:
381,319,38107,1,0,0:0:0:0:
193,217,38268,1,0,0:0:0:0:
440,222,38430,1,0,0:0:0:0:
166,203,38591,1,0,0:0:0:0:
428,100,38752,1,0,0:0:0:0:
141,190,38913,1,4,0:0:0:0:
164,127,39639,5,0,0:0:0:0:
194,211,39760,1,0,0:0:0:0:
105,196,39881,2,0,L|9:182,1,90.0000034332277,2|0,0:0|0:0,0:0:0:0:
249,112,40123,2,0,L|338:99,1,90.0000034332277
471,258,40365,2,0,L|250:222,1,180.000006866455,8|0,0:0|0:0,0:0:0:0:
437,160,40728,1,0,0:0:0:0:
403,339,40849,6,0,L|225:310,1,180.000006866455,2|0,0:0|0:0,0:0:0:0:
93,152,41212,1,0,0:0:0:0:
57,234,41333,2,0,P|122:235|184:184,1,90.0000034332277,8|0,0:0|0:0,0:0:0:0:
296,54,41575,2,0,P|253:40|209:45,1,90.0000034332277
261,354,41817,2,0,L|249:156,1,180.000006866455,2|0,0:0|0:0,0:0:0:0:
244,83,42180,1,0,0:0:0:0:
446,52,42301,2,0,L|439:183,1,90.0000034332277,8|0,0:0|0:0,0:0:0:0:
160,315,42542,2,0,L|155:225,1,90.0000034332277
508,345,42784,6,0,P|401:369|316:288,1,180.000006866455,2|0,0:0|0:0,0:0:0:0:
239,70,43147,1,0,0:0:0:0:
239,70,43268,2,0,L|253:275,1,180.000006866455,8|0,0:0|0:0,0:0:0:0:
344,336,43631,1,0,0:0:0:0:
420,91,43752,2,0,P|365:79|296:106,1,90.0000034332277,2|0,0:0|0:0,0:0:0:0:
154,215,43994,2,0,L|164:327,1,90.0000034332277
387,350,44236,2,0,L|368:147,1,180.000006866455,8|0,0:0|0:0,0:0:0:0:
274,291,44599,1,0,0:0:0:0:
481,273,44720,6,0,L|464:93,1,180.000006866455,2|0,0:0|0:0,0:0:0:0:
178,259,45083,1,0,0:0:0:0:
194,170,45204,2,0,P|261:113|373:131,1,180.000006866455,8|0,0:0|0:0,0:0:0:0:
136,375,45567,1,0,0:0:0:0:
67,316,45688,2,0,P|55:230|106:173,1,90.0000034332277,2|0,0:0|0:0,0:0:0:0:
235,206,45930,1,0,0:0:0:0:
167,146,46051,2,0,L|159:97,3,30.0000011444092,0|0|0|8,0:0|0:0|0:0|0:0,0:0:0:0:
372,136,46333,2,0,L|206:118,1,120.000004577637
450,41,46655,6,0,L|475:283,1,180.000006866455,2|0,0:0|0:0,0:0:0:0:
266,323,47018,1,0,0:0:0:0:
266,323,47139,2,0,L|387:330,1,90.0000034332277,8|0,0:0|0:0,0:0:0:0:
199,136,47381,1,0,0:0:0:0:
149,211,47502,1,0,0:0:0:0:
238,217,47623,2,0,L|361:222,1,90.0000034332277,2|0,0:0|0:0,0:0:0:0:
108,135,47865,2,0,L|18:138,1,90.0000034332277
190,293,48107,2,0,L|401:305,1,180.000006866455,8|0,0:0|0:0,0:0:0:0:
283,207,48470,1,0,0:0:0:0:
444,364,48591,6,0,B|469:325|469:325|449:185,1,180.000006866455,2|0,0:0|0:0,0:0:0:0:
424,27,48954,1,0,0:0:0:0:
480,99,49075,2,0,P|425:116|369:100,1,90.0000034332277,8|0,0:0|0:0,0:0:0:0:
168,18,49317,2,0,P|212:14|254:30,1,90.0000034332277
298,298,49559,2,0,L|291:106,1,180.000006866455,2|0,0:0|0:0,0:0:0:0:
357,37,49922,1,0,0:0:0:0:
196,214,50042,2,0,B|153:230|153:230|76:221,1,90.0000034332277,8|0,0:0|0:0,0:0:0:0:
270,26,50284,2,0,B|313:20|313:20|356:36,1,90.0000034332277
445,264,50526,6,0,P|356:283|259:185,1,180.000006866455,2|0,0:0|0:0,0:0:0:0:
187,34,50889,1,0,0:0:0:0:
187,34,51010,2,0,L|200:298,1,180.000006866455,8|0,0:0|0:0,0:0:0:0:
294,347,51373,1,0,0:0:0:0:
294,347,51494,2,0,B|340:354|340:354|406:335,1,90.0000034332277,2|0,0:0|0:0,0:0:0:0:
450,156,51736,2,0,B|408:143|408:143|362:150,1,90.0000034332277
169,263,51978,2,0,L|160:83,1,180.000006866455,8|0,0:0|0:0,0:0:0:0:
53,142,52341,1,0,0:0:0:0:
270,217,52462,6,0,L|261:37,1,180.000006866455,2|0,0:0|0:0,0:0:0:0:
169,263,52825,1,0,0:0:0:0:
169,263,52946,2,0,B|198:294|198:294|360:307,1,180.000006866455,8|0,0:0|0:0,0:0:0:0:
403,91,53309,1,0,0:0:0:0:
456,163,53430,2,0,P|383:178|315:145,1,90.0000034332277,2|0,0:0|0:0,0:0:0:0:
315,101,53672,1,0,0:0:0:0:
237,215,53792,2,0,L|230:174,3,30.0000011444092,0|0|0|8,0:0|0:0|0:0|0:0,0:0:0:0:
142,30,54075,2,0,L|131:168,1,120.000004577637
105,330,54397,6,0,L|39:334,3,60,2|0|0|0,0:0|0:0|0:0|0:0,0:0:0:0:
121,244,54881,2,0,L|180:240,3,60
233,325,55365,5,2,0:0:0:0:
250,323,55486,1,0,0:0:0:0:
267,321,55607,1,0,0:0:0:0:
284,320,55728,1,0,0:0:0:0:
301,319,55849,1,0,0:0:0:0:
318,318,55970,1,0,0:0:0:0:
335,317,56091,1,0,0:0:0:0:
352,316,56212,1,0,0:0:0:0:
369,314,56333,6,0,L|362:377,3,60,2|0|0|0,0:0|0:0|0:0|0:0,0:0:0:0:
458,308,56817,2,0,L|464:248,3,60
388,196,57301,5,2,0:0:0:0:
385,178,57422,1,0,0:0:0:0:
382,160,57542,1,0,0:0:0:0:
379,142,57663,1,0,0:0:0:0:
376,124,57784,1,0,0:0:0:0:
374,106,57905,1,0,0:0:0:0:
372,88,58026,1,0,0:0:0:0:
368,70,58147,1,0,0:0:0:0:
366,52,58268,6,0,L|448:60,3,60,2|0|0|0,0:0|0:0|0:0|0:0,0:0:0:0:
297,130,58752,2,0,L|237:124,1,60
161,115,58994,5,0,0:0:0:0:
161,115,59115,1,0,0:0:0:0:
161,115,59236,2,0,L|174:215,1,60,2|0,0:0|0:0,0:0:0:0:
180,233,59478,2,0,L|193:333,1,60
200,351,59720,1,0,0:0:0:0:
461,172,59962,5,0,0:0:0:0:
461,172,60083,1,0,0:0:0:0:
461,172,60204,2,0,P|418:144|389:142,1,60,2|0,0:0|0:0,0:0:0:0:
350,131,60446,2,0,P|286:144|253:181,1,60
254,187,60688,1,0,0:0:0:0:
356,43,60930,1,0,0:0:0:0:
235,266,61172,5,2,0:0:0:0:
206,258,61292,1,0,0:0:0:0:
177,248,61413,2,0,L|167:146,1,60
157,332,61655,5,2,0:0:0:0:
128,324,61775,1,0,0:0:0:0:
99,314,61897,2,0,L|88:206,1,60
242,146,62139,6,0,L|231:300,1,120,2|0,0:0|0:0,0:0:0:0:
28,179,62502,1,0,0:0:0:0:
28,179,62623,2,0,B|80:153|80:153|160:174,1,120
242,146,62986,1,0,0:0:0:0:
209,245,63107,6,0,B|261:271|261:271|320:255,1,120,2|0,0:0|0:0,0:0:0:0:
417,229,63470,1,0,0:0:0:0:
389,216,63591,1,0,0:0:0:0:
369,193,63712,1,0,0:0:0:0:
356,165,63833,1,0,0:0:0:0:
353,135,63954,1,0,0:0:0:0:
360,105,64075,2,0,L|448:117,1,60,2|0,0:0|0:0,0:0:0:0:
270,165,64317,5,0,0:0:0:0:
240,158,64438,1,0,0:0:0:0:
217,137,64559,2,0,L|212:8,1,120
270,165,64922,5,0,0:0:0:0:
268,194,65042,2,0,L|260:306,1,60,2|0,0:0|0:0,0:0:0:0:
122,79,65284,1,0,0:0:0:0:
124,108,65405,1,0,0:0:0:0:
126,137,65526,2,0,L|130:196,1,60
141,342,65768,1,0,0:0:0:0:
141,342,65889,1,0,0:0:0:0:
141,342,66010,2,0,B|194:317|194:317|293:347,1,120,2|0,0:0|0:0,0:0:0:0:
427,244,66373,5,0,0:0:0:0:
427,244,66494,2,0,B|368:261|368:261|315:236,1,120
373,172,66857,5,0,0:0:0:0:
373,172,66978,1,2,0:0:0:0:
379,88,67220,1,0,0:0:0:0:
384,4,67462,2,0,L|374:145,1,120
284,207,67825,5,0,0:0:0:0:
284,207,67946,2,0,L|292:326,1,120,2|0,0:0|0:0,0:0:0:0:
440,254,68430,1,0,0:0:0:0:
123,280,68913,1,2,0:0:0:0:
256,15,69881,6,0,L|268:182,1,120,4|0,0:0|0:0,0:0:0:0:
117,78,70244,1,0,0:0:0:0:
117,78,70365,2,0,L|107:238,1,120
95,329,70728,1,0,0:0:0:0:
95,329,70849,2,0,B|150:306|150:306|251:325,1,120,4|0,0:0|0:0,0:0:0:0:
366,233,71212,1,0,0:0:0:0:
415,311,71333,2,0,B|355:322|355:322|300:299,1,120
268,90,71696,5,0,0:0:0:0:
268,90,71817,2,0,L|275:245,1,120,4|0,0:0|0:0,0:0:0:0:
438,18,72301,2,0,L|432:137,1,120
428,227,72663,1,0,0:0:0:0:
345,76,72784,2,0,B|287:53|287:53|173:69,1,120,4|0,0:0|0:0,0:0:0:0:
194,229,73147,1,0,0:0:0:0:
194,229,73268,2,0,P|263:180|256:112,1,120
43,16,73752,6,0,L|52:154,1,120,4|0,0:0|0:0,0:0:0:0:
75,340,74115,1,0,0:0:0:0:
75,340,74236,2,0,P|138:351|204:302,1,120
286,222,74599,1,0,0:0:0:0:
286,222,74720,2,0,L|277:392,1,120,4|0,0:0|0:0,0:0:0:0:
108,121,75083,1,0,0:0:0:0:
108,121,75204,2,0,L|114:240,1,120
118,325,75567,5,0,0:0:0:0:
237,149,75688,2,0,B|296:139|296:139|379:171,1,120,4|0,0:0|0:0,0:0:0:0:
280,345,76051,1,0,0:0:0:0:
280,345,76172,2,0,L|289:192,1,120
475,77,76655,2,0,L|324:65,1,120,4|0,0:0|0:0,0:0:0:0:
152,50,77018,1,0,0:0:0:0:
152,50,77139,2,0,L|271:59,1,120
355,67,77502,5,0,0:0:0:0:
202,132,77623,2,0,P|180:203|208:265,1,120,4|0,0:0|0:0,0:0:0:0:
396,200,77986,1,0,0:0:0:0:
396,200,78107,2,0,L|262:194,1,120
55,343,78591,2,0,L|174:337,1,120,4|0,0:0|0:0,0:0:0:0:
64,139,78954,1,0,0:0:0:0:
64,139,79075,2,0,B|50:200|50:200|80:280,1,120
195,57,79438,5,0,0:0:0:0:
195,57,79559,2,0,B|222:113|222:113|214:170,1,120,4|0,0:0|0:0,0:0:0:0:
294,47,79922,1,0,0:0:0:0:
294,47,80042,2,0,P|371:44|422:82,1,120
317,250,80405,1,0,0:0:0:0:
317,250,80526,2,0,L|343:107,1,120,4|0,0:0|0:0,0:0:0:0:
393,312,80889,1,0,0:0:0:0:
393,312,81010,2,0,B|340:342|340:342|256:336,1,120
51,315,81494,6,0,L|186:327,1,120,4|0,0:0|0:0,0:0:0:0:
134,125,81857,1,0,0:0:0:0:
134,125,81978,2,0,P|105:212|126:249,1,120
316,181,82341,1,0,0:0:0:0:
316,181,82462,2,0,L|154:188,1,120,4|0,0:0|0:0,0:0:0:0:
367,76,82825,1,0,0:0:0:0:
367,76,82946,2,0,L|205:83,1,120
162,84,83309,5,0,0:0:0:0:
319,295,83430,2,0,B|335:235|335:235|311:167,1,120,4|0,0:0|0:0,0:0:0:0:
111,244,83792,1,0,0:0:0:0:
111,244,83913,2,0,B|91:298|91:298|107:358,1,120
254,132,84276,1,0,0:0:0:0:
170,140,84397,2,0,L|51:151,1,80,4|0,0:0|0:0,0:0:0:0:
271,223,84720,2,0,L|312:227,2,40
201,52,85042,2,0,L|121:59,1,80
298,106,85365,6,0,B|336:125|336:125|444:111,1,120,4|0,0:0|0:0,0:0:0:0:
284,187,85728,1,0,0:0:0:0:
284,187,85849,2,0,P|277:265|341:316,1,120
482,211,86212,1,0,0:0:0:0:
482,211,86333,2,0,L|329:232,1,120,4|0,0:0|0:0,0:0:0:0:
256,368,86696,1,0,0:0:0:0:
256,368,86817,2,0,B|315:373|315:373|404:328,1,120
176,181,87301,6,0,B|121:153|121:153|62:158,1,120,4|0,0:0|0:0,0:0:0:0:
211,269,87663,1,0,0:0:0:0:
211,269,87784,2,0,P|266:212|250:135,1,120
171,50,88147,1,0,0:0:0:0:
171,50,88268,2,0,L|302:60,1,120,4|0,0:0|0:0,0:0:0:0:
490,126,88631,1,0,0:0:0:0:
490,126,88752,2,0,L|370:135,1,120
419,22,89115,5,0,0:0:0:0:
419,22,89236,1,4,0:0:0:0:
409,225,89478,1,0,0:0:0:0:
409,225,89599,1,0,0:0:0:0:
409,225,89720,1,0,0:0:0:0:
247,98,89962,1,0,0:0:0:0:
247,98,90083,1,0,0:0:0:0:
247,98,90204,2,0,L|235:258,1,120,4|0,0:0|0:0,0:0:0:0:
168,319,90567,1,0,0:0:0:0:
168,319,90688,2,0,P|234:347|292:326,1,120
238,217,91051,5,0,0:0:0:0:
395,356,91172,2,0,L|409:215,1,120,4|0,0:0|0:0,0:0:0:0:
426,61,91534,1,0,0:0:0:0:
477,143,91655,2,0,B|417:153|417:153|320:117,1,120
215,76,92018,5,0,0:0:0:0:
215,76,92139,1,4,0:0:0:0:
339,226,92301,1,0,0:0:0:0:
183,88,92462,2,0,L|165:57,2,20
416,135,92623,1,0,0:0:0:0:
162,100,92784,1,0,0:0:0:0:
401,13,92946,1,0,0:0:0:0:
381,261,93107,1,4,0:0:0:0:
304,214,93833,5,0,0:0:0:0:
385,169,93954,1,0,0:0:0:0:
381,261,94075,2,0,L|373:376,1,93.0000007095337,2|0,0:0|0:0,0:0:0:0:
308,123,94317,2,0,L|314:30,1,93.0000007095337
293,309,94559,2,0,P|200:336|106:248,1,186.000001419067,8|0,0:0|0:0,0:0:0:0:
217,227,94922,1,0,0:0:0:0:
37,357,95042,6,0,L|28:129,1,186.000001419067,2|0,0:0|0:0,0:0:0:0:
21,32,95405,1,0,0:0:0:0:
21,32,95526,2,0,P|86:15|138:32,1,93.0000007095337,8|0,0:0|0:0,0:0:0:0:
217,227,95768,2,0,P|170:230|127:214,1,93.0000007095337
346,31,96010,2,0,L|338:216,1,186.000001419067,2|0,0:0|0:0,0:0:0:0:
330,339,96373,1,0,0:0:0:0:
150,111,96494,2,0,P|196:107|239:123,1,93.0000007095337,8|0,0:0|0:0,0:0:0:0:
126,344,96736,2,0,P|82:360|36:356,1,93.0000007095337
346,31,96978,6,0,L|338:216,1,186.000001419067,2|0,0:0|0:0,0:0:0:0:
421,359,97341,1,0,0:0:0:0:
421,359,97462,2,0,B|332:325|332:325|218:357,1,186.000001419067,8|0,0:0|0:0,0:0:0:0:
56,242,97825,1,0,0:0:0:0:
56,242,97946,2,0,B|99:231|99:231|144:249,1,93.0000007095337,2|0,0:0|0:0,0:0:0:0:
287,70,98188,2,0,B|242:87|242:87|198:77,1,93.0000007095337
381,246,98430,2,0,L|394:31,1,186.000001419067,8|0,0:0|0:0,0:0:0:0:
292,159,98792,5,0,0:0:0:0:
476,336,98913,2,0,L|489:121,1,186.000001419067,2|0,0:0|0:0,0:0:0:0:
183,28,99276,1,0,0:0:0:0:
183,28,99397,2,0,L|194:213,1,186.000001419067,8|0,0:0|0:0,0:0:0:0:
453,43,99760,1,0,0:0:0:0:
362,21,99881,2,0,P|284:45|253:88,1,93.0000007095337,2|0,0:0|0:0,0:0:0:0:
317,200,100123,1,0,0:0:0:0:
238,150,100244,2,0,P|189:142|151:147,2,46.5000003547668,0|0|8,0:0|0:0|0:0,0:0:0:0:
409,282,100526,2,0,L|404:114,1,124.000000946045
165,41,100849,6,0,L|171:267,1,186.000001419067,2|0,0:0|0:0,0:0:0:0:
43,352,101212,1,0,0:0:0:0:
43,352,101333,2,0,L|36:231,1,93.0000007095337,8|0,0:0|0:0,0:0:0:0:
244,90,101575,1,0,0:0:0:0:
296,166,101696,1,0,0:0:0:0:
203,174,101817,2,0,L|65:183,1,93.0000007095337,2|0,0:0|0:0,0:0:0:0:
334,80,102059,2,0,L|426:73,1,93.0000007095337
208,345,102301,2,0,B|169:259|169:259|210:153,1,186.000001419067,8|0,0:0|0:0,0:0:0:0:
457,251,102663,5,0,0:0:0:0:
457,251,102784,2,0,L|210:255,1,186.000001419067,2|0,0:0|0:0,0:0:0:0:
154,93,103147,1,0,0:0:0:0:
154,93,103268,2,0,B|199:79|199:79|261:94,1,93.0000007095337,8|0,0:0|0:0,0:0:0:0:
120,282,103510,2,0,B|75:296|75:296|30:285,1,93.0000007095337
272,25,103752,2,0,L|260:271,1,186.000001419067,2|0,0:0|0:0,0:0:0:0:
258,313,104115,1,0,0:0:0:0:
101,148,104236,2,0,B|146:134|146:134|190:144,1,93.0000007095337,8|0,0:0|0:0,0:0:0:0:
345,346,104478,2,0,B|300:360|300:360|255:349,1,93.0000007095337
52,80,104720,6,0,B|141:49|141:49|278:88,1,186.000001419067,2|0,0:0|0:0,0:0:0:0:
297,277,105083,1,0,0:0:0:0:
297,277,105204,2,0,L|304:81,1,186.000001419067,8|0,0:0|0:0,0:0:0:0:
62,221,105567,1,0,0:0:0:0:
109,311,105688,2,0,P|171:325|239:291,1,93.0000007095337,2|0,0:0|0:0,0:0:0:0:
379,233,105930,2,0,L|384:97,1,93.0000007095337
150,46,106172,2,0,L|156:268,1,186.000001419067,8|0,0:0|0:0,0:0:0:0:
157,334,106534,5,0,0:0:0:0:
411,322,106655,2,0,P|302:265|213:317,1,186.000001419067,2|0,0:0|0:0,0:0:0:0:
48,160,107018,1,0,0:0:0:0:
48,160,107139,2,0,P|137:174|210:120,1,186.000001419067,8|0,0:0|0:0,0:0:0:0:
106,50,107502,1,0,0:0:0:0:
205,4,107623,2,0,P|260:9|307:46,1,93.0000007095337,2|0,0:0|0:0,0:0:0:0:
334,139,107865,1,0,0:0:0:0:
415,57,107986,2,0,L|417:-8,2,46.5000003547668,0|0|8,0:0|0:0|0:0,0:0:0:0:
225,93,108268,2,0,L|238:228,1,124.000000946045
321,334,108591,6,0,P|366:347|406:339,3,66.0000020141602,2|0|0|0,0:0|0:0|0:0|0:0,0:0:0:0:
426,269,109075,2,0,P|456:257|489:257,3,66.0000020141602
304,307,109559,5,2,0:0:0:0:
276,289,109680,1,0,0:0:0:0:
244,280,109801,1,0,0:0:0:0:
210,279,109922,1,0,0:0:0:0:
178,288,110042,1,0,0:0:0:0:
149,305,110163,1,0,0:0:0:0:
118,316,110284,1,0,0:0:0:0:
85,313,110405,1,0,0:0:0:0:
54,299,110526,6,0,P|43:258|48:227,3,66.0000020141602,2|0|0|0,0:0|0:0|0:0|0:0,0:0:0:0:
108,176,111010,2,0,P|118:144|116:112,3,66.0000020141602
58,41,111494,5,2,0:0:0:0:
86,24,111615,1,0,0:0:0:0:
118,19,111736,1,0,0:0:0:0:
150,25,111857,1,0,0:0:0:0:
177,43,111978,1,0,0:0:0:0:
202,64,112099,1,0,0:0:0:0:
232,76,112220,1,0,0:0:0:0:
264,77,112341,1,0,0:0:0:0:
295,68,112462,6,0,L|304:152,3,66.0000020141602,2|0|0|0,0:0|0:0|0:0|0:0,0:0:0:0:
227,174,112946,2,0,L|217:243,1,66.0000020141602
204,318,113188,5,0,0:0:0:0:
204,318,113309,1,0,0:0:0:0:
204,318,113430,2,0,P|266:310|297:319,1,66.0000020141602,2|0,0:0|0:0,0:0:0:0:
315,315,113672,2,0,P|350:316|378:327,1,66.0000020141602
417,351,113913,1,0,0:0:0:0:
304,159,114155,5,0,0:0:0:0:
304,159,114276,1,0,0:0:0:0:
303,159,114397,2,0,P|271:167|238:166,1,66.0000020141602,2|0,0:0|0:0,0:0:0:0:
193,161,114639,2,0,P|160:160|129:148,1,66.0000020141602
91,126,114880,1,0,0:0:0:0:
215,25,115123,1,0,0:0:0:0:
139,258,115365,5,2,0:0:0:0:
93,263,115486,1,0,0:0:0:0:
46,267,115607,2,0,L|35:350,1,66.0000020141602
240,183,115849,5,2,0:0:0:0:
194,188,115970,1,0,0:0:0:0:
147,192,116091,2,0,L|136:275,1,66.0000020141602
292,365,116333,2,0,L|307:223,1,132.00000402832,2|0,0:0|0:0,0:0:0:0:
263,81,116696,1,0,0:0:0:0:
263,81,116817,2,0,B|322:112|322:112|404:93,1,132.00000402832
331,14,117180,1,0,0:0:0:0:
257,169,117301,6,0,B|198:200|198:200|134:185,1,132.00000402832,2|0,0:0|0:0,0:0:0:0:
36,110,117663,1,0,0:0:0:0:
40,156,117784,1,0,0:0:0:0:
44,201,117905,1,0,0:0:0:0:
48,246,118026,1,0,0:0:0:0:
52,292,118147,1,0,0:0:0:0:
57,337,118268,2,0,P|110:338|152:309,1,66.0000020141602,2|0,0:0|0:0,0:0:0:0:
287,237,118510,5,0,0:0:0:0:
287,237,118631,1,0,0:0:0:0:
287,237,118752,2,0,P|202:226|137:283,1,132.00000402832
367,333,119115,1,0,0:0:0:0:
371,286,119236,2,0,L|377:197,1,66.0000020141602,2|0,0:0|0:0,0:0:0:0:
459,180,119478,1,0,0:0:0:0:
455,133,119599,1,0,0:0:0:0:
451,86,119720,2,0,L|446:20,1,66.0000020141602
245,116,119962,5,0,0:0:0:0:
245,116,120083,1,0,0:0:0:0:
245,116,120204,2,0,B|309:136|309:136|385:103,1,132.00000402832,2|0,0:0|0:0,0:0:0:0:
159,22,120567,1,0,0:0:0:0:
159,22,120688,2,0,L|150:191,1,132.00000402832
143,248,121051,5,0,0:0:0:0:
143,248,121172,1,2,0:0:0:0:
234,236,121413,1,0,0:0:0:0:
325,224,121655,1,0,0:0:0:0:
234,236,122018,5,0,0:0:0:0:
234,236,122139,2,0,L|416:216,1,132.00000402832,2|0,0:0|0:0,0:0:0:0:
143,248,122623,1,0,0:0:0:0:
460,210,123107,1,2,0:0:0:0:
460,210,123591,2,0,L|295:229,1,132.00000402832,2|0,0:0|0:0,0:0:0:0:
166,247,123954,5,0,0:0:0:0:
166,247,124075,2,0,B|125:219|125:219|107:47,1,192,2|0,0:0|0:0,0:0:0:0:
326,50,124438,1,0,0:0:0:0:
326,140,124559,2,0,P|273:159|193:138,1,96,8|0,0:0|0:0,0:0:0:0:
28,239,124801,1,0,0:0:0:0:
101,186,124922,1,0,0:0:0:0:
109,275,125042,2,0,L|120:388,1,96,2|0,0:0|0:0,0:0:0:0:
18,152,125284,2,0,L|8:54,1,96
281,169,125526,2,0,B|192:208|192:208|87:182,1,192,8|0,0:0|0:0,0:0:0:0:
315,59,125889,5,0,0:0:0:0:
315,59,126010,2,0,L|307:284,1,192,2|0,0:0|0:0,0:0:0:0:
444,349,126373,1,0,0:0:0:0:
489,187,126494,2,0,L|361:198,1,96,8|0,0:0|0:0,0:0:0:0:
238,341,126736,2,0,L|342:346,1,96
506,45,126978,2,0,L|280:61,1,192,2|0,0:0|0:0,0:0:0:0:
198,67,127341,1,0,0:0:0:0:
373,286,127462,2,0,B|392:240|392:240|385:156,1,96,8|0,0:0|0:0,0:0:0:0:
107,32,127704,2,0,B|102:79|102:79|121:124,1,96
278,335,127946,6,0,P|175:315|89:393,1,192,2|0,0:0|0:0,0:0:0:0:
28,167,128309,1,0,0:0:0:0:
28,167,128430,2,0,P|106:214|199:192,1,192,8|0,0:0|0:0,0:0:0:0:
182,26,128792,1,0,0:0:0:0:
182,26,128913,2,0,P|226:23|274:46,1,96,2|0,0:0|0:0,0:0:0:0:
434,218,129155,2,0,P|391:233|338:228,1,96
477,83,129397,2,0,L|465:308,1,192,8|0,0:0|0:0,0:0:0:0:
459,371,129760,1,0,0:0:0:0:
221,295,129881,6,0,B|311:268|311:268|397:325,1,192,2|0,0:0|0:0,0:0:0:0:
155,379,130244,1,0,0:0:0:0:
155,379,130365,2,0,P|114:274|180:197,1,192,8|0,0:0|0:0,0:0:0:0:
300,107,130728,1,0,0:0:0:0:
346,214,130849,2,0,B|296:222|296:222|216:202,1,96,2|0,0:0|0:0,0:0:0:0:
127,176,131091,1,0,0:0:0:0:
178,245,131212,2,0,P|188:279|188:306,2,48,0|0|8,0:0|0:0|0:0,0:0:0:0:
45,99,131494,2,0,L|34:251,1,128
280,373,131817,6,0,L|263:107,1,192,2|0,0:0|0:0,0:0:0:0:
213,61,132180,1,0,0:0:0:0:
213,61,132301,2,0,B|262:69|262:69|343:42,1,96,8|0,0:0|0:0,0:0:0:0:
446,194,132542,1,0,0:0:0:0:
364,155,132663,1,0,0:0:0:0:
370,244,132784,2,0,L|381:380,1,96,2|0,0:0|0:0,0:0:0:0:
435,102,133026,2,0,L|426:2,1,96
119,227,133268,2,0,P|219:254|307:162,1,192,8|0,0:0|0:0,0:0:0:0:
196,146,133631,1,0,0:0:0:0:
398,279,133752,6,0,L|384:76,1,192,2|0,0:0|0:0,0:0:0:0:
160,42,134115,1,0,0:0:0:0:
160,42,134236,2,0,P|241:71|305:48,1,96,8|0,0:0|0:0,0:0:0:0:
119,227,134478,2,0,P|74:233|30:263,1,96
283,359,134720,2,0,L|269:165,1,192,2|0,0:0|0:0,0:0:0:0:
262,70,135083,1,0,0:0:0:0:
370,328,135204,2,0,B|417:333|417:333|462:314,1,96,8|0,0:0|0:0,0:0:0:0:
183,124,135446,2,0,B|138:105|138:105|91:110,1,96
45,365,135688,6,0,L|31:157,1,192,2|0,0:0|0:0,0:0:0:0:
285,24,136051,1,0,0:0:0:0:
285,24,136172,2,0,L|267:218,1,192,8|0,0:0|0:0,0:0:0:0:
154,348,136534,1,0,0:0:0:0:
154,348,136655,2,0,B|148:300|148:300|191:215,1,96,2|0,0:0|0:0,0:0:0:0:
375,132,136897,2,0,B|396:174|396:174|390:222,1,96,2|0,0:0|0:0,0:0:0:0:
48,125,137139,2,0,B|134:83|134:83|269:123,1,192,8|0,0:0|0:0,0:0:0:0:
142,189,137502,1,0,0:0:0:0:
312,18,137623,6,0,L|293:212,1,192,2|0,0:0|0:0,0:0:0:0:
95,341,137986,1,0,0:0:0:0:
95,341,138107,2,0,P|168:293|296:357,1,192,8|0,0:0|0:0,0:0:0:0:
436,150,138470,1,0,0:0:0:0:
379,220,138591,2,0,P|300:229|238:184,1,96,2|0,0:0|0:0,0:0:0:0:
200,114,138833,1,0,0:0:0:0:
192,203,138954,2,0,L|186:291,2,48,0|0|8,0:0|0:0|0:0,0:0:0:0:
322,22,139236,2,0,L|332:172,1,128
349,351,139559,5,2,0:0:0:0:
