osu file format v14

[General]
AudioFilename: audio.mp3
AudioLeadIn: 0
PreviewTime: -1
Countdown: 0
SampleSet: None
StackLeniency: 0.7
Mode: 0
LetterboxInBreaks: 0
WidescreenStoryboard: 0

[Editor]
Bookmarks: 31732,63380,68655,83160,84479,116127,147776
DistanceSpacing: 1.72
BeatDivisor: 16
GridSize: 8
TimelineZoom: 2.5

[Metadata]
Title:Forsaken City (Sewer the Skyline Mix)
TitleUnicode:Forsaken City (Sewer the Skyline Mix)
Artist:Maxo
ArtistUnicode:Maxo
Creator:Chai the Tea
Version:B side
Source:Celeste
Tags:OST Game official sound track soundtrack remix
BeatmapID:2029963
BeatmapSetID:970154

[Difficulty]
HPDrainRate:8
CircleSize:5.7
OverallDifficulty:7
ApproachRate:9.4
SliderMultiplier:1.7
SliderTickRate:1

[Events]
//Background and Video events
0,0,"celestecover.png",0,0
//Break Periods
2,53031,54104
//Storyboard Layer 0 (Background)
//Storyboard Layer 1 (Fail)
//Storyboard Layer 2 (Pass)
//Storyboard Layer 3 (Foreground)
//Storyboard Sound Samples

[TimingPoints]
84,329.67032967033,4,3,1,43,1,0
84,-129.87012987013,4,3,1,43,0,0
21182,-238.095238095238,4,3,1,43,0,0
22666,-129.87012987013,4,3,1,43,0,0
54644,-100,4,3,1,43,0,0

[Colours]
Combo1 : 45,187,166
Combo2 : 128,0,255
Combo3 : 61,52,220
Combo4 : 225,40,87
Combo5 : 245,151,10
Combo6 : 67,150,211

[HitObjects]
493,270,84,6,0,L|488:345,2,65.449998701706
415,379,578,1,0,0:0:0:0:
488,270,743,2,0,L|487:361,2,65.449998701706
415,383,1237,1,0,0:0:0:0:
493,270,1402,2,0,L|488:345,2,65.449998701706
415,379,1896,1,0,0:0:0:0:
488,270,2061,2,0,L|487:361,2,65.449998701706
415,383,2555,1,0,0:0:0:0:
415,368,2638,1,0,0:0:0:0:
408,352,2721,6,0,L|323:353,2,65.449998701706
270,382,3215,1,0,0:0:0:0:
407,348,3380,2,0,L|322:354,2,65.449998701706,0|0|0,0:3|0:3|0:3,0:3:0:0:
270,382,3875,1,0,0:0:0:0:
407,352,4040,2,0,L|322:353,2,65.449998701706
270,382,4534,1,0,0:0:0:0:
399,345,4699,1,0,0:3:0:0:
314,312,4864,2,0,L|310:261,2,32.724999350853
113,381,5193,5,0,0:0:0:0:
142,382,5275,1,0,0:0:0:0:
114,362,5523,1,0,0:0:0:0:
143,363,5605,1,0,0:0:0:0:
114,351,5853,1,0,0:0:0:0:
149,349,5935,1,0,0:0:0:0:
20,357,6264,1,0,0:0:0:0:
45,359,6347,1,0,0:0:0:0:
104,339,6510,5,0,0:0:0:0:
132,340,6592,1,0,0:0:0:0:
120,321,6840,1,0,0:0:0:0:
149,322,6922,1,0,0:0:0:0:
137,303,7170,1,0,0:0:0:0:
164,304,7252,1,0,0:0:0:0:
34,317,7583,1,0,0:0:0:0:
3,314,7666,1,0,0:0:0:0:
150,282,7829,5,0,0:0:0:0:
178,283,7911,1,0,0:0:0:0:
132,259,8159,1,0,0:0:0:0:
161,260,8242,1,0,0:0:0:0:
116,234,8490,1,0,0:0:0:0:
151,233,8573,1,0,0:0:0:0:
43,257,8902,1,0,0:0:0:0:
7,258,8985,1,0,0:0:0:0:
133,206,9149,5,0,0:0:0:0:
161,207,9231,1,0,0:0:0:0:
158,180,9479,1,0,0:0:0:0:
187,181,9561,1,0,0:0:0:0:
218,182,9644,1,0,0:0:0:0:
200,154,9809,1,0,0:0:0:0:
235,153,9891,1,0,0:0:0:0:
319,155,10056,1,0,0:0:0:0:
359,231,10221,1,0,0:0:0:0:
391,229,10303,1,0,0:0:0:0:
510,319,10468,1,0,0:0:0:0:
471,239,10633,37,0,0:0:0:0:
491,266,10798,2,0,L|489:308,2,32.724999350853
433,333,11127,1,0,0:0:0:0:
327,227,11292,1,0,0:0:0:0:
287,283,11457,1,0,0:0:0:0:
330,239,11622,1,0,0:0:0:0:
324,352,11787,1,0,0:0:0:0:
351,340,12116,2,0,L|316:341,2,32.724999350853
229,310,12446,2,0,L|236:264,1,32.724999350853
192,308,12611,2,0,L|280:319,1,65.449998701706
184,221,12941,5,0,0:0:0:0:
139,286,13105,1,0,0:0:0:0:
144,365,13270,1,0,0:0:0:0:
28,278,13435,2,0,L|69:284,1,32.724999350853
84,254,13600,2,0,P|45:256|44:345,1,130.899997403412
6,383,14094,2,0,L|11:299,1,65.449998701706
116,288,14424,1,0,0:0:0:0:
121,180,14589,2,0,P|127:267|111:314,1,130.899997403412
182,359,15331,1,0,0:0:0:0:
218,359,15578,1,0,0:0:0:0:
123,283,15743,2,0,L|130:332,1,32.724999350853
245,328,15908,5,0,0:0:0:0:
192,356,16237,1,0,0:0:0:0:
291,280,16402,1,0,0:0:0:0:
408,299,16567,1,0,0:0:0:0:
444,283,16732,2,0,L|373:283,2,65.449998701706
327,255,17226,2,0,L|242:257,3,65.449998701706
195,340,17886,2,0,L|123:342,3,65.449998701706
336,248,18545,2,0,L|256:246,1,65.449998701706
396,279,18875,5,0,0:0:0:0:
286,240,19040,1,0,0:0:0:0:
195,326,19204,1,0,0:0:0:0:
92,264,19369,1,0,0:0:0:0:
172,264,19534,2,0,L|192:341,1,65.449998701706
197,353,20193,1,0,0:0:0:0:
171,348,20605,1,0,0:0:0:0:
197,353,20853,1,0,0:0:0:0:
138,247,21182,6,0,L|143:324,1,71.399997821045
65,275,21842,1,0,0:0:0:0:
130,321,22007,1,0,0:0:0:0:
77,271,22171,1,0,0:0:0:0:
81,193,22336,1,0,0:0:0:0:
65,209,22666,2,0,L|65:160,2,32.724999350853
150,236,22996,1,0,0:0:0:0:
119,223,23160,2,0,L|199:222,1,65.449998701706
148,190,23490,5,0,0:0:0:0:
172,110,23655,1,0,0:0:0:0:
261,99,23820,2,0,L|336:102,1,65.449998701706
271,60,24149,2,0,P|331:111|298:161,1,130.899997403412
334,221,24644,1,0,0:0:0:0:
427,233,24974,1,0,0:0:0:0:
433,203,25056,1,0,0:0:0:0:
440,172,25138,2,0,P|424:173|344:215,1,98.1749980525589
344,98,25468,2,0,P|347:113|401:186,1,98.1749980525589
371,325,25798,2,0,B|367:327|406:311|424:243,1,98.1749980525589
399,349,26128,2,0,L|339:303,1,65.449998701706
504,291,26457,37,0,0:0:0:0:
405,313,26787,1,0,0:0:0:0:
363,239,26952,1,0,0:0:0:0:
271,242,27116,2,0,L|230:302,2,65.449998701706
219,303,27611,1,0,0:0:0:0:
167,284,27776,2,0,L|238:278,3,65.449998701706
272,229,28435,2,0,L|343:223,3,65.449998701706
434,298,29094,2,0,L|359:300,1,65.449998701706
474,323,29424,2,0,P|414:311|401:318,1,65.449998701706
354,349,29754,1,0,0:0:0:0:
286,329,29919,1,0,0:0:0:0:
211,322,30084,2,0,P|179:327|74:302,1,130.899997403412
166,254,30743,1,0,0:0:0:0:
199,257,31155,1,0,0:0:0:0:
166,254,31402,1,0,0:0:0:0:
267,97,31732,5,0,0:0:0:0:
225,116,31814,1,0,0:0:0:0:
212,160,31897,1,0,0:0:0:0:
196,184,31979,1,0,0:0:0:0:
186,179,32062,2,0,L|180:223,1,32.724999350853
88,294,32226,2,0,L|96:335,1,32.724999350853
233,290,32391,1,0,0:0:0:0:
87,181,32556,1,0,0:0:0:0:
141,189,32721,1,0,0:0:0:0:
161,251,32886,1,0,0:0:0:0:
0,174,33051,5,0,0:0:0:0:
27,205,33133,1,0,0:0:0:0:
22,243,33215,1,0,0:0:0:0:
27,278,33298,1,0,0:0:0:0:
10,299,33380,1,0,0:0:0:0:
38,279,33463,2,0,P|78:288|82:291,2,32.724999350853
118,379,33710,1,0,0:0:0:0:
118,352,33875,2,0,B|128:401|127:394,1,32.724999350853
210,258,34040,2,0,L|237:235,1,32.724999350853
402,362,34204,2,0,L|361:350,1,32.724999350853
497,313,34369,5,0,0:0:0:0:
470,295,34452,1,0,0:0:0:0:
437,285,34534,1,0,0:0:0:0:
402,282,34616,1,0,0:0:0:0:
404,273,34699,2,0,L|407:239,1,32.724999350853
256,302,34864,2,0,L|252:337,1,32.724999350853
252,352,35029,5,0,0:0:0:0:
219,346,35112,1,0,0:0:0:0:
189,331,35194,1,0,0:0:0:0:
161,309,35276,1,0,0:0:0:0:
157,299,35358,2,0,L|136:329,1,32.724999350853
0,216,35523,1,0,0:0:0:0:
39,219,35605,1,0,0:0:0:0:
71,227,35688,2,0,L|63:265,3,32.724999350853
26,384,36018,1,0,0:0:0:0:
46,359,36100,1,0,0:0:0:0:
73,343,36182,1,0,0:0:0:0:
102,325,36265,1,0,0:0:0:0:
139,320,36347,5,0,0:0:0:0:
212,261,36512,1,0,0:0:0:0:
151,230,36677,1,0,0:0:0:0:
157,222,36718,2,0,L|140:248,1,16.3624996754265
176,371,36842,1,0,0:0:0:0:
258,342,37007,1,0,0:0:0:0:
216,297,37089,1,0,0:0:0:0:
274,324,37336,1,0,0:0:0:0:
287,334,37501,6,0,L|294:366,1,32.724999350853
404,259,37666,2,0,L|417:293,1,32.724999350853
427,294,37831,1,0,0:0:0:0:
442,281,37913,1,0,0:0:0:0:
459,273,37996,1,0,0:0:0:0:
479,253,38078,1,0,0:0:0:0:
449,238,38160,1,0,0:0:0:0:
415,230,38243,1,0,0:0:0:0:
389,221,38325,6,0,L|380:261,1,32.724999350853
308,229,38490,1,0,0:0:0:0:
399,163,38655,2,0,L|411:215,1,49.0874990262795
423,222,38820,1,0,0:0:0:0:
381,336,38902,2,0,L|367:368,1,32.724999350853
259,322,39067,1,0,0:0:0:0:
264,308,39149,2,0,L|259:274,1,32.724999350853
146,362,39314,2,0,L|146:321,1,32.724999350853
235,314,39479,1,0,0:0:0:0:
238,293,39562,1,0,0:0:0:0:
244,262,39644,2,0,P|208:232|241:222,1,98.1749980525589
144,216,39974,5,0,0:0:0:0:
55,234,40138,1,0,0:0:0:0:
24,315,40303,1,0,0:0:0:0:
75,232,40468,1,0,0:0:0:0:
78,379,40633,1,0,0:0:0:0:
90,344,40715,1,0,0:0:0:0:
103,315,40798,1,0,0:0:0:0:
118,287,40880,1,0,0:0:0:0:
132,272,40963,6,0,L|166:284,1,32.724999350853
176,235,41127,2,0,L|144:220,1,32.724999350853
231,332,41292,1,0,0:0:0:0:
339,214,41457,2,0,L|318:246,1,32.724999350853
382,301,41622,1,0,0:0:0:0:
313,331,41787,2,0,L|310:373,1,32.724999350853
474,294,41952,5,0,0:0:0:0:
502,266,42034,1,0,0:0:0:0:
490,227,42116,1,0,0:0:0:0:
448,222,42199,1,0,0:0:0:0:
423,244,42281,5,0,0:0:0:0:
336,280,42446,1,0,0:0:0:0:
429,262,42611,1,0,0:0:0:0:
434,352,42776,1,0,0:0:0:0:
413,334,42858,1,0,0:0:0:0:
375,325,42941,5,0,0:0:0:0:
364,327,43023,1,0,0:0:0:0:
357,328,43105,1,0,0:0:0:0:
344,329,43188,1,0,0:0:0:0:
337,336,43270,2,0,L|298:347,1,40.9062491885662
249,271,43435,1,0,0:0:0:0:
223,319,43518,1,0,0:0:0:0:
221,366,43600,1,0,0:0:0:0:
175,359,43682,1,0,0:0:0:0:
157,340,43765,2,0,L|119:325,1,32.724999350853
17,230,43930,1,0,0:0:0:0:
47,230,44012,1,0,0:0:0:0:
73,226,44094,1,0,0:0:0:0:
98,215,44177,1,0,0:0:0:0:
108,193,44259,1,0,0:0:0:0:
67,291,44424,1,0,0:0:0:0:
43,381,44589,1,0,0:0:0:0:
25,278,44754,1,0,0:0:0:0:
11,176,44919,5,0,0:0:0:0:
11,176,45001,1,0,0:0:0:0:
47,169,45084,1,0,0:0:0:0:
47,169,45166,1,0,0:0:0:0:
86,150,45248,1,0,0:0:0:0:
86,150,45331,1,0,0:0:0:0:
127,159,45413,1,0,0:0:0:0:
138,162,45496,1,0,0:0:0:0:
172,167,45578,2,0,L|167:204,1,32.724999350853
229,159,45743,2,0,L|229:202,1,32.724999350853
303,176,45908,2,0,L|290:216,1,32.724999350853
382,244,46073,1,0,0:0:0:0:
383,285,46155,1,0,0:0:0:0:
385,321,46237,5,0,0:0:0:0:
397,320,46320,1,0,0:0:0:0:
439,310,46402,1,0,0:0:0:0:
434,305,46485,1,0,0:0:0:0:
409,266,46567,2,0,L|383:234,3,32.724999350853
323,346,46897,1,0,0:0:0:0:
413,376,47062,1,0,0:0:0:0:
481,312,47226,1,0,0:0:0:0:
416,363,47391,1,0,0:0:0:0:
455,246,47556,5,0,0:0:0:0:
455,246,47638,2,0,L|424:258,1,32.724999350853
323,279,47886,1,0,0:0:0:0:
293,292,47968,1,0,0:0:0:0:
298,296,48051,2,0,L|333:319,1,32.724999350853
238,231,48215,5,0,0:0:0:0:
218,242,48298,1,0,0:0:0:0:
206,243,48380,2,0,L|212:282,1,32.724999350853
150,336,48545,5,0,0:0:0:0:
139,335,48627,1,0,0:0:0:0:
95,349,48710,1,0,0:0:0:0:
91,343,48792,1,0,0:0:0:0:
32,330,48875,2,0,L|19:295,1,32.724999350853
13,214,49040,1,0,0:0:0:0:
82,193,49204,1,0,0:0:0:0:
137,233,49369,2,0,L|122:275,1,32.724999350853
21,350,49534,1,0,0:0:0:0:
91,290,49699,1,0,0:0:0:0:
19,337,49864,1,0,0:0:0:0:
82,281,50193,6,0,L|124:262,1,32.724999350853
146,246,50358,1,0,0:0:0:0:
171,233,50441,1,0,0:0:0:0:
179,230,50523,2,0,L|188:266,1,32.724999350853
247,167,50688,2,0,L|255:126,1,32.724999350853
299,262,50853,2,0,L|298:220,1,32.724999350853
403,189,51018,2,0,L|382:220,1,32.724999350853
426,333,51182,2,0,L|428:292,1,32.724999350853
374,359,51512,1,0,0:0:0:0:
367,350,51594,2,0,L|321:348,1,32.724999350853
307,334,51759,1,0,0:0:0:0:
276,328,51842,1,0,0:0:0:0:
252,308,51924,1,0,0:0:0:0:
252,308,52007,1,0,0:0:0:0:
260,349,52089,1,0,0:0:0:0:
266,384,52171,1,0,0:0:0:0:
185,298,52336,1,0,0:0:0:0:
197,384,52501,1,0,0:0:0:0:
152,347,52831,1,0,0:0:0:0:
30,238,54644,6,0,L|32:297,1,42.5
55,309,54809,1,0,0:0:0:0:
63,309,54891,1,0,0:0:0:0:
89,286,54974,1,0,0:0:0:0:
98,281,55056,1,0,0:0:0:0:
108,255,55138,2,0,B|109:232|109:232|104:205,1,42.5
86,266,55303,2,0,B|83:298|83:298|85:320,1,42.5
165,341,55468,5,0,0:0:0:0:
177,334,55551,1,0,0:0:0:0:
209,302,55633,1,0,0:0:0:0:
223,310,55715,1,0,0:0:0:0:
248,345,55798,5,0,0:0:0:0:
262,337,55880,1,0,0:0:0:0:
285,310,55963,2,0,L|300:361,1,42.5
348,279,56127,2,0,L|312:252,1,42.5
342,200,56292,2,0,L|396:193,1,42.5
259,133,56457,1,0,0:0:0:0:
259,109,56540,1,0,0:0:0:0:
277,96,56622,1,0,0:0:0:0:
297,106,56704,1,0,0:0:0:0:
297,106,56787,6,0,L|298:161,1,42.5
258,186,56952,2,0,L|258:140,1,42.5
301,209,57116,1,0,0:0:0:0:
273,215,57199,1,0,0:0:0:0:
223,226,57281,1,0,0:0:0:0:
193,232,57364,1,0,0:0:0:0:
157,239,57446,2,0,L|147:194,1,42.5
130,246,57611,2,0,L|137:299,1,42.5
49,269,57776,2,0,P|62:241|128:287,1,127.5
36,294,58105,2,0,L|39:238,1,42.5
41,200,58270,1,0,0:0:0:0:
23,332,58435,5,0,0:0:0:0:
7,258,58600,1,0,0:0:0:0:
40,187,58765,1,0,0:0:0:0:
10,324,58930,1,0,0:0:0:0:
43,177,59094,1,0,0:0:0:0:
71,205,59177,1,0,0:0:0:0:
132,151,59424,2,0,L|153:196,1,42.5
92,231,59754,1,0,0:0:0:0:
118,257,59836,1,0,0:0:0:0:
147,282,59919,5,0,0:0:0:0:
91,336,60084,1,0,0:0:0:0:
87,228,60248,1,0,0:0:0:0:
204,273,60413,1,0,0:0:0:0:
202,302,60496,1,0,0:0:0:0:
174,384,60743,2,0,L|177:339,1,42.5
251,351,61073,5,0,0:0:0:0:
255,354,61155,1,0,0:0:0:0:
286,341,61237,1,0,0:0:0:0:
290,338,61319,1,0,0:0:0:0:
319,358,61402,1,0,0:0:0:0:
339,362,61485,1,0,0:0:0:0:
372,330,61567,2,0,L|427:323,1,42.5
401,228,61732,2,0,P|373:261|410:329,1,127.5
354,225,62062,2,0,L|403:221,1,42.5
419,197,62226,5,0,0:0:0:0:
383,178,62309,1,0,0:0:0:0:
340,178,62391,1,0,0:0:0:0:
307,198,62474,1,0,0:0:0:0:
288,228,62556,1,0,0:0:0:0:
294,266,62638,1,0,0:0:0:0:
303,305,62721,1,0,0:0:0:0:
213,200,62886,1,0,0:0:0:0:
221,249,62968,1,0,0:0:0:0:
232,298,63051,1,0,0:0:0:0:
261,272,63215,1,0,0:0:0:0:
251,224,63298,1,0,0:0:0:0:
251,224,63380,6,0,L|202:233,3,42.5
132,211,63710,2,0,L|130:305,1,85
40,220,64040,1,0,0:0:0:0:
84,256,64204,1,0,0:0:0:0:
84,170,64369,1,0,0:0:0:0:
42,208,64534,2,0,L|45:261,1,42.5
49,353,64699,6,0,L|54:307,1,42.5
90,337,64864,2,0,L|95:285,1,42.5
122,329,65029,2,0,L|127:283,1,42.5
164,314,65193,1,0,0:0:0:0:
173,277,65276,1,0,0:0:0:0:
212,266,65358,2,0,L|233:306,1,42.5
253,251,65523,2,0,L|278:299,1,42.5
288,239,65688,1,0,0:0:0:0:
347,219,65853,1,0,0:0:0:0:
418,197,66018,6,0,L|375:200,3,42.5
270,163,66347,2,0,L|323:172,5,42.5
227,208,66842,2,0,L|137:234,1,85
111,198,67171,1,0,0:0:0:0:
130,285,67336,6,0,L|141:339,11,42.5
62,301,68325,1,0,0:0:0:0:
94,270,68408,1,0,0:0:0:0:
138,256,68490,1,0,0:0:0:0:
184,265,68573,1,0,0:0:0:0:
220,286,68655,5,0,0:0:0:0:
312,327,68820,2,0,L|302:271,1,42.5
298,259,68985,1,0,0:0:0:0:
223,265,69149,1,0,0:0:0:0:
186,338,69314,2,0,L|177:293,1,42.5
132,306,69479,2,0,L|175:286,1,42.5
125,240,69644,2,0,L|169:268,1,42.5
141,185,69809,2,0,L|154:232,1,42.5
117,311,69974,1,0,0:0:0:0:
43,326,70138,1,0,0:0:0:0:
89,359,70303,1,0,0:0:0:0:
14,378,70468,1,0,0:0:0:0:
150,278,70633,2,0,L|65:291,1,85
102,348,70963,2,0,L|10:362,1,85
147,271,71292,1,0,0:0:0:0:
2,198,71621,5,0,0:0:0:0:
106,234,71786,1,0,0:0:0:0:
160,151,71952,1,0,0:0:0:0:
88,194,72116,1,0,0:0:0:0:
229,193,72281,2,0,P|276:197|338:263,1,127.5
341,289,72611,2,0,L|251:290,3,85
372,243,73270,2,0,L|333:324,1,85
278,238,73600,1,0,0:0:0:0:
383,192,73765,1,0,0:0:0:0:
281,223,73930,6,0,L|287:280,3,42.5
354,299,74259,2,0,L|360:356,3,42.5
292,224,74589,1,0,0:0:0:0:
362,291,74754,1,0,0:0:0:0:
458,309,74919,1,0,0:0:0:0:
512,252,75084,2,0,L|467:239,1,42.5
441,206,75248,2,0,L|422:256,3,42.5
307,242,75578,2,0,L|309:293,6,42.5
302,335,76237,5,0,0:0:0:0:
379,368,76402,1,0,0:0:0:0:
388,262,76567,2,0,L|340:279,5,42.5
142,234,77062,1,0,0:0:0:0:
123,216,77391,2,0,P|185:211|199:224,1,85
316,232,77721,1,0,0:0:0:0:
277,237,77803,1,0,0:0:0:0:
238,242,77886,2,0,P|231:298|281:343,1,127.5
174,309,78215,2,0,P|235:298|279:342,1,127.5
393,273,78545,2,0,P|364:327|304:336,1,127.5
394,272,78874,2,0,P|361:324|374:355,1,85
458,346,79204,5,0,0:0:0:0:
464,307,79534,1,0,0:0:0:0:
393,231,79699,1,0,0:0:0:0:
289,272,79864,2,0,L|294:220,3,42.5
203,238,80193,2,0,L|213:194,3,42.5
281,270,80523,2,0,L|295:222,3,42.5
184,210,80853,2,0,L|223:180,3,42.5
289,272,81182,2,0,L|294:220,3,42.5
215,233,81512,2,0,P|194:317|194:317,1,85
61,318,81842,1,0,0:0:0:0:
71,233,82171,6,0,P|84:263|54:314,1,85
20,250,82501,1,0,0:0:0:0:
61,173,82666,1,0,0:0:0:0:
136,193,82831,2,0,P|176:200|243:263,1,127.5
161,252,83160,2,0,P|187:220|275:194,1,127.5
292,113,83490,2,0,P|318:144|406:170,1,127.5
355,105,83819,2,0,P|341:143|362:232,1,127.5
433,238,84149,1,0,0:0:0:0:
392,216,84314,1,0,0:0:0:0:
151,315,84479,6,0,P|115:335|75:319,2,85
97,216,84974,2,0,P|103:270|103:305,1,85
217,239,85303,1,0,0:0:0:0:
201,190,85468,2,0,P|170:216|151:261,1,85
273,370,85798,2,0,P|314:358|260:314,1,148.75
436,335,86127,1,0,0:0:0:0:
407,289,86210,1,0,0:0:0:0:
356,317,86292,1,0,0:0:0:0:
388,324,86375,5,0,0:0:0:0:
436,335,86457,2,0,L|479:347,1,42.5
503,278,86622,2,0,L|461:268,1,42.5
297,138,86787,1,0,0:0:0:0:
303,238,86952,1,0,0:0:0:0:
293,220,87116,2,0,L|202:243,2,85
201,300,87611,2,0,P|191:255|153:234,1,85
281,347,87941,1,0,0:0:0:0:
108,305,88105,2,0,P|149:360|153:379,1,85
0,221,88435,2,0,P|96:246|129:244,1,127.5
180,248,88765,1,0,0:0:0:0:
205,282,88847,1,0,0:0:0:0:
196,319,88930,1,0,0:0:0:0:
249,286,89012,1,0,0:0:0:0:
296,252,89094,5,0,0:0:0:0:
277,143,89259,1,0,0:0:0:0:
216,206,89424,1,0,0:0:0:0:
264,157,89507,1,0,0:0:0:0:
276,90,89610,1,0,0:0:0:0:
170,139,89754,1,0,0:0:0:0:
211,84,89836,1,0,0:0:0:0:
175,190,90084,1,0,0:0:0:0:
88,198,90248,5,0,0:0:0:0:
1,231,90578,1,0,0:0:0:0:
91,182,91073,1,0,0:0:0:0:
10,237,91402,1,0,0:0:0:0:
23,274,91485,2,0,L|52:223,1,42.5
119,303,91649,1,0,0:0:0:0:
108,271,91732,1,0,0:0:0:0:
86,379,91897,1,0,0:0:0:0:
139,356,92062,2,0,L|32:359,1,85
228,375,92391,2,0,B|197:326|214:289|214:289|229:335,1,127.5
148,380,92721,5,0,0:0:0:0:
218,244,92886,1,0,0:0:0:0:
165,300,93051,1,0,0:0:0:0:
304,218,93215,1,0,0:0:0:0:
379,294,93380,1,0,0:0:0:0:
376,282,93421,2,0,P|365:345|428:318,1,148.75
503,325,93875,1,0,0:0:0:0:
486,224,94040,1,0,0:0:0:0:
378,229,94204,1,0,0:0:0:0:
423,262,94287,1,0,0:0:0:0:
457,277,94369,1,0,0:0:0:0:
330,356,94534,5,0,0:0:0:0:
324,335,94616,1,0,0:0:0:0:
284,314,94699,1,0,0:0:0:0:
248,303,94781,5,0,0:0:0:0:
196,291,94864,1,0,0:0:0:0:
131,289,94946,1,0,0:0:0:0:
64,323,95029,5,0,0:0:0:0:
16,218,95193,1,0,0:0:0:0:
65,221,95276,1,0,0:0:0:0:
114,226,95358,1,0,0:0:0:0:
194,234,95523,1,0,0:0:0:0:
238,244,95605,2,0,L|297:254,1,42.5
368,272,95853,1,0,0:0:0:0:
404,279,95935,1,0,0:0:0:0:
486,292,96182,1,0,0:0:0:0:
471,242,96347,2,0,B|464:226|464:226|416:240,1,63.75
378,252,96512,1,0,0:0:0:0:
277,346,96677,1,0,0:0:0:0:
210,333,96759,1,0,0:0:0:0:
183,314,96842,6,0,L|181:261,1,42.5
110,378,97171,2,0,L|110:328,1,42.5
114,261,97336,1,0,0:0:0:0:
160,345,97501,1,0,0:0:0:0:
361,355,97666,2,0,P|323:342|180:338,1,170
106,353,98160,2,0,L|101:293,1,42.5
26,260,98490,2,0,L|26:208,1,42.5
64,281,98820,1,0,0:0:0:0:
65,318,98902,1,0,0:0:0:0:
93,365,98985,2,0,L|102:271,1,85
161,258,99232,1,0,0:0:0:0:
193,238,99314,2,0,L|142:238,1,42.5
181,348,99479,1,0,0:0:0:0:
242,343,99562,1,0,0:0:0:0:
311,360,99644,5,0,0:0:0:0:
426,348,99809,1,0,0:0:0:0:
372,312,99974,1,0,0:0:0:0:
306,351,100138,1,0,0:0:0:0:
471,308,100303,1,0,0:0:0:0:
461,305,100344,2,0,L|455:228,1,63.75
495,380,100633,1,0,0:0:0:0:
339,267,100798,2,0,P|316:289|392:325,1,148.75
351,251,101127,2,0,P|333:273|288:270,1,63.75
252,259,101292,5,0,0:0:0:0:
205,360,101457,1,0,0:0:0:0:
203,322,101540,1,0,0:0:0:0:
205,287,101622,1,0,0:0:0:0:
120,332,101787,1,0,0:0:0:0:
224,332,101952,1,0,0:0:0:0:
209,292,102034,1,0,0:0:0:0:
156,255,102116,6,0,P|131:242|114:251,1,42.5
8,201,102281,1,0,0:0:0:0:
39,204,102364,1,0,0:0:0:0:
69,214,102446,1,0,0:0:0:0:
101,210,102529,1,0,0:0:0:0:
140,210,102611,2,0,L|82:230,1,42.5
57,239,102776,1,0,0:0:0:0:
112,359,102941,2,0,L|113:308,1,42.5
3,309,103270,5,0,0:0:0:0:
51,221,103435,2,0,L|51:173,1,42.5
153,232,103600,2,0,L|157:319,1,85
263,318,103888,1,0,0:0:0:0:
261,313,103930,2,0,P|231:275|158:332,1,148.75
292,309,104259,1,0,0:0:0:0:
297,270,104342,1,0,0:0:0:0:
300,240,104424,1,0,0:0:0:0:
430,323,104589,2,0,L|431:287,1,21.25
448,244,104671,1,0,0:0:0:0:
416,212,104754,2,0,L|361:221,1,42.5
485,236,104919,1,0,0:0:0:0:
472,182,105001,1,0,0:0:0:0:
439,167,105084,2,0,L|380:179,1,42.5
314,240,105248,1,0,0:0:0:0:
362,337,105413,1,0,0:0:0:0:
371,351,105496,1,0,0:0:0:0:
346,341,105578,6,0,L|345:391,1,42.5
295,341,105743,2,0,L|292:389,1,42.5
235,342,105908,2,0,L|234:392,1,42.5
184,342,106073,2,0,L|181:390,1,42.5
474,262,106237,6,0,L|473:312,1,42.5
423,262,106402,2,0,L|420:310,1,42.5
363,263,106567,2,0,L|362:313,1,42.5
313,288,106732,1,0,0:0:0:0:
289,264,106814,1,0,0:0:0:0:
246,268,106897,6,0,L|248:217,1,42.5
187,260,107062,2,0,L|183:208,1,42.5
128,241,107226,1,0,0:0:0:0:
84,228,107309,1,0,0:0:0:0:
31,241,107391,2,0,L|34:295,1,42.5
17,345,107556,1,0,0:0:0:0:
91,351,107721,1,0,0:0:0:0:
192,297,107886,2,0,P|162:323|184:362,1,85
329,357,108215,6,0,L|383:355,1,42.5
355,297,108380,2,0,L|417:290,1,42.5
371,246,108545,2,0,L|422:245,1,42.5
389,190,108710,6,0,L|334:193,1,42.5
288,231,108875,1,0,0:0:0:0:
287,244,108957,1,0,0:0:0:0:
238,259,109040,2,0,L|180:260,1,42.5
96,237,109204,1,0,0:0:0:0:
117,249,109287,1,0,0:0:0:0:
116,298,109369,1,0,0:0:0:0:
118,320,109452,1,0,0:0:0:0:
67,362,109534,6,0,L|23:351,1,42.5
5,252,109699,1,0,0:0:0:0:
35,249,109781,1,0,0:0:0:0:
80,285,109864,1,0,0:0:0:0:
106,285,109946,1,0,0:0:0:0:
146,326,110029,2,0,L|204:319,1,42.5
195,317,110193,1,0,0:0:0:0:
241,373,110358,1,0,0:0:0:0:
332,356,110523,1,0,0:0:0:0:
367,282,110688,1,0,0:0:0:0:
369,338,110770,1,0,0:0:0:0:
403,374,110853,6,0,P|425:359|458:359,1,42.5
503,314,111018,1,0,0:0:0:0:
427,261,111182,1,0,0:0:0:0:
283,241,111347,2,0,P|313:244|343:252,1,42.5
283,327,111512,1,0,0:0:0:0:
207,312,111677,2,0,P|240:323|259:342,1,42.5
286,318,111842,1,0,0:0:0:0:
238,268,111924,1,0,0:0:0:0:
189,273,112007,1,0,0:0:0:0:
159,287,112089,1,0,0:0:0:0:
97,273,112171,6,0,P|64:273|13:294,1,85
18,213,112501,1,0,0:0:0:0:
41,224,112584,1,0,0:0:0:0:
93,223,112666,2,0,P|115:222|152:235,1,42.5
183,235,112831,1,0,0:0:0:0:
110,320,112996,2,0,P|137:326|166:336,1,42.5
224,325,113160,1,0,0:0:0:0:
258,283,113243,1,0,0:0:0:0:
271,237,113325,1,0,0:0:0:0:
276,276,113408,1,0,0:0:0:0:
307,293,113490,6,0,P|312:320|311:347,1,42.5
387,378,113655,1,0,0:0:0:0:
362,375,113737,1,0,0:0:0:0:
376,321,113820,1,0,0:0:0:0:
379,304,113902,1,0,0:0:0:0:
419,255,113985,2,0,P|446:268|466:281,1,42.5
472,363,114149,1,0,0:0:0:0:
475,339,114232,1,0,0:0:0:0:
493,266,114314,2,0,L|440:260,1,42.5
317,219,114479,1,0,0:0:0:0:
303,249,114562,1,0,0:0:0:0:
305,289,114644,1,0,0:0:0:0:
271,259,114726,1,0,0:0:0:0:
228,260,114809,6,0,P|205:297|204:303,1,42.5
63,294,114974,1,0,0:0:0:0:
113,313,115056,1,0,0:0:0:0:
164,332,115138,2,0,L|220:333,1,42.5
56,332,115303,1,0,0:0:0:0:
121,335,115386,1,0,0:0:0:0:
165,301,115468,2,0,P|171:272|171:250,1,42.5
20,263,115633,1,0,0:0:0:0:
46,302,115715,1,0,0:0:0:0:
81,345,115798,2,0,L|136:368,1,42.5
247,377,115963,2,0,L|197:375,1,42.5
243,273,116127,5,0,0:0:0:0:
304,320,116292,1,0,0:0:0:0:
154,276,116457,1,0,0:0:0:0:
309,325,116622,2,0,L|361:345,1,42.5
376,228,116787,1,0,0:0:0:0:
340,330,116952,1,0,0:0:0:0:
161,275,117116,1,0,0:0:0:0:
220,135,117446,6,0,L|206:177,1,42.5
382,160,117611,1,0,0:0:0:0:
337,149,117693,1,0,0:0:0:0:
280,135,117776,1,0,0:0:0:0:
158,163,117941,2,0,L|158:217,1,42.5
195,82,118105,1,0,0:0:0:0:
189,193,118270,2,0,L|189:243,1,42.5
377,167,118435,1,0,0:0:0:0:
0,195,118765,6,0,P|33:202|48:205,1,42.5
71,248,118930,1,0,0:0:0:0:
150,135,119094,1,0,0:0:0:0:
132,237,119259,1,0,0:0:0:0:
0,278,119424,2,0,L|48:267,1,42.5
114,318,119589,1,0,0:0:0:0:
146,130,119754,2,0,P|141:171|202:136,1,148.75
118,129,120084,1,0,0:0:0:0:
89,148,120125,6,0,L|74:225,1,63.75
319,257,120413,1,0,0:0:0:0:
409,328,120578,1,0,0:0:0:0:
426,293,120660,1,0,0:0:0:0:
456,266,120743,2,0,L|463:323,1,42.5
361,370,120908,1,0,0:0:0:0:
319,257,121073,1,0,0:0:0:0:
443,158,121402,5,0,0:0:0:0:
343,157,121567,1,0,0:0:0:0:
303,191,121649,1,0,0:0:0:0:
261,152,121732,1,0,0:0:0:0:
356,117,121897,1,0,0:0:0:0:
391,232,122062,1,0,0:0:0:0:
447,197,122226,1,0,0:0:0:0:
253,156,122391,1,0,0:0:0:0:
268,144,122432,2,0,P|324:155|330:166,1,63.75
237,253,122638,1,0,0:0:0:0:
219,292,122721,6,0,P|225:309|203:323,1,42.5
106,354,122886,1,0,0:0:0:0:
25,278,123051,2,0,P|61:295|82:303,1,42.5
156,294,123215,1,0,0:0:0:0:
58,222,123380,2,0,P|72:236|75:271,1,42.5
47,360,123545,1,0,0:0:0:0:
97,367,123627,1,0,0:0:0:0:
184,373,123710,2,0,P|118:362|163:311,1,148.75
200,373,124040,6,0,L|296:375,1,85
375,288,124287,1,0,0:0:0:0:
348,277,124369,2,0,L|301:269,1,42.5
221,223,124534,1,0,0:0:0:0:
229,312,124699,1,0,0:0:0:0:
303,165,124864,1,0,0:0:0:0:
336,278,125029,2,0,P|361:262|482:268,1,148.75
399,235,125358,5,0,0:0:0:0:
379,215,125441,1,0,0:0:0:0:
332,208,125523,1,0,0:0:0:0:
303,230,125605,1,0,0:0:0:0:
287,212,125688,1,0,0:0:0:0:
250,202,125770,1,0,0:0:0:0:
214,205,125853,2,0,P|197:217|180:239,1,42.5
96,147,126018,1,0,0:0:0:0:
137,160,126100,1,0,0:0:0:0:
173,152,126182,2,0,P|201:139|224:144,1,42.5
288,201,126347,5,0,0:0:0:0:
265,285,126512,1,0,0:0:0:0:
280,266,126677,2,0,P|256:267|189:292,2,85
324,342,127171,1,0,0:0:0:0:
250,257,127336,2,0,P|226:258|159:283,2,85
323,327,127831,1,0,0:0:0:0:
465,237,127996,2,0,B|456:284|456:284|410:260,2,85
344,311,128490,2,0,B|337:348|337:349|401:359,2,85
218,384,128985,2,0,L|217:295,1,85
14,250,129314,6,0,L|62:254,1,42.5
53,207,129479,2,0,L|106:214,1,42.5
110,260,129644,2,0,L|153:267,1,42.5
139,212,129809,2,0,L|191:226,1,42.5
5,337,129974,2,0,L|53:341,1,42.5
44,294,130139,2,0,L|97:301,1,42.5
101,347,130304,2,0,L|144:354,1,42.5
130,299,130469,2,0,L|182:313,1,42.5
198,298,130633,6,0,L|109:292,1,85
243,241,131127,1,0,0:0:0:0:
290,246,131210,1,0,0:0:0:0:
336,253,131292,1,0,0:0:0:0:
341,271,131457,1,0,0:0:0:0:
227,263,131622,2,0,P|251:294|367:264,1,170
403,278,132611,2,0,P|381:273|318:293,2,85
345,367,133105,1,0,0:0:0:0:
463,307,133270,6,0,B|466:258|466:258|495:228,2,85
368,206,133765,2,0,B|411:229|411:229|410:280,2,85
451,192,134259,2,0,B|378:142|378:142|296:163,1,170
200,256,135084,1,0,0:0:0:0:
239,266,135413,1,0,0:0:0:0:
179,252,135908,2,0,L|183:223,1,21.25
138,245,135990,1,0,0:0:0:0:
98,242,136073,1,0,0:0:0:0:
121,311,136237,1,0,0:0:0:0:
247,271,136402,1,0,0:0:0:0:
201,264,136485,1,0,0:0:0:0:
147,254,136567,1,0,0:0:0:0:
40,265,136732,1,0,0:0:0:0:
199,364,136897,1,0,0:0:0:0:
228,299,137062,1,0,0:0:0:0:
307,267,137226,5,0,0:0:0:0:
383,297,137391,2,0,L|423:314,2,42.5
460,248,137638,1,0,0:0:0:0:
473,271,137721,1,0,0:0:0:0:
470,308,137803,1,0,0:0:0:0:
448,335,137886,6,0,L|407:360,1,42.5
275,318,138051,2,0,L|321:313,1,42.5
334,356,138215,1,0,0:0:0:0:
287,348,138298,1,0,0:0:0:0:
238,364,138380,1,0,0:0:0:0:
183,360,138463,1,0,0:0:0:0:
132,342,138545,6,0,L|132:291,1,42.5
95,292,138710,1,0,0:0:0:0:
87,257,138792,1,0,0:0:0:0:
124,258,138875,2,0,L|131:208,1,42.5
269,167,139040,6,0,L|254:217,1,42.5
99,179,139204,1,0,0:0:0:0:
133,175,139287,1,0,0:0:0:0:
172,209,139369,1,0,0:0:0:0:
210,223,139452,1,0,0:0:0:0:
242,260,139534,6,0,L|278:291,1,42.5
365,237,139699,2,0,L|361:186,1,42.5
230,106,139864,2,0,L|219:160,1,42.5
136,187,140029,1,0,0:0:0:0:
120,211,140111,1,0,0:0:0:0:
93,232,140193,1,0,0:0:0:0:
102,261,140276,1,0,0:0:0:0:
85,292,140358,1,0,0:0:0:0:
124,316,140441,1,0,0:0:0:0:
134,359,140523,1,0,0:0:0:0:
192,353,140605,1,0,0:0:0:0:
217,334,140688,1,0,0:0:0:0:
190,298,140770,1,0,0:0:0:0:
205,257,140853,1,0,0:0:0:0:
241,261,140935,1,0,0:0:0:0:
274,287,141018,2,0,L|271:339,1,42.5
340,364,141182,6,0,L|344:309,3,42.5
338,256,141512,2,0,L|382:264,1,42.5
331,205,141677,6,0,L|269:214,1,42.5
216,207,141842,2,0,L|159:222,1,42.5
14,253,142007,2,0,L|74:264,1,42.5
123,283,142171,6,0,L|168:294,1,42.5
69,357,142336,2,0,L|10:375,1,42.5
37,301,142501,1,0,0:0:0:0:
70,296,142584,1,0,0:0:0:0:
90,274,142666,1,0,0:0:0:0:
119,259,142748,1,0,0:0:0:0:
132,239,142831,1,0,0:0:0:0:
147,206,142913,1,0,0:0:0:0:
141,177,142996,2,0,L|113:142,1,42.5
237,211,143160,2,0,L|186:223,1,42.5
317,162,143325,1,0,0:0:0:0:
323,211,143408,1,0,0:0:0:0:
354,215,143490,2,0,L|393:181,1,42.5
429,122,143655,2,0,L|377:109,1,42.5
255,90,143820,5,0,0:0:0:0:
259,128,143902,1,0,0:0:0:0:
256,162,143985,1,0,0:0:0:0:
262,200,144067,1,0,0:0:0:0:
244,235,144149,1,0,0:0:0:0:
266,268,144232,1,0,0:0:0:0:
250,301,144314,6,0,L|242:354,1,42.5
162,288,144479,2,0,L|216:297,1,42.5
161,203,144644,2,0,L|153:253,1,42.5
73,157,144809,6,0,L|124:158,1,42.5
182,133,144974,1,0,0:0:0:0:
219,156,145056,1,0,0:0:0:0:
279,164,145138,2,0,P|300:160|253:95,1,148.75
265,106,145468,1,0,0:0:0:0:
217,101,145551,1,0,0:0:0:0:
157,107,145633,2,0,P|127:129|111:147,1,42.5
273,202,145798,1,0,0:0:0:0:
221,190,145880,1,0,0:0:0:0:
162,203,145963,1,0,0:0:0:0:
122,226,146045,1,0,0:0:0:0:
85,269,146127,1,0,0:0:0:0:
85,316,146210,1,0,0:0:0:0:
100,364,146292,2,0,P|119:377|151:386,1,42.5
280,307,146457,5,0,0:0:0:0:
297,263,146540,1,0,0:0:0:0:
293,228,146622,1,0,0:0:0:0:
263,206,146704,1,0,0:0:0:0:
247,170,146787,1,0,0:0:0:0:
284,144,146869,1,0,0:0:0:0:
283,111,146952,1,0,0:0:0:0:
241,99,147034,1,0,0:0:0:0:
233,61,147116,1,0,0:0:0:0:
272,44,147199,1,0,0:0:0:0:
290,25,147281,1,0,0:0:0:0:
257,5,147364,1,0,0:0:0:0:
228,5,147446,1,0,0:0:0:0:
140,40,147611,5,0,0:0:0:0:
