osu file format v14

[General]
AudioFilename: audio.mp3
AudioLeadIn: 0
PreviewTime: -1
Countdown: 1
SampleSet: None
StackLeniency: 0.7
Mode: 0
LetterboxInBreaks: 0
WidescreenStoryboard: 1

[Editor]
DistanceSpacing: 1.2
BeatDivisor: 4
GridSize: 4
TimelineZoom: 2.1

[Metadata]
Title:Forsaken City (Sever the Skyline Mix)
TitleUnicode:Forsaken City (Sever the Skyline Mix)
Artist:Maxo
ArtistUnicode:Maxo
Creator:Basherman
Version:B-Side (WIP)
Source:Celeste
Tags:
BeatmapID:1585702
BeatmapSetID:735648

[Difficulty]
HPDrainRate:5.6
CircleSize:3.7
OverallDifficulty:7.5
ApproachRate:9.4
SliderMultiplier:1.5
SliderTickRate:1

[Events]
//Background and Video events
0,0,"Celeste.jpg",0,0
//Break Periods
2,84641,92143
//Storyboard Layer 0 (Background)
//Storyboard Layer 1 (Fail)
//Storyboard Layer 2 (Pass)
//Storyboard Layer 3 (Foreground)
//Storyboard Sound Samples

[TimingPoints]
46,329.67032967033,4,1,0,100,1,0
46,-200,4,2,0,28,0,0
5320,-133.333333333333,4,2,0,28,0,0
10595,-100,4,2,0,28,0,0
30046,-133.333333333333,4,2,0,28,0,0
31694,-66.6666666666667,4,2,0,28,0,0
36969,-57.1428571428571,4,2,0,28,0,0
37463,-52.6315789473684,4,2,0,28,0,0
37958,-50,4,2,0,28,0,0
38287,-57.1428571428571,4,2,0,28,0,0
38782,-52.6315789473684,4,2,0,28,0,0
39276,-50,4,2,0,28,0,0
40595,-100,4,2,0,28,0,0
47518,-50,4,2,0,28,0,1
48013,-45,4,2,0,28,0,1
48837,-50,4,2,0,28,0,1
49331,-45,4,2,0,28,0,1
50650,-43.5,4,2,0,28,0,1
50815,-42,4,2,0,28,0,1
50980,-40,4,2,0,28,0,1
51144,-57.1428571428571,4,2,0,28,0,1
52793,-133.333333333333,4,2,0,28,0,0
54606,-50,4,2,0,28,0,1
56749,-133.333333333333,4,2,0,28,0,1
56914,-66.6666666666667,4,2,0,28,0,1
57243,-50,4,2,0,28,0,1
57738,-57.1428571428571,4,2,0,28,0,1
58067,-133.333333333333,4,2,0,28,0,1
58232,-66.6666666666667,4,2,0,28,0,1
58562,-50,4,2,0,28,0,1
59056,-66.6666666666667,4,2,0,28,0,1
59386,-133.333333333333,4,2,0,28,0,1
59551,-66.6666666666667,4,2,0,28,0,1
59881,-50,4,2,0,28,0,1
60705,-133.333333333333,4,2,0,28,0,1
60870,-66.6666666666667,4,2,0,28,0,1
61199,-50,4,2,0,28,0,1
62024,-100,4,2,0,28,0,1
62188,-50,4,2,0,28,0,1
62848,-66.6666666666667,4,2,0,28,0,1
63342,-133.333333333333,4,2,0,28,0,0
68452,-100,4,2,0,28,0,0
71584,-66.6666666666667,4,2,0,28,0,0
72573,-80,4,2,0,28,0,0
72903,-100,4,2,0,28,0,0
76035,-111.111111111111,4,2,0,28,0,0
76199,-125,4,2,0,28,0,0
76364,-142.857142857143,4,2,0,28,0,0
76529,-200,4,2,0,28,0,0
77353,-166.666666666667,4,2,0,28,0,0
77518,-142.857142857143,4,2,0,28,0,0
77683,-125,4,2,0,28,0,0
77848,-100,4,2,0,28,0,0
79166,-80,4,2,0,28,0,0
82133,-50,4,2,0,28,0,0
82793,-40,4,2,0,28,0,0
83287,-50,4,2,0,28,0,0
83452,-66.6666666666667,4,2,0,28,0,0
83617,-100,4,2,0,28,0,0
96804,-48,4,2,0,28,0,0
97628,-48,4,2,0,28,0,0
98617,-57.1428571428571,4,2,0,28,0,0
99441,-47,4,2,0,28,0,0
100265,-133.333333333333,4,2,0,28,0,1
100595,-45,4,2,0,28,0,1
100760,-40,4,2,0,28,0,1
101584,-133.333333333333,4,2,0,28,0,1
101914,-45,4,2,0,28,0,1
102078,-40,4,2,0,28,0,1
102903,-133.333333333333,4,2,0,28,0,1
103232,-40,4,2,0,28,0,1
103397,-38,4,2,0,28,0,1
103562,-37,4,2,0,28,0,1
103727,-35,4,2,0,28,0,1
103892,-100,4,2,0,28,0,1
104386,-66.6666666666667,4,2,0,28,0,1
105540,-133.333333333333,4,2,0,28,0,0
107353,-66.6666666666667,4,2,0,28,0,0
107848,-57.1428571428571,4,2,0,28,0,0
113452,-40,4,2,0,28,0,0
115265,-57.1428571428571,4,2,0,28,0,0
118727,-50,4,2,0,28,0,1
119056,-45,4,2,0,28,0,1
120046,-100,4,2,0,28,0,1
120210,-50,4,2,0,28,0,1
120540,-45,4,2,0,28,0,1
121035,-50,4,2,0,28,0,1
121364,-133.333333333333,4,2,0,28,0,1
121529,-57.1428571428571,4,2,0,28,0,1
121859,-45,4,2,0,28,0,1
122353,-57.1428571428571,4,2,0,28,0,1
122683,-133.333333333333,4,2,0,28,0,1
122848,-66.6666666666667,4,2,0,28,0,1
123177,-45,4,2,0,28,0,1
124002,-100,4,2,0,28,0,1
124166,-50,4,2,0,28,0,1
124496,-40,4,2,0,28,0,1
125320,-66.6666666666667,4,2,0,28,0,1
125485,-40,4,2,0,28,0,1
126639,-133.333333333333,4,2,0,28,0,0
137188,-200,4,2,0,28,0,0

[HitObjects]
392,96,46,6,0,L|432:112,3,37.5
332,160,705,2,0,L|360:199,3,37.5,0|0|0|0,0:3|0:3|0:3|0:3,0:3:0:0:
244,192,1364,2,0,L|250:234,3,37.5
164,184,2024,2,0,L|147:224,3,37.5
150,218,2600,1,0,0:0:0:0:
156,224,2683,6,0,P|176:232|196:236,1,37.5
208,316,3013,2,0,P|229:312|248:306,1,37.5
320,352,3342,2,0,P|336:338|350:323,1,37.5
432,344,3672,2,0,P|439:323|443:304,1,37.5
380,240,4002,2,0,P|380:216|388:192,1,37.5
392,196,4249,1,0,0:0:0:0:
400,192,4331,2,0,P|400:168|392:144,1,37.5
300,108,4661,2,0,P|300:132|308:156,1,37.5
308,152,4908,1,0,0:0:0:0:
312,160,4991,1,0,0:0:0:0:
268,304,5155,5,0,0:0:0:0:
268,304,5238,1,0,0:0:0:0:
268,304,5320,6,0,P|240:304|208:292,1,56.2500021457673
204,288,5567,1,0,0:0:0:0:
196,280,5650,1,0,0:0:0:0:
232,200,5815,2,0,L|260:176,2,28.1250010728836
140,216,6144,6,0,L|109:189,1,28.1250010728836,0|0,3:0|3:0,3:0:0:0:
109,180,6309,2,0,P|116:151|139:128,1,56.2500021457673,0|0,3:0|3:0,3:0:0:0:
144,132,6556,1,0,0:0:0:0:
152,136,6639,1,0,0:0:0:0:
240,92,6804,2,0,L|232:52,2,28.1250010728836
328,116,7133,2,0,L|344:84,2,28.1250010728836,0|0|0,2:0|2:0|2:0,2:0:0:0:
424,192,7463,1,0,0:0:0:0:
421,196,7546,1,0,0:0:0:0:
418,201,7628,6,0,P|389:217|339:217,1,56.2500021457673
360,212,7875,1,0,0:0:0:0:
356,204,7958,1,0,0:0:0:0:
312,124,8122,2,0,L|336:92,2,28.1250010728836
208,112,8452,5,0,0:0:0:0:
208,112,8535,1,0,0:0:0:0:
208,112,8617,1,0,0:0:0:0:
136,180,8782,2,0,L|108:168,2,28.1250010728836
124,284,9111,5,0,0:0:0:0:
124,284,9194,1,0,0:0:0:0:
124,284,9276,2,0,P|144:284|164:288,1,28.1250010728836
212,344,9441,2,0,P|236:344|260:340,1,28.1250010728836
328,316,9606,2,0,P|328:296|324:276,1,28.1250010728836
252,224,9771,2,0,P|248:204|252:180,1,28.1250010728836
336,88,9936,6,0,P|340:108|336:132,1,28.1250010728836
424,160,10100,2,0,P|428:180|424:204,1,28.1250010728836
476,300,10265,2,0,P|456:304|432:300,1,28.1250010728836
368,264,10430,2,0,P|348:260|324:264,1,28.1250010728836
236,304,10595,6,0,P|220:260|228:224,1,75
232,228,10842,1,0,0:0:0:0:
244,224,10925,1,0,0:0:0:0:
348,192,11089,2,0,L|388:208,2,37.5
192,160,11419,1,0,0:0:0:0:
288,96,11584,1,0,0:0:0:0:
256,256,11749,1,0,0:0:0:0:
160,328,11914,5,0,3:2:0:0:
146,312,11996,1,0,3:2:0:0:
139,294,12078,1,0,3:2:0:0:
137,274,12161,1,0,3:2:0:0:
140,254,12243,1,0,3:2:0:0:
248,232,12408,5,0,1:0:0:0:
248,232,12491,1,0,1:0:0:0:
248,232,12573,2,0,P|236:211|213:196,1,37.5
292,128,12738,2,0,P|268:125|243:135,1,37.5
232,28,12903,2,0,P|216:46|210:72,1,37.5
116,32,13067,2,0,P|122:55|140:75,1,37.5
184,232,13232,6,0,P|204:218|217:195,3,37.5
250,111,13562,2,0,P|226:108|201:118,1,37.5
120,88,13727,2,0,P|104:106|98:132,1,37.5
8,156,13892,2,0,P|13:179|31:199,1,37.5
120,295,14056,1,0,3:2:0:0:
141,296,14139,1,0,3:2:0:0:
165,292,14221,2,0,P|179:267|186:227,1,37.5,0|0,3:0|3:0,3:0:0:0:
324,192,14386,2,0,P|296:184|256:188,1,37.5
60,96,14551,6,0,P|60:124|45:149,3,37.5
192,156,14881,2,0,P|184:176|180:206,3,37.5,0|0|0|0,3:0|3:0|3:0|3:0,3:0:0:0:
108,260,15210,2,0,P|107:287|91:311,1,37.5
272,240,15375,1,0,0:0:0:0:
272,240,15458,1,0,0:0:0:0:
272,240,15540,2,0,P|283:260|287:285,1,37.5
392,224,15705,2,0,P|382:207|376:188,1,37.5
296,56,15870,6,0,P|280:81|276:117,3,37.5,0|0|0|0,3:0|3:0|3:0|3:0,3:0:0:0:
211,160,16200,2,0,P|236:176|272:180,1,37.5,0|0,3:0|3:0,3:0:0:0:
376,164,16364,2,0,P|351:148|315:144,1,37.5,0|0,3:0|3:0,3:0:0:0:
132,164,16529,5,0,0:0:0:0:
40,220,16694,2,0,P|50:237|63:250,1,37.5
48,328,16859,2,0,P|73:329|92:324,1,37.5
152,376,17024,2,0,P|166:350|174:319,1,37.5
260,332,17189,1,0,0:0:0:0:
208,240,17354,5,0,0:0:0:0:
208,240,17436,1,0,0:0:0:0:
208,240,17518,2,0,P|208:208|216:184,1,37.5
312,160,17683,2,0,P|312:192|304:216,1,37.5
288,272,17848,1,0,0:0:0:0:
216,136,18013,1,0,0:0:0:0:
304,76,18178,5,0,0:2:0:0:
315,92,18260,1,0,0:2:0:0:
321,111,18343,1,0,0:2:0:0:
322,131,18425,1,0,0:2:0:0:
320,152,18507,1,4,0:2:0:0:
192,272,18837,6,0,P|184:236|196:208,1,37.5
308,84,19002,2,0,P|320:108|320:128,1,37.5
272,328,19167,1,0,0:0:0:0:
120,128,19332,5,0,0:0:0:0:
152,108,19414,1,0,0:0:0:0:
188,104,19496,2,0,P|208:108|228:120,1,37.5
392,316,19661,2,0,P|372:312|352:300,1,37.5
256,264,19826,2,0,P|260:244|272:224,1,37.5
356,168,19991,1,0,0:0:0:0:
356,168,20073,1,0,0:0:0:0:
356,168,20155,1,0,0:0:0:0:
228,84,20320,5,0,0:0:0:0:
184,69,20403,1,0,0:0:0:0:
138,79,20485,1,0,0:0:0:0:
107,109,20568,1,0,0:0:0:0:
95,153,20650,1,0,0:0:0:0:
103,197,20733,1,0,0:0:0:0:
133,233,20815,2,0,P|156:224|176:204,1,37.5
264,288,20980,2,0,P|269:263|264:236,1,37.5
396,236,21144,6,0,P|378:217|353:206,1,37.5
212,176,21310,1,0,0:0:0:0:
256,312,21474,1,0,0:0:0:0:
368,211,21639,6,0,P|345:226|324:251,1,37.5,2|0,0:0|0:0,0:0:0:0:
244,184,21804,2,0,P|261:166|273:148,1,37.5
156,176,21969,2,0,P|152:152|144:132,1,37.5
104,252,22133,2,0,P|82:241|61:236,1,37.5
144,332,22298,2,0,P|122:343|106:358,1,37.5
240,300,22464,5,2,0:0:0:0:
357,232,22628,1,0,0:0:0:0:
357,232,22710,1,0,0:0:0:0:
357,232,22792,1,0,0:0:0:0:
289,114,22958,2,0,L|308:64,2,37.5
172,182,23288,5,0,0:0:0:0:
172,182,23370,1,0,0:0:0:0:
172,182,23453,2,0,P|195:200|224:204,1,37.5
344,204,23617,2,0,P|316:192|288:196,1,37.5
264,104,23782,2,0,P|252:132|256:160,3,37.5
172,332,24111,6,0,P|196:336|216:332,1,37.5
324,324,24276,2,0,P|348:316|372:320,1,37.5
460,344,24441,5,0,0:0:0:0:
472,324,24523,1,0,0:0:0:0:
476,304,24606,1,0,0:0:0:0:
476,280,24688,1,0,0:0:0:0:
468,260,24770,2,0,P|448:248|424:240,1,37.5
376,176,24936,2,0,P|354:185|334:200,1,37.5
256,144,25100,2,0,P|251:166|252:192,3,37.5
288,300,25430,2,0,P|292:277|291:251,3,37.5
184,240,25760,2,0,P|209:244|237:244,1,37.5
355,204,25925,2,0,P|329:199|301:199,1,37.5
100,172,26089,5,0,0:0:0:0:
89,199,26172,1,0,0:0:0:0:
90,229,26254,1,0,0:0:0:0:
102,256,26337,1,0,0:0:0:0:
119,276,26419,1,0,0:0:0:0:
244,284,26584,5,0,0:0:0:0:
244,284,26666,1,0,0:0:0:0:
244,284,26748,2,0,P|252:260|252:224,1,37.5
232,124,26914,2,0,P|224:148|224:184,1,37.5
356,192,27078,2,0,P|330:191|295:200,2,37.5,0|0|0,0:3|0:3|0:3,0:3:0:0:
120,224,27408,2,0,P|146:225|181:216,2,37.5,0|0|0,0:3|0:3|0:3,0:3:0:0:
312,108,27737,5,0,0:0:0:0:
280,308,27903,1,0,0:0:0:0:
280,308,27985,1,0,0:0:0:0:
280,308,28068,1,0,0:0:0:0:
216,100,28233,5,0,0:0:0:0:
216,100,28315,1,0,0:0:0:0:
216,100,28397,1,0,0:0:0:0:
164,256,28562,5,0,0:0:0:0:
164,256,28644,1,0,0:0:0:0:
164,256,28727,2,0,P|188:252|216:240,4,37.5
476,236,29221,5,0,0:0:0:0:
428,244,29303,1,0,0:0:0:0:
380,236,29386,1,0,0:0:0:0:
188,72,29551,5,0,0:0:0:0:
188,72,29633,1,0,0:0:0:0:
188,72,29715,1,0,0:0:0:0:
84,304,29880,1,0,0:0:0:0:
344,264,30046,2,0,P|480:336|368:208,1,450.000017166138
252,160,31529,1,0,0:0:0:0:
160,72,31694,6,0,P|126:68|100:60,1,56.2500021457673
116,140,31859,2,0,P|88:152|56:152,1,56.2500021457673
108,220,32024,2,0,P|88:244|60:260,1,56.2500021457673
148,288,32189,2,0,P|140:320|128:344,1,56.2500021457673
288,272,32354,6,0,P|308:296|336:312,1,56.2500021457673
336,160,32518,2,0,P|360:140|376:112,1,56.2500021457673
224,112,32683,2,0,P|204:88|176:72,1,56.2500021457673
176,224,32848,2,0,P|152:244|136:272,1,56.2500021457673
328,260,33013,6,0,L|388:288,1,56.2500021457673
184,124,33178,2,0,L|124:96,1,56.2500021457673
364,294,33343,2,0,L|454:336,1,56.2500021457673
147,89,33507,2,0,L|57:47,1,56.2500021457673
97,317,33672,6,0,L|148:294,1,56.2500021457673
414,66,33837,2,0,L|364:90,1,56.2500021457673
133,283,34002,2,0,L|184:260,1,56.2500021457673
378,100,34167,2,0,L|328:124,1,56.2500021457673
56,116,34332,6,0,P|96:112|140:124,1,56.2500021457673
112,228,34496,2,0,P|144:204|188:192,1,56.2500021457673
228,280,34661,2,0,P|244:243|276:211,1,56.2500021457673
360,284,34826,2,0,P|356:244|368:199,1,56.2500021457673
336,63,34991,6,0,P|310:79|291:103,1,56.2500021457673
127,111,35156,2,0,P|143:137|167:156,1,56.2500021457673
175,320,35321,2,0,P|201:304|220:280,1,56.2500021457673
384,272,35485,2,0,P|368:246|344:227,1,56.2500021457673
256,99,35650,6,0,L|256:29,1,56.2500021457673
256,284,35815,2,0,L|256:354,1,56.2500021457673
163,192,35980,2,0,L|93:192,1,56.2500021457673
348,192,36145,2,0,L|418:192,1,56.2500021457673
135,71,36310,6,0,L|183:119,1,56.2500021457673
375,311,36474,2,0,L|327:263,1,56.2500021457673
135,311,36639,2,0,L|183:263,1,56.2500021457673
375,71,36804,2,0,L|327:119,1,56.2500021457673
172,240,36969,6,0,P|136:308|204:256,1,196.875001877546
317,129,37299,1,0,0:0:0:0:
172,240,37464,6,0,P|136:316|204:256,1,213.749994292259
336,108,37793,1,0,0:0:0:0:
172,240,37958,6,0,P|136:320|204:256,1,225
368,244,38288,6,0,B|376:296|400:340|400:340|356:312|284:300,1,196.875001877546
195,129,38617,1,0,0:0:0:0:
368,244,38782,6,0,B|380:308|404:348|404:348|360:312|272:296,1,213.749994292259
176,108,39112,1,0,0:0:0:0:
368,244,39277,6,0,B|380:308|408:352|408:352|360:312|272:296,1,225,6|0,0:0|0:0,0:0:0:0:
160,92,39606,1,0,0:0:0:0:
256,112,39936,5,0,0:3:0:0:
179,167,40101,1,0,0:3:0:0:
208,256,40266,1,0,0:3:0:0:
303,256,40431,1,0,0:3:0:0:
332,167,40595,1,0,0:3:0:0:
184,72,41254,6,0,P|164:108|164:152,1,75
60,132,41584,2,0,P|56:168|68:204,1,75
88,228,41831,1,0,0:0:0:0:
124,240,41913,1,0,0:0:0:0:
160,240,41996,1,0,0:0:0:0:
196,228,42078,1,0,0:0:0:0:
228,208,42160,1,0,0:0:0:0:
248,177,42243,6,0,P|248:160|240:132,1,37.5
320,192,42408,2,0,P|328:176|335:148,1,37.5
384,232,42573,2,0,P|398:222|418:201,1,37.5
440,308,42737,5,0,0:0:0:0:
408,324,42820,1,0,0:0:0:0:
372,332,42902,1,0,0:0:0:0:
332,328,42985,1,0,0:0:0:0:
299,314,43067,2,0,P|291:283|299:251,1,37.5
272,156,43232,1,0,0:0:0:0:
236,144,43314,1,0,0:0:0:0:
199,149,43397,2,0,P|183:164|176:180,1,37.5
40,268,43562,6,0,P|48:251|62:238,1,37.5
125,307,43726,2,0,P|124:288|129:270,1,37.5
224,308,43891,2,0,P|213:292|209:274,1,37.5
316,272,44056,5,0,0:0:0:0:
288,248,44138,1,0,0:0:0:0:
268,216,44221,1,0,0:0:0:0:
260,180,44303,1,0,0:0:0:0:
260,140,44386,1,0,0:0:0:0:
272,108,44468,1,0,0:0:0:0:
294,76,44551,2,0,P|316:72|344:76,1,37.5
432,244,44715,2,0,P|410:248|382:244,1,37.5
176,72,44880,6,0,P|172:96|176:124,1,37.5
208,332,45045,1,0,0:0:0:0:
232,300,45128,1,0,0:0:0:0:
238,261,45210,2,0,P|235:236|224:210,1,37.5
68,152,45375,2,0,P|92:149|118:138,1,37.5
343,66,45540,5,0,0:0:0:0:
364,96,45622,1,0,0:0:0:0:
372,136,45704,1,0,0:0:0:0:
365,171,45787,1,0,0:0:0:0:
347,204,45869,2,0,P|325:210|292:208,1,37.5
100,124,46034,1,0,0:0:0:0:
108,168,46117,1,0,0:0:0:0:
130,207,46199,6,0,P|150:224|172:234,1,37.5
184,308,46364,2,0,P|210:301|231:289,1,37.5
288,348,46529,2,0,P|297:323|299:298,1,37.5
396,348,46693,2,0,P|394:321|385:298,1,37.5
419,150,46858,2,0,P|391:151|367:160,1,37.5
92,150,47023,2,0,P|119:151|143:160,1,37.5
435,145,47188,2,0,P|404:146|378:157,1,37.5
75,145,47353,2,0,P|105:146|132:157,1,37.5
304,288,47518,6,0,P|388:324|324:248,1,225
192,128,47848,1,0,0:0:0:0:
304,288,48013,6,0,P|400:324|328:248,1,250
160,96,48343,1,0,0:0:0:0:
352,288,48507,1,0,0:0:0:0:
192,256,48672,1,0,0:0:0:0:
316,127,48837,6,0,B|332:91|328:69|328:69|350:72|381:61|381:61|369:90|374:113|374:113|351:109|316:127|316:127,1,225,0|0,0:3|0:3,0:3:0:0:
192,256,49167,1,0,0:0:0:0:
316,127,49332,6,0,B|332:87|329:63|329:63|352:66|387:55|387:55|374:85|380:110|380:110|354:107|316:127|316:127,1,250,0|0,0:3|0:3,0:3:0:0:
160,288,49661,1,0,0:0:0:0:
316,127,49826,6,0,B|338:74|333:42|333:42|364:46|411:31|411:31|393:72|400:105|400:105|367:100|316:127|316:127,1,333.333333333333,0|0,0:3|0:3,0:3:0:0:
192,144,50485,6,0,P|160:136|188:152,1,83.3333333333333
320,160,50650,2,0,P|352:160|321:168,1,86.2068965517241
144,272,50815,2,0,P|113:283|145:280,1,89.2857142857143
361,315,50980,2,0,P|383:342|355:322,1,93.75
256,48,51145,1,0,0:0:0:0:
352,232,51310,1,0,0:0:0:0:
112,128,51474,5,0,0:0:0:0:
96,200,51557,1,0,0:0:0:0:
80,272,51639,2,0,L|176:296,1,65.6250006258488
288,192,51804,2,0,L|192:216,1,65.6250006258488
16,168,51969,5,0,0:1:0:0:
31,95,52051,1,0,0:1:0:0:
47,23,52134,2,0,L|144:41,1,65.6250006258488,0|0,0:1|0:1,0:1:0:0:
360,72,52298,1,0,0:0:0:0:
152,168,52463,1,0,0:0:0:0:
368,304,52793,6,0,P|336:312|296:296,2,56.2500021457673
313,182,53288,2,0,P|301:213|265:237,2,56.2500021457673,0|0|0,0:3|0:3|0:3,0:3:0:0:
176,136,53782,2,0,P|194:163|193:206,1,56.2500021457673,0|0,0:3|0:3,0:3:0:0:
80,264,54112,6,0,P|107:282|150:281,2,56.2500021457673,0|0|0,0:3|0:3|0:3,0:3:0:0:
160,136,54606,6,0,P|144:72|192:112,2,150
320,112,55101,2,0,P|400:88|344:160,1,225
312,272,55431,2,0,P|352:312|288:296,1,150
112,256,55760,6,0,P|88:260|116:264,1,75
200,240,55925,2,0,P|222:250|194:246,1,75
40,172,56090,2,0,P|21:187|47:176,1,75
264,152,56255,2,0,P|278:171|255:154,1,75
124,96,56420,2,0,P|72:28|168:56,1,225
304,76,56749,2,0,L|324:76,2,18.7500007152558
272,88,56914,2,0,P|244:152|268:204,1,112.500004291535
400,220,57244,6,0,P|424:224|396:228,1,75
240,220,57409,2,0,P|216:224|244:228,1,75,0|0,0:1|0:1,0:1:0:0:
316,308,57573,2,0,P|320:332|324:304,1,75,0|0,0:1|0:1,0:1:0:0:
316,148,57738,2,0,P|316:88|324:152,1,196.875001877546
276,296,58068,2,0,L|295:290,2,18.7500007152558
241,292,58233,2,0,P|197:237|207:180,1,112.500004291535
116,100,58562,6,0,P|92:104|120:108,1,75
276,100,58727,2,0,P|300:104|272:108,1,75
96,76,58892,2,0,P|66:81|101:86,1,75
296,76,59057,2,0,P|352:76|291:86,1,168.750006437302
140,60,59387,2,0,L|159:54,2,18.7500007152558
112,83,59551,2,0,P|107:153|148:194,1,112.500004291535
264,272,59881,6,0,P|283:286|266:263,1,75
264,112,60046,2,0,P|283:97|266:120,1,75
266,292,60211,2,0,P|296:300|269:281,1,75
266,92,60376,2,0,P|352:60|268:104,1,225
192,212,60705,2,0,L|186:193,2,18.7500007152558
215,240,60870,2,0,P|285:245|326:204,1,112.500004291535
368,124,61200,6,0,P|388:110|361:118,1,75
152,110,61365,2,0,P|126:100|143:122,1,75
247,60,61529,2,0,P|257:33|263:61,1,75
136,228,61694,2,0,P|85:299|143:232,1,225
276,256,62024,2,0,P|264:262|252:268,2,25
300,220,62188,2,0,P|336:139|248:171,1,225
200,336,62518,5,0,0:0:0:0:
271,329,62600,1,0,0:0:0:0:
343,323,62682,1,0,0:0:0:0:
415,317,62765,1,0,0:0:0:0:
486,310,62847,2,0,L|460:240,1,75
399,45,63012,1,0,0:0:0:0:
168,80,63177,5,0,0:0:0:0:
153,158,63259,1,0,0:0:0:0:
139,237,63342,2,0,P|168:248|209:249,1,56.2500021457673
272,224,63672,2,0,P|304:224|348:248,1,56.2500021457673
392,304,64001,5,0,0:3:0:0:
481,275,64166,1,0,0:3:0:0:
481,180,64331,1,0,0:3:0:0:
392,151,64496,1,0,0:3:0:0:
337,228,64660,1,0,0:3:0:0:
248,199,64825,5,0,0:3:0:0:
248,199,64908,1,0,0:3:0:0:
248,199,64990,1,0,0:3:0:0:
248,104,65155,1,0,0:3:0:0:
337,75,65320,1,0,0:3:0:0:
392,151,65485,1,0,0:3:0:0:
337,228,65649,1,0,0:3:0:0:
392,304,65814,1,0,0:3:0:0:
320,360,65979,6,0,P|288:360|250:348,1,56.2500021457673
244,348,66226,1,0,0:0:0:0:
220,336,66309,1,0,0:0:0:0:
200,316,66391,1,0,0:0:0:0:
188,292,66474,1,0,0:0:0:0:
183,263,66556,1,0,0:0:0:0:
188,240,66638,2,0,L|220:220,1,28.1250010728836
272,140,66803,2,0,L|240:160,1,28.1250010728836
168,220,66968,2,0,L|200:200,1,28.1250010728836
252,120,67133,2,0,L|220:140,1,28.1250010728836
112,136,67298,5,0,0:0:0:0:
112,136,67380,1,0,0:0:0:0:
112,136,67463,1,0,0:0:0:0:
112,136,67545,1,0,0:0:0:0:
112,136,67628,2,0,P|96:168|96:196,1,56.2500021457673
100,204,67875,1,0,0:0:0:0:
116,228,67957,1,0,0:0:0:0:
140,240,68040,1,0,0:0:0:0:
168,248,68122,1,0,0:0:0:0:
196,244,68204,1,0,0:0:0:0:
220,234,68287,2,0,L|232:200,1,28.1250010728836
304,228,68452,2,0,L|315:193,1,37.5
408,104,68617,5,0,0:0:0:0:
376,84,68699,1,0,0:0:0:0:
340,72,68781,1,0,0:0:0:0:
304,76,68864,1,0,0:0:0:0:
270,91,68946,2,0,P|260:112|256:136,1,37.5
160,136,69111,2,0,P|170:156|188:173,1,37.5
142,254,69276,5,0,0:0:0:0:
180,264,69358,1,0,0:0:0:0:
220,260,69441,2,0,P|236:248|244:224,1,37.5
244,128,69606,5,0,0:0:0:0:
286,114,69688,1,0,0:0:0:0:
328,120,69770,2,0,P|344:132|352:156,1,37.5
444,232,69935,5,0,0:0:0:0:
444,268,70018,1,0,0:0:0:0:
432,304,70100,1,0,0:0:0:0:
408,332,70182,1,0,0:0:0:0:
376,352,70265,1,0,0:0:0:0:
340,356,70347,1,0,0:0:0:0:
304,344,70430,1,0,0:0:0:0:
274,322,70512,1,0,0:0:0:0:
256,288,70595,5,0,0:0:0:0:
220,304,70677,1,0,0:0:0:0:
182,308,70759,1,0,0:0:0:0:
147,297,70842,1,0,0:0:0:0:
115,277,70924,1,0,0:0:0:0:
96,247,71007,1,0,0:0:0:0:
91,209,71089,1,0,0:0:0:0:
99,173,71171,1,0,0:0:0:0:
122,141,71254,5,0,0:0:0:0:
416,64,71584,6,0,P|412:88|392:128,1,56.2500021457673
264,316,71748,1,0,0:0:0:0:
85,132,71913,1,0,0:0:0:0:
496,240,72078,1,0,0:0:0:0:
472,288,72160,1,0,0:0:0:0:
448,336,72243,6,0,L|394:314,1,56.2500021457673
256,272,72408,2,0,L|309:293,1,56.2500021457673
496,168,72573,6,0,L|439:176,1,46.875
313,208,72737,2,0,L|369:199,1,46.875
480,48,72902,6,0,L|427:70,1,46.875
329,129,73067,2,0,L|381:106,1,37.5
232,44,73232,5,0,0:0:0:0:
200,81,73314,1,0,0:0:0:0:
184,128,73397,1,0,0:0:0:0:
190,175,73479,1,0,0:0:0:0:
212,220,73562,1,0,0:0:0:0:
288,192,73644,1,0,0:0:0:0:
368,192,73726,1,0,0:0:0:0:
444,220,73809,1,0,0:0:0:0:
504,276,73891,6,0,P|496:304|472:332,1,37.5
304,328,74056,5,0,0:0:0:0:
272,303,74138,1,0,0:0:0:0:
252,275,74221,1,0,0:0:0:0:
238,237,74303,1,0,0:0:0:0:
236,201,74386,1,0,0:0:0:0:
244,166,74468,1,0,0:0:0:0:
259,132,74551,2,0,L|296:101,1,37.5
304,204,74715,2,0,L|348:192,1,37.5
308,284,74880,2,0,L|356:296,1,37.5
280,364,75045,2,0,L|334:393,1,37.5
168,320,75210,5,0,0:0:0:0:
144,288,75292,1,0,0:0:0:0:
136,252,75375,1,0,0:0:0:0:
140,216,75457,1,0,0:0:0:0:
160,183,75540,2,0,P|184:184|200:192,1,37.5
372,260,75704,5,0,0:0:0:0:
384,214,75787,1,0,0:0:0:0:
372,171,75869,2,0,P|347:161|311:164,1,37.5
324,80,76034,2,0,P|297:86|268:112,1,37.5
228,40,76199,2,0,P|211:58|203:89,1,30
128,52,76364,2,0,P|125:73|135:101,1,26.2499991989136
32,180,76529,5,0,0:0:0:0:
44,196,76611,1,0,0:0:0:0:
60,208,76693,1,0,0:0:0:0:
76,216,76776,1,0,0:0:0:0:
96,220,76858,1,0,0:0:0:0:
112,220,76941,1,0,0:0:0:0:
132,216,77023,1,0,0:0:0:0:
148,208,77106,1,0,0:0:0:0:
168,196,77188,6,0,L|172:168,1,18.75
256,192,77353,2,0,L|252:213,1,22.4999993133545
340,232,77518,2,0,L|342:206,1,26.2499991989136
432,216,77682,2,0,L|428:248,1,26.2499991989136
424,348,77847,5,0,0:0:0:0:
380,364,77930,1,0,0:0:0:0:
332,364,78012,2,0,P|312:352|296:332,1,37.5
196,324,78177,2,0,P|196:300|212:276,1,37.5
96,248,78342,2,0,P|108:227|133:214,1,37.5
160,84,78507,5,0,0:0:0:0:
197,69,78589,1,0,0:0:0:0:
233,70,78671,1,0,0:0:0:0:
267,83,78754,1,0,0:0:0:0:
298,108,78836,2,0,L|288:156,1,37.5
364,176,79001,2,0,L|354:224,1,37.5
440,244,79166,5,0,0:0:0:0:
304,340,79331,5,0,0:0:0:0:
272,308,79413,1,0,0:0:0:0:
260,264,79496,2,0,P|280:244|300:236,1,46.875
421,143,79660,2,0,P|401:131|378:126,1,46.875
228,72,79825,5,0,0:0:0:0:
204,112,79908,1,0,0:0:0:0:
196,160,79990,1,0,0:0:0:0:
296,248,80155,5,0,0:0:0:0:
320,208,80237,1,0,0:0:0:0:
328,160,80320,2,0,P|300:148|264:144,1,46.875
108,80,80485,5,0,0:0:0:0:
92,110,80567,1,0,0:0:0:0:
95,141,80649,1,0,0:0:0:0:
111,168,80732,1,0,0:0:0:0:
180,212,80814,1,0,0:0:0:0:
195,240,80897,1,0,0:0:0:0:
192,269,80979,1,0,0:0:0:0:
177,295,81062,1,0,0:0:0:0:
112,344,81144,6,0,P|96:316|96:284,1,46.875
100,152,81309,2,0,P|84:180|84:212,1,46.875
192,269,81474,2,0,P|186:237|197:207,1,46.875
272,69,81638,2,0,P|247:89|236:119,1,46.875
364,220,81803,1,0,0:0:0:0:
364,220,82133,6,0,P|448:292|324:280,1,300
152,148,82628,5,0,0:0:0:0:
152,148,82710,1,0,0:0:0:0:
152,148,82792,2,0,P|156:72|212:132,1,187.5
144,320,83122,6,0,P|180:280|200:232,1,93.75
272,320,83287,2,0,P|274:266|260:216,1,75
368,280,83452,2,0,P|343:232|305:196,1,56.2500021457673
424,192,83617,2,0,P|392:171|358:163,1,37.5
248,52,83781,5,0,0:0:0:0:
228,84,83864,1,0,0:0:0:0:
224,120,83946,1,0,0:0:0:0:
232,156,84029,1,0,0:0:0:0:
252,188,84111,2,0,P|284:188|312:176,1,37.5
408,84,84276,2,0,P|377:76|347:80,1,37.5
124,100,84441,5,0,0:0:0:0:
255,108,92683,5,0,0:3:0:0:
336,165,92848,1,0,0:3:0:0:
306,259,93013,1,0,0:3:0:0:
206,259,93178,1,0,0:3:0:0:
176,165,93342,1,0,0:3:0:0:
328,72,94002,6,0,P|348:108|348:152,1,75
452,132,94332,2,0,P|456:168|444:204,1,75
424,228,94579,1,0,0:0:0:0:
388,240,94661,1,0,0:0:0:0:
352,240,94744,1,0,0:0:0:0:
316,228,94826,1,0,0:0:0:0:
284,208,94908,1,0,0:0:0:0:
264,177,94991,6,0,P|264:160|272:132,1,37.5
194,297,95155,2,0,P|179:305|151:312,1,37.5
333,297,95320,2,0,P|347:305|367:326,1,37.5
264,177,95485,5,0,0:0:0:0:
232,157,95567,1,0,0:0:0:0:
196,149,95650,1,0,0:0:0:0:
160,153,95732,1,0,0:0:0:0:
128,173,95815,2,0,P|120:200|120:232,1,37.5
44,320,95980,2,0,P|71:328|103:328,1,37.5
284,284,96144,1,0,0:0:0:0:
128,88,96309,6,0,L|148:180,1,75
208,312,96639,1,0,0:0:0:0:
216,320,96721,1,0,0:0:0:0:
284,352,96804,2,0,P|376:256|264:282,1,312.5
24,304,97298,1,4,0:0:0:0:
176,180,97628,6,0,P|159:79|224:148,1,234.375
176,180,97958,1,0,0:0:0:0:
336,155,98122,6,0,P|435:163|354:210,1,234.375
336,155,98452,1,0,0:0:0:0:
116,288,98617,2,0,P|160:272|224:280,1,65.6250006258488
396,268,98782,2,0,P|352:284|288:276,1,65.6250006258488
128,104,98947,6,0,P|160:136|179:197,1,65.6250006258488
255,127,99111,2,0,P|253:93|242:62,1,65.6250006258488,0|0,0:0|0:0,0:0:0:0:
367,91,99276,2,0,P|354:135|310:183,1,65.6250006258488
376,284,99441,6,0,P|393:304|359:300,2,79.7872340425532
144,124,99771,1,0,0:0:0:0:
260,240,99936,5,0,0:0:0:0:
294,220,100018,1,0,0:0:0:0:
314,186,100100,1,0,0:0:0:0:
316,148,100183,1,0,0:0:0:0:
300,112,100265,6,0,P|292:76|284:112,1,84.3750032186509
136,236,100595,2,0,P|106:235|135:248,1,83.3333333333333
400,292,100760,6,0,P|412:324|392:296,1,93.75
344,172,100925,2,0,P|364:144|352:176,1,93.75
272,268,101089,2,0,P|256:284|272:264,1,93.75
384,64,101254,6,0,P|408:48|392:80,1,93.75
252,64,101419,2,0,P|220:52|248:72,1,93.75
144,224,101584,6,0,P|132:252|148:232,1,84.3750032186509
372,212,101914,2,0,P|396:232|368:224,1,83.3333333333333
256,112,102078,6,0,P|241:89|266:109,1,93.75
256,272,102243,2,0,P|241:294|266:274,1,93.75
256,96,102408,2,0,P|241:73|266:93,1,93.75
128,192,102573,6,0,P|93:187|122:203,1,93.75
384,192,102738,2,0,P|418:187|389:203,1,93.75
256,84,102903,2,0,P|244:60|266:81,1,84.3750032186509
352,352,103232,6,0,P|384:363|360:340,1,93.75
160,320,103397,2,0,P|135:334|156:308,1,98.6842105263158
416,192,103562,2,0,P|448:175|412:179,1,101.351351351351
96,160,103727,2,0,P|72:144|108:152,1,107.142857142857
256,344,103892,2,0,P|272:372|250:344,1,112.5
128,272,104221,5,0,0:0:0:0:
148,194,104304,1,0,0:0:0:0:
169,117,104386,2,0,P|208:124|248:144,1,56.2500021457673
356,348,104551,2,0,P|372:324|380:292,1,56.2500021457673
376,120,104716,5,0,0:0:0:0:
386,80,104798,1,0,0:0:0:0:
346,90,104881,1,0,0:0:0:0:
108,48,105046,2,0,P|94:83|90:115,1,56.2500021457673
168,220,105210,2,0,P|204:228|232:244,1,56.2500021457673
356,344,105375,5,0,0:0:0:0:
378,258,105458,1,0,0:0:0:0:
402,174,105540,6,0,L|408:144,1,28.1250010728836
312,172,105705,2,0,L|302:143,1,28.1250010728836
236,212,105870,2,0,L|213:191,1,28.1250010728836
200,288,106035,2,0,L|170:282,1,28.1250010728836
208,368,106199,6,0,L|179:377,1,28.1250010728836
304,368,106364,2,0,L|332:377,1,28.1250010728836
144,304,106529,2,0,L|113:297,1,28.1250010728836
368,304,106694,2,0,L|397:298,1,28.1250010728836
184,221,106859,6,0,L|161:200,1,28.1250010728836
339,177,107024,2,0,L|344:146,1,28.1250010728836
253,173,107189,2,0,L|243:143,1,28.1250010728836
416,224,107353,6,0,P|436:204|448:176,1,56.2500021457673
416,320,107518,2,0,P|423:347|441:371,1,56.2500021457673
336,272,107683,2,0,P|308:264|278:268,1,56.2500021457673
144,336,107848,6,0,P|135:305|139:272,1,65.6250006258488
144,48,108013,2,0,P|151:77|147:111,1,65.6250006258488
268,320,108177,6,0,P|244:297|231:267,1,65.6250006258488
368,236,108342,2,0,P|336:228|310:208,1,65.6250006258488
404,112,108507,2,0,P|373:121|340:117,1,65.6250006258488
104,248,108672,6,0,P|100:216|109:185,1,65.6250006258488
1,57,108837,2,0,P|30:70|52:93,1,65.6250006258488
221,66,109002,2,0,P|195:84|163:93,1,65.6250006258488
32,244,109166,6,0,P|63:235|96:239,1,65.6250006258488
312,304,109331,2,0,P|283:311|249:307,1,65.6250006258488
152,384,109496,6,0,P|143:353|147:320,1,65.6250006258488
196,152,109661,2,0,P|205:183|201:216,1,65.6250006258488
32,244,109826,2,0,P|63:235|96:239,1,65.6250006258488
448,296,109991,6,0,P|417:305|384:301,2,65.6250006258488
448,88,110320,2,0,P|417:79|384:83,1,65.6250006258488
144,116,110485,5,0,0:0:0:0:
108,148,110567,1,0,0:0:0:0:
93,194,110650,1,0,0:0:0:0:
104,242,110732,1,0,0:0:0:0:
139,275,110815,2,0,P|176:268|204:244,1,65.6250006258488
256,335,110980,2,0,P|272:301|268:264,1,65.6250006258488
374,273,111144,2,0,P|354:241|322:223,1,65.6250006258488
96,128,111309,6,0,P|127:119|160:123,1,65.6250006258488
416,128,111474,2,0,P|385:119|352:123,1,65.6250006258488
260,4,111639,2,0,P|251:35|255:68,1,65.6250006258488
332,312,111804,5,0,0:0:0:0:
371,282,111886,1,0,0:0:0:0:
392,240,111969,1,0,0:0:0:0:
386,192,112051,1,0,0:0:0:0:
358,152,112133,2,0,P|324:156|280:184,1,65.6250006258488
104,104,112298,2,0,P|119:134|160:166,1,65.6250006258488
244,72,112463,2,0,P|227:102|225:154,1,65.6250006258488
213,320,112628,6,0,P|204:351|208:384,1,65.6250006258488
156,230,112793,2,0,P|134:206|104:192,1,65.6250006258488
266,229,112958,2,0,P|298:220|325:202,1,65.6250006258488
434,118,113122,5,0,0:3:0:0:
464,82,113205,1,0,0:3:0:0:
438,42,113287,1,0,0:3:0:0:
393,55,113370,1,0,0:3:0:0:
390,102,113452,2,0,P|422:88|398:111,1,93.75
406,250,113617,2,0,P|435:268|403:262,1,93.75
294,349,113782,2,0,P|296:383|282:353,1,93.75
64,128,113947,6,0,P|94:143|61:140,1,93.75
224,128,114111,2,0,P|195:146|214:119,1,93.75
144,256,114276,2,0,P|142:222|155:252,1,93.75
368,284,114441,5,0,0:3:0:0:
414,291,114524,1,0,0:3:0:0:
435,249,114606,1,0,0:3:0:0:
402,216,114689,1,0,0:3:0:0:
359,237,114771,2,0,P|387:257|355:248,1,93.75
153,237,114936,2,0,P|125:257|157:248,1,93.75
256,352,115100,2,0,P|256:386|267:355,1,93.75
184,48,115265,5,0,0:0:0:0:
133,51,115348,1,0,0:0:0:0:
90,76,115430,1,0,0:0:0:0:
58,116,115513,1,0,0:0:0:0:
43,166,115595,1,0,0:0:0:0:
47,213,115677,1,0,0:0:0:0:
73,258,115760,2,0,P|124:256|188:224,1,65.6250006258488
439,258,115925,2,0,P|388:256|324:224,1,65.6250006258488
192,96,116089,5,0,0:0:0:0:
72,165,116254,1,0,0:0:0:0:
192,234,116419,1,0,0:0:0:0:
192,96,116584,1,0,0:0:0:0:
192,96,116666,1,0,0:0:0:0:
192,96,116749,1,0,0:0:0:0:
72,165,116914,1,0,0:0:0:0:
192,234,117078,1,0,0:0:0:0:
192,96,117243,1,0,0:0:0:0:
288,192,117408,5,0,0:0:0:0:
329,346,117573,1,0,0:0:0:0:
329,346,117655,1,0,0:0:0:0:
329,346,117738,1,0,0:0:0:0:
483,305,117903,1,0,0:0:0:0:
442,150,118068,1,0,0:0:0:0:
288,192,118232,1,0,0:0:0:0:
288,192,118315,1,0,0:0:0:0:
288,192,118397,1,0,0:0:0:0:
329,346,118562,1,0,0:0:0:0:
80,308,118727,6,0,P|28:240|124:268,1,225
365,250,119056,6,0,P|393:260|361:262,1,83.3333333333333
368,136,119221,2,0,P|389:116|376:145,1,83.3333333333333
274,68,119386,2,0,P|271:39|286:66,1,83.3333333333333
165,105,119551,2,0,P|139:91|170:94,1,83.3333333333333
156,272,119716,2,0,P|52:252|124:200,1,250
316,288,120046,2,0,L|292:296,2,25
343,268,120211,2,0,P|356:192|304:144,1,150
184,80,120540,6,0,P|193:52|196:83,1,83.3333333333333
184,256,120705,2,0,P|193:283|196:252,1,83.3333333333333
184,56,120870,2,0,P|193:28|196:59,1,83.3333333333333
172,264,121035,2,0,P|188:352|244:280,1,225
216,132,121364,2,0,L|205:150,2,18.7500007152558
242,111,121529,2,0,P|320:116|351:180,1,131.250001251698
368,292,121859,6,0,P|396:301|365:304,1,83.3333333333333
144,292,122024,2,0,P|116:301|147:304,1,83.3333333333333
392,292,122188,2,0,P|420:301|389:304,1,83.3333333333333
124,296,122353,2,0,P|80:320|159:316,1,196.875001877546
288,296,122683,2,0,L|273:311,2,18.7500007152558
301,265,122848,2,0,P|267:189|206:177,1,112.500004291535
128,272,123177,6,0,P|100:283|122:260,1,83.3333333333333
304,112,123342,2,0,P|318:87|293:105,1,83.3333333333333
128,96,123507,2,0,P|116:68|139:90,1,83.3333333333333
288,284,123672,2,0,P|380:308|304:232,1,250
152,208,124002,2,0,L|173:194,2,25
131,234,124167,2,0,P|138:310|200:343,1,150
376,304,124496,6,0,P|403:320|368:315,1,93.75
292,32,124661,2,0,P|293:0|306:32,1,93.75
99,239,124826,2,0,P|71:255|93:227,1,93.75
400,272,124991,2,0,P|448:364|344:312,1,281.25
188,160,125320,2,0,L|228:144,2,37.5000014305115
164,196,125485,2,0,P|108:288|216:245,1,281.25
228,176,125815,1,0,0:0:0:0:
280,100,125897,1,0,0:0:0:0:
368,80,125980,1,0,0:0:0:0:
448,132,126062,1,0,0:0:0:0:
468,220,126144,1,0,0:0:0:0:
420,300,126227,1,0,0:0:0:0:
332,322,126309,1,0,0:0:0:0:
104,188,126639,6,0,L|116:152,7,28.1250010728836
192,224,127298,2,0,L|192:192,7,28.1250010728836
288,240,127958,2,0,L|279:209,5,28.1250010728836
384,240,128452,2,0,L|367:212,5,28.1250010728836
476,212,128947,2,0,L|453:189,3,28.1250010728836
360,72,129276,6,0,L|368:112,15,28.1250010728836
280,108,130595,2,0,L|298:144,5,28.1250010728836
212,164,131089,2,0,L|238:194,5,28.1250010728836
164,236,131584,2,0,L|197:258,3,28.1250010728836
324,312,131914,6,0,L|316:272,15,28.1250010728836
396,200,133232,2,0,L|356:208,5,28.1250010728836
288,128,133727,2,0,L|296:168,5,28.1250010728836
208,240,134221,2,0,L|248:232,3,28.1250010728836
392,216,134551,6,0,L|384:252,31,28.1250010728836
296,304,137188,6,0,L|276:272,3,37.5
184,288,137848,2,0,L|182:250,3,37.5
96,220,138507,2,0,L|113:186,2,37.5
48,88,139002,2,0,L|81:105,2,37.5
184,48,139496,2,0,L|166:81,1,37.5
280,156,139826,6,0,L|288:120,3,37.5
336,208,140485,2,0,L|360:180,3,37.5
336,292,141144,2,0,L|371:280,2,37.5
236,324,141639,2,0,L|200:335,2,37.5
264,244,142133,2,0,L|252:208,1,37.5
80,88,142463,6,0,L|91:123,3,37.5
188,88,143122,2,0,L|179:124,3,37.5
288,144,143782,2,0,L|263:171,2,37.5,0|0|0,0:3|0:3|0:3,0:3:0:0:
348,240,144276,2,0,L|312:251,2,37.5,0|0|0,0:3|0:3|0:3,0:3:0:0:
344,344,144771,2,0,L|307:335,1,37.5,0|0,0:3|0:3,0:3:0:0:
80,288,145100,5,0,0:0:0:0:
93,284,145183,1,0,0:0:0:0:
107,280,145265,1,0,0:0:0:0:
121,276,145348,1,0,0:0:0:0:
135,273,145430,1,0,0:0:0:0:
149,269,145513,1,0,0:0:0:0:
163,265,145595,1,0,0:0:0:0:
177,261,145677,1,0,0:0:0:0:
191,258,145760,5,0,0:0:0:0:
205,254,145842,1,0,0:0:0:0:
218,250,145925,1,0,0:0:0:0:
232,247,146007,1,0,0:0:0:0:
246,243,146089,1,0,0:0:0:0:
260,239,146172,1,0,0:0:0:0:
274,235,146254,1,0,0:0:0:0:
288,232,146337,1,0,0:0:0:0:
302,228,146419,5,0,0:0:0:0:
316,224,146502,1,0,0:0:0:0:
330,220,146584,1,0,0:0:0:0:
343,217,146666,1,0,0:0:0:0:
357,213,146749,1,0,0:0:0:0:
371,209,146831,1,0,0:0:0:0:
385,206,146914,1,0,0:0:0:0:
399,202,146996,1,0,0:0:0:0:
428,208,147078,5,0,0:0:0:0:
431,213,147160,1,0,0:0:0:0:
434,218,147242,1,0,0:0:0:0:
438,224,147325,1,0,0:0:0:0:
441,230,147407,1,0,0:0:0:0:
444,235,147490,1,0,0:0:0:0:
448,241,147572,1,0,0:0:0:0:
