osu file format v14

[General]
AudioFilename: audio.mp3
AudioLeadIn: 0
PreviewTime: -1
Countdown: 1
SampleSet: None
StackLeniency: 0.7
Mode: 0
LetterboxInBreaks: 0
WidescreenStoryboard: 0

[Editor]
DistanceSpacing: 0.5
BeatDivisor: 8
GridSize: 8
TimelineZoom: 2.3

[Metadata]
Title:did you get your pc yet ft. Microsoft Anna
TitleUnicode:did you get your pc yet ft. Microsoft Anna
Artist:Maxis
ArtistUnicode:Maxis
Creator:Maxis
Version:BSOD
Source:
Tags:
BeatmapID:1024374
BeatmapSetID:479757

[Difficulty]
HPDrainRate:4
CircleSize:3.5
OverallDifficulty:3
ApproachRate:8
SliderMultiplier:3
SliderTickRate:1

[Events]
//Background and Video events
//Break Periods
//Storyboard Layer 0 (Background)
//Storyboard Layer 1 (Fail)
//Storyboard Layer 2 (Pass)
//Storyboard Layer 3 (Foreground)
//Storyboard Sound Samples

[TimingPoints]
0,461.538461538462,4,1,0,100,1,0
14792,-133.333333333333,4,1,0,100,0,0
46153,-66.6666666666667,4,1,0,100,0,1
46615,-100,4,1,0,100,0,1
47076,-66.6666666666667,4,1,0,100,0,1
47538,-100,4,1,0,100,0,1
50769,-66.6666666666667,4,1,0,100,0,1
51692,-100,4,1,0,100,0,1
53076,923.076923076923,4,1,0,100,1,1
53076,-100,4,1,0,100,0,1
60922,230.769230769231,4,1,0,100,1,0
60923,-100,4,1,0,100,0,0
66460,923.076923076923,4,1,0,100,1,0
66460,-133.333333333333,4,1,0,100,0,0
68075,461.538461538462,4,1,0,100,1,0
68075,-66.6666666666667,4,1,0,100,0,0
68306,461.538461538462,4,1,0,100,1,0
68306,-133.333333333333,4,1,0,100,0,0

[HitObjects]
256,192,923,5,0,0:0:0:0:
256,152,2769,1,0,0:0:0:0:
256,192,4615,1,0,0:0:0:0:
256,232,6461,1,0,0:0:0:0:
256,192,8307,5,0,0:0:0:0:
208,192,9461,1,0,2:0:0:0:
304,192,9692,1,0,2:0:0:0:
256,128,10153,1,0,0:0:0:0:
256,192,12000,5,0,0:0:0:0:
304,192,13153,1,0,2:0:0:0:
208,192,13384,1,0,2:0:0:0:
256,264,13846,1,0,0:0:0:0:
256,72,14769,5,0,0:0:0:0:
256,152,15230,1,0,0:0:0:0:
256,232,15692,1,0,0:0:0:0:
256,312,16153,1,0,0:0:0:0:
144,192,16615,2,0,L|304:192,1,225.000008583069
369,192,17538,2,0,L|128:192,1,225.000008583069
256,72,18461,5,0,0:0:0:0:
136,192,18923,1,0,0:0:0:0:
256,312,19384,1,0,0:0:0:0:
368,192,19846,1,0,0:0:0:0:
336,272,20307,2,0,L|176:112,1,225.000008583069
336,120,21230,2,0,L|168:272,1,225.000008583069
296,152,22153,6,0,L|200:232,1,112.500004291535
212,227,22615,2,0,L|296:152,1,112.500004291535
216,152,23076,2,0,L|296:232,1,112.500004291535
296,152,23538,2,0,L|208:232,1,112.500004291535
320,192,24000,2,0,L|432:192,3,112.500004291535
192,192,24923,2,0,L|80:192,3,112.500004291535
256,192,25846,12,0,29538,0:0:0:0:
48,48,31384,5,0,0:0:0:0:
136,120,31846,1,0,0:0:0:0:
200,224,32307,1,0,0:0:0:0:
256,160,32769,1,0,0:0:0:0:
280,104,33000,1,0,0:0:0:0:
464,48,35076,5,0,0:0:0:0:
376,120,35538,1,0,0:0:0:0:
312,224,35999,1,0,0:0:0:0:
256,160,36461,1,0,0:0:0:0:
232,104,36692,1,0,0:0:0:0:
256,40,38307,1,0,0:0:0:0:
256,120,38538,1,0,0:0:0:0:
256,192,39230,5,0,0:0:0:0:
256,320,40153,1,0,0:0:0:0:
256,232,40384,1,0,0:0:0:0:
256,192,41076,1,0,0:0:0:0:
256,64,42000,1,0,0:0:0:0:
256,152,42230,1,0,0:0:0:0:
256,192,42923,5,0,0:0:0:0:
64,192,43846,1,0,0:0:0:0:
152,192,44076,1,0,0:0:0:0:
256,192,44769,1,0,0:0:0:0:
448,192,45692,1,0,0:0:0:0:
360,192,45923,1,0,0:0:0:0:
448,192,46153,6,0,P|400:96|280:136,1,225.000008583069
360,192,46615,2,0,P|240:184|192:104,1,150
440,128,47076,2,0,B|360:88|304:120|304:120|288:272,1,225.000008583069
264,320,47538,2,0,P|192:280|144:200,1,150
143,194,47826,5,0,0:0:0:0:
138,160,47884,1,0,0:0:0:0:
144,121,47942,1,0,0:0:0:0:
160,96,48000,2,0,P|208:48|320:64,2,150
153,212,48692,1,0,0:0:0:0:
290,96,48923,1,0,0:0:0:0:
406,234,49153,1,0,0:0:0:0:
268,349,49384,1,0,0:0:0:0:
288,96,49615,5,0,0:0:0:0:
260,156,49730,1,0,0:0:0:0:
284,94,49846,1,0,0:0:0:0:
260,156,49961,1,0,0:0:0:0:
262,211,50076,1,0,0:0:0:0:
256,64,50307,5,0,0:0:0:0:
256,256,50538,1,0,0:0:0:0:
256,64,50769,2,0,B|320:64|384:128|384:192|384:256|352:320|288:352|224:352|160:320|128:256|128:192|160:128|195:107|228:101|317:153|321:196|256:288|192:192,1,675.000025749208
264,224,51519,1,0,0:0:0:0:
255,239,51576,1,0,0:0:0:0:
224,264,51634,1,0,0:0:0:0:
242,254,51692,1,0,0:0:0:0:
264,40,51923,5,0,0:0:0:0:
216,272,52153,1,0,0:0:0:0:
264,40,52384,2,0,B|212:44|212:44|166:90,1,75
216,272,52615,1,0,0:0:0:0:
360,56,52846,2,0,B|392:40|392:40|448:128,1,75
136,168,53076,2,0,B|224:88|224:88|232:160|192:192|160:184|168:184|288:224|304:208|272:152|264:96|392:176|384:216|312:240|192:264|152:248|152:248|160:216|208:288|192:320|288:336|400:296|544:232|472:128|424:48|376:24|288:32|224:80|224:80|176:192|192:256|176:304|168:336|80:336|24:288|40:224|152:224|304:272|456:352|432:152|320:64|200:8|96:0|0:72|-8:144|-16:152|32:40|224:32|424:96|416:232|224:24|392:24|464:72|376:216|328:384|224:144|227:83|224:16|224:16|232:-24|136:168,1,2550
64,200,61383,6,0,B|160:184|96:24|96:24|232:152|303:144|370:56|370:56|327:144|624:208|351:312|279:256|279:256|184:48|264:320|48:192,1,1200
368,80,61845,1,0,0:0:0:0:
64,200,62306,2,0,B|208:80|120:184|120:184|216:152|176:176|176:176|320:240|320:320|384:352|448:304|360:264|112:392|224:192|24:280|-24:288|-8:224|80:160|240:200|384:304|496:288|448:144|176:216,1,1200
224,296,62768,1,0,0:0:0:0:
244,202,63229,2,0,B|48:168|336:88|512:152|48:48|504:88|504:88|72:48|72:48|448:32,1,1200
344,72,63691,1,0,0:0:0:0:
397,34,64152,2,0,B|360:208|184:152|160:160|160:160|208:192|208:192|152:216|152:216|200:240|200:240|150:259|116:291|116:291|64:184|64:184|96:88|96:88|208:96,1,900
168,160,64383,1,0,0:0:0:0:
200,200,64441,1,0,0:0:0:0:
168,232,64498,1,0,0:0:0:0:
152,264,64556,1,0,0:0:0:0:
104,264,64614,1,0,0:0:0:0:
64,192,64672,1,0,0:0:0:0:
88,112,64729,1,0,0:0:0:0:
128,96,64787,1,0,0:0:0:0:
208,96,65075,5,0,0:0:0:0:
224,104,65306,1,0,0:0:0:0:
240,112,65537,1,0,0:0:0:0:
256,120,65768,1,0,0:0:0:0:
272,128,65998,1,0,0:0:0:0:
288,136,66229,2,0,L|384:184,4,75
288,136,66460,2,0,B|72:72|72:72|136:144|128:224,1,337.500012874604
128,192,68075,2,0,L|151:320,1,112.500004291535
224,296,68306,6,0,L|224:17,1,225.000008583069
224,71,68306,6,0,P|323:121|227:177,1,225.000008583069
96,64,69229,5,0,0:0:0:0:
416,64,69229,5,0,0:0:0:0:
432,192,69459,5,0,0:0:0:0:
112,192,69459,5,0,0:0:0:0:
448,312,69690,5,0,0:0:0:0:
128,312,69690,5,0,0:0:0:0:
328,128,70152,6,0,P|192:128|184:224,1,225.000008583069
328,258,70152,6,0,P|192:258|184:162,1,225.000008583069
432,88,71075,5,0,0:0:0:0:
432,192,71075,5,0,0:0:0:0:
432,288,71075,5,0,0:0:0:0:
280,48,71306,5,0,0:0:0:0:
280,152,71306,5,0,0:0:0:0:
280,248,71306,5,0,0:0:0:0:
128,8,71536,5,0,0:0:0:0:
128,112,71536,5,0,0:0:0:0:
128,208,71536,5,0,0:0:0:0:
440,96,71767,5,0,0:0:0:0:
72,288,71882,5,0,0:0:0:0:
72,96,71998,5,0,0:0:0:0:
440,288,72113,5,0,0:0:0:0:
440,96,72229,5,0,0:0:0:0:
440,96,72459,5,0,0:0:0:0:
395,93,72516,5,0,0:0:0:0:
351,97,72574,5,0,0:0:0:0:
308,109,72632,5,0,0:0:0:0:
269,131,72689,5,0,0:0:0:0:
239,163,72747,5,0,0:0:0:0:
234,206,72805,5,0,0:0:0:0:
264,238,72862,5,0,0:0:0:0:
307,245,72920,5,0,0:0:0:0:
337,218,72978,5,0,0:0:0:0:
317,179,73035,5,0,0:0:0:0:
284,150,73093,5,0,0:0:0:0:
246,126,73151,5,0,0:0:0:0:
206,106,73209,5,0,0:0:0:0:
166,88,73266,5,0,0:0:0:0:
124,71,73324,5,0,0:0:0:0:
82,56,73382,5,0,0:0:0:0:
88,72,73613,5,0,0:0:0:0:
96,88,73671,1,0,0:0:0:0:
104,104,73729,1,0,0:0:0:0:
112,120,73786,1,0,0:0:0:0:
120,136,73844,1,0,0:0:0:0:
440,96,74075,5,0,0:0:0:0:
120,136,74306,1,0,0:0:0:0:
432,112,74536,1,0,0:0:0:0:
424,128,74767,1,0,0:0:0:0:
136,168,74998,1,0,0:0:0:0:
408,160,75113,1,0,0:0:0:0:
392,184,75229,1,0,0:0:0:0:
440,96,75459,5,0,0:0:0:0:
72,288,75574,5,0,0:0:0:0:
72,96,75690,5,0,0:0:0:0:
440,288,75805,5,0,0:0:0:0:
440,96,75921,5,0,0:0:0:0:
256,192,77536,12,0,90460,0:0:0:0:
216,272,92306,6,0,B|240:288|208:336|264:320|285:341|328:360|224:320|184:224|168:240|120:280|143:233|120:192|88:184|88:160|112:144|120:128|168:112|225:103|225:103|224:88|234:107|238:107|256:128|296:192|337:221|344:224|372:183|392:152|392:152|391:146|464:104|459:72|328:96|305:64|312:40|296:40|285:5|282:23|282:23|256:72|392:112|367:124|367:124|320:112|160:80|128:96|48:144|-16:96|-16:88|32:64|54:73|88:16|176:64|213:5|246:-7|224:16|168:120|184:136|224:200|252:218|264:240|288:232|384:248|333:188|333:188|304:136|296:144|144:176|144:176|80:232|72:200|64:296|-8:224|48:128|120:96|240:192|256:200|280:198|400:288|387:306|392:336|392:336|480:296|480:264|388:215|344:144|271:159|271:159|208:176,1,2925.0001115799
