osu file format v14

[General]
AudioFilename: audio.mp3
AudioLeadIn: 0
PreviewTime: 43917
Countdown: 0
SampleSet: Normal
StackLeniency: 0.7
Mode: 0
LetterboxInBreaks: 0
WidescreenStoryboard: 1

[Editor]
Bookmarks: 13071,23606,33929,45291,50707,55707,58569
DistanceSpacing: 1
BeatDivisor: 8
GridSize: 32
TimelineZoom: 6.499996

[Metadata]
Title:Zetsubou Billy (TV Size)
TitleUnicode:絶望ビリー (TV Size)
Artist:MAXIMUM THE HORMONE
ArtistUnicode:マキシマム ザ ホルモン
Creator:greenhue
Version:Normal
Source:Death Note
Tags:Japanese anime myxomatosis myxo nao tomori lasse naotoshi
BeatmapID:2175245
BeatmapSetID:1040265

[Difficulty]
HPDrainRate:4
CircleSize:3
OverallDifficulty:5
ApproachRate:6
SliderMultiplier:1
SliderTickRate:1

[Events]
//Background and Video events
0,0,"trojan.jpg",0,0
//Break Periods
//Storyboard Layer 0 (Background)
//Storyboard Layer 1 (Fail)
//Storyboard Layer 2 (Pass)
//Storyboard Layer 3 (Foreground)
//Storyboard Layer 4 (Overlay)
//Storyboard Sound Samples

[TimingPoints]
296,322.58064516129,4,1,1,90,1,0
2392,315.789473684211,4,1,1,90,1,0
2865,319.488817891374,4,1,1,90,1,0
7177,309.597523219814,4,1,1,90,1,0
7950,320.341697810998,4,1,1,90,1,0
12594,318.471337579618,4,1,1,90,1,0
13230,324.324324324324,4,2,1,70,1,0
17121,320.855614973262,4,2,1,70,1,0
18404,324.324324324324,4,2,1,70,1,0
19701,322.58064516129,4,2,1,70,1,0
22281,304.568527918782,4,2,1,70,1,0
22890,315.789473684211,4,2,1,70,1,0
23521,333.333333333333,4,2,1,70,1,0
24687,-97.5609756097561,4,2,1,70,0,0
24854,315.789473684211,4,2,1,70,1,0
25485,326.086956521739,4,2,1,70,1,0
26137,326.086956521739,4,2,1,70,1,0
27278,-98.0392156862745,4,2,1,70,0,0
27441,315.789473684211,4,2,1,70,1,0
28704,326.086956521739,4,2,1,70,1,0
30008,315.789473684211,4,2,1,70,1,0
30639,324.324324324324,4,2,1,70,1,0
31287,326.086956521739,4,2,1,70,1,0
32591,340.909090909091,4,2,1,70,1,0
33954,360.36036036036,4,2,1,70,1,0
34674,379.027163613392,4,1,1,90,1,0
35432,368.324125230203,4,1,1,90,1,0
36168,379.266750948167,4,1,1,90,1,0
36926,394.736842105263,4,1,1,90,1,0
37715,371.17228580266,4,1,1,90,1,0
39199,342.857142857143,4,1,1,90,1,0
39884,329.67032967033,4,1,1,90,1,0
40378,-102.564102564103,4,1,1,90,0,0
40543,346.820809248555,4,1,1,90,1,0
41063,333.333333333333,4,1,1,90,1,0
41563,333.333333333333,4,1,1,90,1,0
42564,348.837209302326,4,1,1,90,1,0
43959,333.333333333333,4,1,1,90,1,0
48292,344.827586206897,4,1,1,90,1,0
49154,324.324324324324,4,1,1,90,1,0
49640,333.333333333333,4,1,1,90,1,0
49973,326.086956521739,4,1,1,90,1,0
50625,333.333333333333,4,1,1,90,1,0
55790,352.941176470588,4,1,1,90,1,0
57201,344.827586206897,4,1,1,90,1,0
58580,332.225913621262,4,1,1,90,1,0
59908,320,4,1,1,90,1,0
61188,330.578512396694,4,1,1,90,1,0
62510,327.868852459016,4,1,1,90,1,0
63164,355.029585798817,4,1,1,90,1,0
63874,349.243306169965,4,1,1,90,1,0
65270,348.837209302326,4,1,1,90,1,0
66664,344.43168771527,4,1,1,90,1,0
68041,337.078651685393,4,1,1,90,1,0

[Colours]
Combo1 : 248,228,92
Combo2 : 137,106,84
Combo3 : 218,192,165
Combo4 : 221,89,11

[HitObjects]
33,136,296,6,0,P|110:147|142:156,1,100,4|4,0:0|0:0,0:0:0:0:
177,172,779,1,0,0:0:0:0:
13,279,1586,2,0,P|90:272|123:273,1,100,4|4,0:0|0:0,0:0:0:0:
161,281,2070,1,0,0:0:0:0:
246,336,2392,2,0,L|232:394,2,50,8|8|8,0:0|0:0|0:0,0:0:0:0:
286,307,2865,6,0,P|336:293|390:296,1,100,6|2,0:0|0:0,0:0:0:0:
429,314,3344,1,10,0:0:0:0:
492,236,3663,2,0,P|486:189|445:142,1,100,0|8,0:0|0:0,0:0:0:0:
408,128,4142,6,0,P|349:170|273:166,1,150,6|10,0:0|0:0,0:0:0:0:
195,104,4941,1,0,0:0:0:0:
124,32,5261,1,8,0:0:0:0:
124,32,5420,6,0,P|59:52|11:140,1,150,6|10,0:0|0:0,0:0:0:0:
48,211,6219,2,0,P|109:214|143:234,1,100,0|8,0:0|0:0,0:0:0:0:
170,274,6698,6,0,P|229:229|302:216,1,150,6|10,0:0|0:0,0:0:0:0:
388,267,7486,2,0,P|380:287|374:335,2,50,8|8|8,0:0|0:0|0:0,0:0:0:0:
433,250,7950,6,0,P|424:170|420:137,1,100,6|2,0:0|0:0,0:0:0:0:
449,108,8430,1,10,0:0:0:0:
357,49,8750,2,0,P|369:24|386:-2,2,50,0|0|8,0:0|0:0|0:0,0:0:0:0:
324,87,9231,5,6,0:0:0:0:
188,24,9711,2,0,P|165:32|126:39,1,50,10|8,0:0|0:0,0:0:0:0:
105,74,10032,2,0,P|155:97|205:135,1,100,0|8,0:0|0:0,0:0:0:0:
197,172,10512,6,0,L|43:217,1,150,6|10,0:0|0:0,0:0:0:0:
93,305,11313,2,0,L|163:314,1,50,0|0,0:0|0:0,0:0:0:0:
177,346,11633,1,8,0:0:0:0:
177,346,11794,6,0,L|345:321,1,150,6|10,0:0|0:0,0:0:0:0:
403,261,12594,2,0,P|409:232|405:201,1,50,8|8,0:0|0:0,0:0:0:0:
375,173,12912,2,0,P|373:144|380:118,1,50,8|8,0:0|0:0,0:0:0:0:
397,78,13230,6,0,L|274:67,1,100,4|0,3:1|0:0,0:0:0:0:
204,32,13878,2,0,L|104:40,1,100,8|0,1:0|0:0,0:0:0:0:
33,112,14527,1,2,3:2:0:0:
104,182,14851,1,2,0:0:0:0:
193,136,15175,6,0,B|232:137|276:227|192:222|226:304|278:314,1,200,8|4,1:0|3:0,0:0:0:0:
358,344,16148,1,0,0:0:0:0:
425,270,16473,2,0,P|417:214|391:166,1,100,8|0,1:0|0:0,0:0:0:0:
363,88,17121,1,2,3:2:0:0:
168,40,17762,2,0,P|187:87|191:144,1,100,8|2,1:0|0:0,0:0:0:0:
116,201,18404,6,0,P|72:181|2:169,1,100,4|0,3:0|0:0,0:0:0:0:
10,269,19052,2,0,P|54:287|106:296,1,100,8|0,1:0|0:0,0:0:0:0:
201,268,19701,1,2,3:2:0:0:
288,317,20023,1,2,0:0:0:0:
359,247,20346,1,8,1:0:0:0:
305,162,20668,1,2,0:0:0:0:
346,70,20991,6,0,P|397:57|457:81,1,100,4|2,3:0|0:0,0:0:0:0:
400,162,21636,2,0,P|352:174|304:161,2,100,8|2|4,1:0|0:0|3:0,0:0:0:0:
482,221,22585,1,8,1:0:0:0:
418,297,22890,1,4,3:0:0:0:
418,297,23047,2,0,P|409:329|412:368,2,50,8|8|8,1:0|1:0|1:0,0:0:0:0:
375,273,23521,6,0,P|334:301|271:299,1,100,4|8,0:0|0:0,0:0:0:0:
192,265,24187,2,0,P|202:241|226:205,2,50,4|2|8,3:0|3:1|0:0,0:0:0:0:
154,298,24687,2,0,P|90:283|47:248,1,100,2|2,0:0|3:1,0:0:0:0:
43,217,25169,1,8,0:0:0:0:
54,117,25485,1,4,0:0:0:0:
54,117,25648,2,0,L|6:63,2,50,8|4|8,0:0|3:0|0:0,0:0:0:0:
102,128,26137,6,0,P|182:111|206:82,1,100,4|8,0:0|0:0,0:0:0:0:
277,47,26789,1,4,3:0:0:0:
367,89,27115,1,8,0:0:0:0:
367,89,27278,2,0,P|356:137|354:197,1,100,2|2,0:0|3:1,0:0:0:0:
367,235,27756,1,8,0:0:0:0:
270,263,28072,1,4,0:0:0:0:
270,263,28230,2,0,L|212:227,2,50,8|4|8,0:0|3:0|0:0,0:0:0:0:
268,309,28704,6,0,P|219:321|161:323,1,100,4|8,0:0|0:0,0:0:0:0:
83,273,29356,2,0,P|71:228|76:193,2,75,4|2|2,3:0|0:0|0:0,0:0:0:0:
175,234,30165,1,2,3:1:0:0:
175,234,30323,2,0,P|174:198|162:168,1,50,8|2,0:0|0:0,0:0:0:0:
151,137,30639,2,0,P|161:79|190:37,1,100,6|4,0:0|3:0,0:0:0:0:
280,40,31287,5,4,0:0:0:0:
343,117,31613,1,8,0:0:0:0:
432,72,31939,2,0,P|468:71|513:82,2,75,4|2|2,3:0|0:0|0:0,0:0:0:0:
424,170,32761,2,0,P|444:174|479:176,2,50,2|8|2,3:1|0:0|3:1,0:0:0:0:
379,152,33272,1,6,0:0:0:0:
306,221,33613,2,0,P|284:231|254:235,1,50,0|8,0:0|0:0,0:0:0:0:
226,218,33954,6,0,L|217:139,2,75,4|6|6,0:0|0:3|0:3,0:0:0:0:
233,266,34674,1,12,0:2:0:0:
55,282,35432,6,0,L|47:356,2,75,4|4|4,0:0|3:0|3:0,0:0:0:0:
64,234,36168,1,12,0:2:0:0:
217,143,36926,6,0,L|224:217,2,75,4|6|6,0:0|3:0|3:0,0:0:0:0:
211,93,37715,1,12,0:2:0:0:
413,145,38457,6,0,P|450:140|487:149,2,75,4|4|4,0:0|3:0|3:0,0:0:0:0:
374,166,39199,1,0,0:0:0:0:
436,251,39541,1,12,0:2:0:0:
372,342,39884,6,0,P|343:334|323:321,1,50,4|4,3:0|3:0,0:0:0:0:
287,291,40213,1,10,0:0:0:0:
287,291,40378,2,0,L|185:301,1,100,0|4,0:0|3:0,0:0:0:0:
87,261,41063,2,0,P|85:203|97:159,1,100,4|4,0:0|3:0,0:0:0:0:
117,117,41563,1,10,0:0:0:0:
117,117,41729,1,0,0:0:0:0:
190,55,42063,1,4,3:0:0:0:
290,166,42564,6,0,P|329:152|399:134,1,100,4|10,0:0|0:0,0:0:0:0:
450,211,43261,2,0,P|425:254|413:263,1,50,4|8,0:0|0:0,0:0:0:0:
402,297,43610,2,0,P|377:301|353:296,1,50,8|8,0:0|0:0,0:0:0:0:
309,321,43959,2,0,P|245:296|190:221,2,150,4|0|8,0:0|0:0|0:0,0:0:0:0:
223,378,45292,6,0,P|166:339|121:266,1,150,4|6,0:0|0:0,0:0:0:0:
56,196,46125,2,0,P|48:158|49:130,1,50,2|8,3:1|0:0,0:0:0:0:
95,131,46459,2,0,P|156:165|204:163,1,100,6|2,0:0|3:1,0:0:0:0:
233,153,46959,1,12,0:0:0:0:
300,79,47292,2,0,P|292:53|284:21,2,50,6|8|8,0:0|0:0|0:0,0:0:0:0:
347,96,47792,6,0,P|408:124|457:127,1,100,6|2,0:0|3:1,0:0:0:0:
461,225,48464,2,0,P|400:253|351:256,1,100,6|2,0:0|3:1,0:0:0:0:
335,294,48981,1,8,0:0:0:0:
335,294,49154,2,0,L|180:301,1,150,6|8,0:0|0:0,0:0:0:0:
140,211,49973,1,4,0:0:0:0:
221,153,50299,1,8,0:0:0:0:
236,53,50625,6,0,P|191:31|141:25,1,100,4|8,0:0|0:0,0:0:0:0:
92,35,51125,1,6,0:0:0:0:
32,115,51458,2,0,P|49:147|62:169,1,50,2|8,0:0|0:0,0:0:0:0:
82,201,51791,2,0,L|61:320,1,100,6|2,0:0|3:1,0:0:0:0:
30,335,52291,1,12,0:0:0:0:
127,356,52625,2,0,L|236:343,1,100,6|4,0:0|3:0,0:0:0:0:
266,313,53125,5,6,0:0:0:0:
364,327,53458,1,2,0:0:0:0:
364,327,53625,2,0,L|385:260,1,50,8|6,0:0|0:0,0:0:0:0:
346,184,54125,1,2,3:1:0:0:
346,184,54291,1,8,0:0:0:0:
346,184,54458,1,6,0:0:0:0:
274,51,54958,2,0,L|162:41,1,100,8|4,0:0|0:0,0:0:0:0:
86,90,55624,1,8,0:0:0:0:
86,90,55791,6,0,P|151:151|205:262,2,200,4|4|4,0:0|0:0|0:0,0:0:0:0:
18,164,57545,2,0,L|33:211,1,50,8|8,0:0|0:0,0:0:0:0:
45,261,57890,1,8,0:0:0:0:
45,261,58063,1,12,0:2:0:0:
197,301,58580,6,0,P|247:287|302:291,1,100,6|2,0:0|0:0,0:0:0:0:
341,306,59078,1,10,0:0:0:0:
428,257,59410,2,0,P|422:210|381:163,1,100,0|8,0:0|0:0,0:0:0:0:
346,141,59908,5,6,0:0:0:0:
246,130,60228,1,2,0:0:0:0:
246,130,60388,1,10,0:0:0:0:
227,31,60708,1,0,0:0:0:0:
124,32,61028,1,8,0:0:0:0:
124,32,61188,6,0,P|59:52|11:140,1,150,6|10,0:0|0:0,0:0:0:0:
109,148,62014,2,0,P|170:151|204:171,1,100,0|8,0:0|0:0,0:0:0:0:
241,203,62510,6,0,P|167:215|108:260,1,150,6|0,0:0|0:0,0:0:0:0:
167,336,63341,2,0,P|159:356|153:393,2,50,8|8|8,0:0|0:0|0:0,0:0:0:0:
206,304,63874,6,0,P|250:314|314:324,1,100,4|0,0:0|0:0,0:0:0:0:
349,305,64397,1,4,0:2:0:0:
412,227,64747,2,0,P|437:237|467:244,2,50,12|0|4,0:2|0:0|0:2,0:0:0:0:
381,187,65270,5,4,0:0:0:0:
288,225,65618,1,0,0:0:0:0:
288,225,65793,2,0,P|277:247|266:285,1,50,4|0,0:2|0:0,0:0:0:0:
219,275,66142,2,0,P|203:227|190:160,1,100,12|4,0:2|0:2,0:0:0:0:
236,146,66665,6,0,P|314:128|389:78,1,150,4|4,0:0|0:2,0:0:0:0:
462,48,67525,2,0,L|471:118,1,50,12|0,0:2|0:0,0:0:0:0:
503,132,67869,1,4,0:2:0:0:
503,132,68041,6,0,L|481:281,1,150,4|4,0:0|0:2,0:0:0:0:
405,370,68883,2,0,P|376:376|345:372,1,50,8|8,0:0|0:0,0:0:0:0:
317,342,69220,2,0,P|288:340|262:347,1,50,8|8,0:0|0:0,0:0:0:0:
