osu file format v14

[General]
AudioFilename: audio.mp3
AudioLeadIn: 0
PreviewTime: 43917
Countdown: 0
SampleSet: Normal
StackLeniency: 0.7
Mode: 0
LetterboxInBreaks: 0
WidescreenStoryboard: 1

[Editor]
Bookmarks: 13071,23606,33929,45291,50707,55707,58569
DistanceSpacing: 1.2
BeatDivisor: 16
GridSize: 32
TimelineZoom: 6.900001

[Metadata]
Title:Zetsubou Billy (TV Size)
TitleUnicode:絶望ビリー (TV Size)
Artist:MAXIMUM THE HORMONE
ArtistUnicode:マキシマム ザ ホルモン
Creator:greenhue
Version:Hard
Source:Death Note
Tags:Japanese anime myxomatosis myxo nao tomori lasse naotoshi
BeatmapID:2175244
BeatmapSetID:1040265

[Difficulty]
HPDrainRate:4
CircleSize:3.6
OverallDifficulty:6
ApproachRate:8
SliderMultiplier:1.4
SliderTickRate:1

[Events]
//Background and Video events
0,0,"trojan.jpg",0,0
//Break Periods
//Storyboard Layer 0 (Background)
//Storyboard Layer 1 (Fail)
//Storyboard Layer 2 (Pass)
//Storyboard Layer 3 (Foreground)
//Storyboard Layer 4 (Overlay)
//Storyboard Sound Samples

[TimingPoints]
296,322.58064516129,4,1,1,90,1,0
296,-125,4,1,1,90,0,0
2392,315.789473684211,4,1,1,90,1,0
2865,319.488817891374,4,1,1,90,1,0
7177,309.597523219814,4,1,1,90,1,0
7950,320.341697810998,4,1,1,90,1,0
12594,318.471337579618,4,1,1,90,1,0
13230,324.324324324324,4,2,1,70,1,0
13230,-133.333333333333,4,2,1,70,0,0
17121,320.855614973262,4,2,1,70,1,0
17121,-133.333333333333,4,2,1,70,0,0
18404,324.324324324324,4,2,1,70,1,0
18404,-133.333333333333,4,2,1,70,0,0
19701,322.58064516129,4,2,1,70,1,0
19701,-133.333333333333,4,2,1,70,0,0
20971,-133.333333333333,4,2,1,70,0,0
22281,304.568527918782,4,2,1,70,1,0
22579,-133.333333333333,4,2,1,70,0,0
22890,315.789473684211,4,2,1,70,1,0
23052,-133.333333333333,4,2,1,90,0,0
23521,333.333333333333,4,2,1,70,1,0
23521,-80,4,1,1,90,0,0
24687,-75.7575757575758,4,1,1,90,0,0
24821,-80,4,1,1,90,0,0
24854,315.789473684211,4,2,1,70,1,0
25485,326.086956521739,4,2,1,70,1,0
26137,326.086956521739,4,2,1,70,1,0
26137,-80,4,1,1,90,0,0
27278,-95.2380952380952,4,2,1,70,0,0
27441,315.789473684211,4,2,1,70,1,0
27441,-80,4,1,1,90,0,0
27598,-80,4,1,1,90,0,0
28235,-80,4,1,1,90,0,0
28690,-72.7272727272727,4,1,1,90,0,0
28704,326.086956521739,4,2,1,70,1,0
29995,-72.7272727272727,4,1,1,90,0,0
30008,315.789473684211,4,2,1,70,1,0
30639,324.324324324324,4,2,1,70,1,0
30648,-80,4,1,1,90,0,0
31287,326.086956521739,4,2,1,70,1,0
31288,-80,4,1,1,90,0,0
32591,340.909090909091,4,2,1,70,1,0
32591,-66.6666666666667,4,1,1,90,0,0
33262,-80,4,1,1,90,0,0
33929,-142.857142857143,4,1,1,90,0,0
33954,360.36036036036,4,2,1,70,1,0
34674,379.027163613392,4,1,1,90,1,0
34674,-76.923076923077,4,1,1,90,0,0
35432,368.324125230203,4,1,1,90,1,0
35432,-76.923076923077,4,1,1,90,0,0
36168,379.266750948167,4,1,1,90,1,0
36168,-76.923076923077,4,1,1,90,0,0
36926,394.736842105263,4,1,1,90,1,0
36926,-76.923076923077,4,1,1,90,0,0
37715,371.17228580266,4,1,1,90,1,0
37715,-76.923076923077,4,1,1,90,0,0
38441,-76.923076923077,4,1,1,90,0,0
39199,342.857142857143,4,1,1,90,1,0
39199,-100,4,1,1,90,0,0
39884,329.67032967033,4,1,1,90,1,0
39884,-100,4,1,1,90,0,0
40543,346.820809248555,4,1,1,90,1,0
41063,333.333333333333,4,1,1,90,1,0
41063,-83.3333333333333,4,1,1,90,0,0
41563,333.333333333333,4,1,1,90,1,0
41729,-83.3333333333333,4,1,1,90,0,0
42564,348.837209302326,4,1,1,90,1,0
43230,-100,4,1,1,90,0,0
43917,-166.666666666667,4,1,1,90,0,0
43959,333.333333333333,4,1,1,90,1,0
45291,-74.0740740740741,4,1,1,100,0,0
46957,-74.0740740740741,4,1,1,100,0,0
47792,-74.0740740740741,4,1,1,100,0,0
48292,344.827586206897,4,1,1,90,1,0
49154,324.324324324324,4,1,1,90,1,0
49624,-74.0740740740741,4,1,1,100,0,0
49640,333.333333333333,4,1,1,90,1,0
49973,326.086956521739,4,1,1,90,1,0
50624,-74.0740740740741,4,1,1,100,0,0
50625,333.333333333333,4,1,1,90,1,0
51125,-76.9230769230769,4,1,1,90,0,0
51791,-83.3333333333333,4,1,1,90,0,0
52290,-74.0740740740741,4,1,1,100,0,0
53124,-74.0740740740741,4,1,1,100,0,0
55290,-74.0740740740741,4,1,1,100,0,0
55790,352.941176470588,4,1,1,90,1,0
55790,-114.155251141552,4,1,1,90,0,0
57201,344.827586206897,4,1,1,90,1,0
58057,-80,4,1,1,90,0,0
58580,332.225913621262,4,1,1,90,1,0
59908,320,4,1,1,90,1,0
61188,330.578512396694,4,1,1,90,1,0
62510,327.868852459016,4,1,1,90,1,0
63164,355.029585798817,4,1,1,90,1,0
63874,349.243306169965,4,1,1,90,1,0
63874,-100,4,1,1,90,0,0
64048,-100,4,1,1,90,0,0
65270,348.837209302326,4,1,1,90,1,0
65270,-100,4,1,1,90,0,0
65444,-100,4,1,1,90,0,0
66664,344.43168771527,4,1,1,90,1,0
66664,-100,4,1,1,90,0,0
66836,-100,4,1,1,90,0,0
68041,337.078651685393,4,1,1,90,1,0
68730,-100,4,1,1,90,0,0

[Colours]
Combo1 : 211,201,201
Combo2 : 230,197,153
Combo3 : 236,223,72
Combo4 : 174,87,0

[HitObjects]
0,94,296,6,0,B|43:135|122:90|122:90,1,112,4|4,0:0|0:0,0:0:0:0:
161,72,779,2,0,B|197:68|228:110,1,56,0|0,0:0|0:0,0:0:0:0:
268,115,1102,2,0,B|252:144|249:184,2,56,0|0|0,0:0|0:0|0:0,0:0:0:0:
327,97,1586,6,0,P|357:172|366:220,1,112,4|4,0:0|0:0,0:0:0:0:
396,254,2070,2,0,P|365:279|331:305,1,56,0|0,0:0|0:0,0:0:0:0:
308,338,2392,1,8,0:0:0:0:
308,338,2549,1,8,0:0:0:0:
240,300,2707,1,8,0:0:0:0:
240,300,2865,6,0,B|215:236|147:181|147:181,1,140,6|2,0:0|0:0,0:0:0:0:
77,215,3344,2,0,P|101:245|116:272,1,70,10|8,0:0|0:0,0:0:0:0:
94,346,3663,2,0,P|65:362|17:379,2,70,0|0|8,0:0|0:0|0:0,0:0:0:0:
26,283,4142,6,0,P|40:221|49:131,1,140,6|2,0:0|0:0,0:0:0:0:
23,72,4622,1,10,0:0:0:0:
23,72,4781,1,8,0:0:0:0:
98,82,4941,2,0,P|163:69|190:60,2,70,0|0|8,0:0|0:0|0:0,0:0:0:0:
121,155,5420,6,0,P|206:140|291:137,1,140,6|2,0:0|0:0,0:0:0:0:
333,177,5900,1,10,0:0:0:0:
333,177,6059,1,8,0:0:0:0:
289,242,6219,2,0,P|254:250|198:255,2,70,0|0|8,0:0|0:0|0:0,0:0:0:0:
358,283,6698,6,0,B|409:276|468:159,1,140,6|2,0:0|0:0,0:0:0:0:
454,105,7178,1,10,0:0:0:0:
454,105,7331,1,0,0:0:0:0:
378,90,7486,2,0,P|343:97|283:106,2,70,8|8|8,0:0|0:0|0:0,0:0:0:0:
396,16,7950,6,0,P|331:25|232:40,1,140,6|2,0:0|0:0,0:0:0:0:
183,16,8430,1,10,0:0:0:0:
183,16,8590,1,8,0:0:0:0:
113,56,8750,2,0,B|95:92|117:135,2,70,0|0|8,0:0|0:0|0:0,0:0:0:0:
169,90,9231,6,0,B|97:91|11:74,1,140,6|2,0:0|0:0,0:0:0:0:
0,155,9711,1,10,0:0:0:0:
0,155,9872,1,8,0:0:0:0:
65,204,10032,2,0,B|105:196|145:195,2,70,0|0|8,0:0|0:0|0:0,0:0:0:0:
27,271,10512,6,0,B|86:284|160:335,1,140,6|2,0:0|0:0,0:0:0:0:
220,292,10993,2,0,B|206:254|202:213,1,70,10|8,0:0|0:0,0:0:0:0:
258,170,11313,2,0,B|287:172|325:186|325:186,1,70,0|0,0:0|0:0,0:0:0:0:
360,255,11633,1,8,0:0:0:0:
427,217,11794,6,0,B|442:133|368:86,1,140,6|2,0:0|0:0,0:0:0:0:
341,26,12274,2,0,P|310:38|267:45,1,70,10|0,0:0|0:0,0:0:0:0:
200,20,12594,1,8,0:0:0:0:
124,35,12753,1,8,0:0:0:0:
67,87,12912,1,8,0:0:0:0:
62,163,13071,1,8,0:0:0:0:
109,233,13230,6,0,P|145:227|173:202,1,52.5000020027161,4|0,3:1|0:0,0:0:0:0:
195,181,13554,1,0,0:0:0:0:
34,300,13878,2,0,P|63:322|101:323,1,52.5000020027161,8|4,1:0|3:0,0:0:0:0:
130,324,14202,1,0,0:0:0:0:
302,373,14527,6,0,L|293:296,1,52.5000020027161,2|0,3:2|0:0,0:0:0:0:
266,277,14851,2,0,L|287:164,1,105.000004005432,2|8,0:0|1:0,0:0:0:0:
329,145,15338,1,0,0:0:0:0:
329,145,15500,1,2,0:0:0:0:
117,103,15824,6,0,P|98:78|87:52,1,52.5000020027161,4|0,3:0|0:0,0:0:0:0:
80,6,16148,1,0,0:0:0:0:
262,101,16473,2,0,P|233:87|211:70,1,52.5000020027161,8|4,1:0|3:0,0:0:0:0:
184,33,16797,1,0,0:0:0:0:
359,14,17121,6,0,P|332:16|307:11,1,52.5000020027161,2|0,3:2|0:0,0:0:0:0:
389,96,17441,2,0,P|356:137|356:207,1,105.000004005432,2|8,0:0|1:0,0:0:0:0:
372,235,17923,1,0,0:0:0:0:
343,278,18083,2,0,P|316:279|291:275,1,52.5000020027161,2|0,0:0|0:0,0:0:0:0:
250,241,18404,5,4,3:0:0:0:
167,306,18728,1,0,0:0:0:0:
80,246,19052,2,0,P|70:214|70:173,2,52.5000020027161,8|4|0,1:0|3:0|0:0,0:0:0:0:
156,174,19701,6,0,P|170:122|189:64,1,105.000004005432,2|2,3:2|0:0,0:0:0:0:
97,15,20346,2,0,P|80:64|67:115,1,105.000004005432,8|2,1:0|0:0,0:0:0:0:
38,217,20991,5,4,3:0:0:0:
142,212,21313,1,2,0:0:0:0:
176,311,21636,1,8,1:0:0:0:
280,300,21959,1,2,0:0:0:0:
343,216,22281,6,0,L|323:146,1,70,4|0,3:0|0:0,0:0:0:0:
275,154,22585,2,0,L|309:54,1,105.000004005432,8|4,1:0|3:0,0:0:0:0:
352,24,23047,1,8,1:0:0:0:
404,19,23205,1,8,1:0:0:0:
450,43,23363,1,8,1:0:0:0:
471,95,23521,6,0,P|423:95|375:123,1,87.5,4|2,0:0|3:1,0:0:0:0:
375,123,23771,1,2,3:0:0:0:
357,136,23854,2,0,P|313:137|273:119,1,87.5,8|2,0:0|0:0,0:0:0:0:
190,84,24187,2,0,B|191:33|214:-8|214:-8,2,87.5,4|2|8,3:0|3:1|0:0,0:0:0:0:
119,136,24687,2,0,L|133:321,1,179.2,2|2,0:0|3:1,0:0:0:0:
74,366,25169,1,8,0:0:0:0:
74,366,25327,2,0,P|110:342|158:336,1,70,2|4,0:0|0:0,0:0:0:0:
228,357,25648,1,8,0:0:0:0:
309,324,25811,1,4,3:0:0:0:
335,240,25974,1,8,0:0:0:0:
295,162,26137,6,0,L|203:175,1,87.5,4|2,0:0|3:1,0:0:0:0:
193,167,26381,1,2,3:0:0:0:
176,156,26463,2,0,P|175:95|209:41,2,87.5,8|2|4,0:0|0:0|3:0,0:0:0:0:
88,115,26952,1,2,3:1:0:0:
11,157,27115,1,8,0:0:0:0:
0,247,27278,2,0,P|71:243|151:293,1,144.199998789825,2|2,0:0|3:1,0:0:0:0:
209,365,27756,1,0,0:0:0:0:
214,367,27914,2,0,P|270:358|299:344,1,88.1999973083497
329,244,28230,1,8,0:0:0:0:
242,231,28388,1,4,3:0:0:0:
181,167,28546,1,8,0:0:0:0:
166,78,28704,6,0,P|211:80|236:82,2,70,4|2|8,0:0|3:1|0:0,0:0:0:0:
80,34,29193,1,2,0:0:0:0:
27,99,29356,2,0,B|-9:184|35:263|35:263,2,140,4|2|2,3:0|0:0|0:0,0:0:0:0:
140,259,30165,1,2,3:1:0:0:
140,259,30323,2,0,P|202:227|230:225,2,70,8|2|6,0:0|0:0|0:0,0:0:0:0:
105,339,30801,1,0,0:0:0:0:
189,362,30963,1,4,3:0:0:0:
270,329,31125,1,8,0:0:0:0:
270,329,31287,5,4,0:0:0:0:
319,248,31450,2,0,P|358:255|427:263,2,87.5,2|8|2,3:1|0:0|0:0,0:0:0:0:
252,191,31939,2,0,P|185:204|89:217,2,131.25,4|2|2,3:0|0:0|0:0,0:0:0:0:
320,131,32591,2,0,P|318:63|297:27,1,105,4|2,3:0|3:1,0:0:0:0:
202,6,32931,2,0,P|180:53|183:105,1,105.000004005432,8|2,0:0|3:1,0:0:0:0:
60,43,33272,2,0,P|83:103|78:176,1,131.25,6|8,0:0|0:0,0:0:0:0:
76,189,33613,1,0,0:0:0:0:
28,253,33784,1,8,0:0:0:0:
111,331,33954,6,0,P|182:319|256:313,1,140,4|6,0:0|0:3,0:0:0:0:
364,237,34674,2,0,B|425:180|432:76|307:9|237:153|316:161,1,272.999987503052,12|0,0:2|0:0,0:0:0:0:
350,228,35432,6,0,P|428:224|490:207,2,136.499993751526,4|4|4,0:0|3:0|3:0,0:0:0:0:
255,231,36168,2,0,B|192:288|185:392|310:459|380:315|302:308,1,272.999987503052,12|0,0:2|0:0,0:0:0:0:
269,241,36926,6,0,P|189:243|129:262,2,136.499993751526,4|6|6,0:0|3:0|3:0,0:0:0:0:
327,145,37715,2,0,B|322:60|247:-11|115:40|182:186|237:131,1,272.999987503052,12|0,0:2|0:0,0:0:0:0:
338,158,38457,6,0,P|354:88|391:16,2,136.499993751526,4|4|4,0:0|3:0|3:0,0:0:0:0:
375,240,39199,2,0,P|414:235|457:222,1,70,8|4,0:0|3:0,0:0:0:0:
304,307,39541,2,0,P|265:302|222:289,1,70,12|0,0:2|0:0,0:0:0:0:
185,225,39884,5,4,3:0:0:0:
185,225,40048,1,4,3:0:0:0:
94,269,40213,1,10,0:0:0:0:
39,189,40378,2,0,P|20:161|-9:118,1,70,0|4,0:0|3:0,0:0:0:0:
90,41,40716,2,0,P|100:74|111:107,1,70,4|10,3:0|0:0,0:0:0:0:
177,181,41063,2,0,P|232:120|315:102,1,167.999994873047,4|4,0:0|3:0,0:0:0:0:
393,137,41563,1,10,0:0:0:0:
397,230,41729,1,0,0:0:0:0:
397,230,41813,1,8,3:0:0:0:
397,230,41896,2,0,P|348:223|287:222,1,83.9999974365235,4|4,3:0|3:0,0:0:0:0:
251,293,42229,2,0,P|212:301|168:305,1,83.9999974365235,10|0,0:0|0:0,0:0:0:0:
100,264,42563,5,4,0:0:0:0:
100,264,42738,1,0,0:0:0:0:
164,212,42912,1,10,0:0:0:0:
164,212,43087,1,4,3:0:0:0:
107,150,43261,2,0,P|82:93|81:75,1,70,4|0,0:0|0:0,0:0:0:0:
73,44,43523,1,8,0:0:0:0:
73,44,43610,1,8,0:0:0:0:
183,88,43784,1,8,0:0:0:0:
183,88,43872,1,8,0:0:0:0:
183,88,43959,2,0,P|242:90|386:22,1,210,4|0,0:0|0:0,0:0:0:0:
392,5,44959,1,8,0:0:0:0:
419,121,45292,5,4,0:0:0:0:
419,121,45459,2,0,P|470:116|522:106,1,94.5000003604889,2|8,3:1|0:0,0:0:0:0:
453,224,45792,2,0,P|361:206|241:195,1,189.000000720978,6|2,0:0|3:1,0:0:0:0:
308,111,46292,1,8,0:0:0:0:
250,205,46459,2,0,P|158:223|38:234,1,189.000000720978,6|2,0:0|3:1,0:0:0:0:
8,155,46959,1,12,0:0:0:0:
100,103,47125,1,2,0:0:0:0:
100,103,47209,1,8,0:0:0:0:
100,103,47292,1,6,0:0:0:0:
84,5,47459,2,0,L|23:11,2,47.2500001802444,8|8|8,0:0|0:0|0:0,0:0:0:0:
164,31,47792,6,0,P|139:132|125:235,1,189.000000720978,6|2,0:0|3:1,0:0:0:0:
61,275,48292,1,8,0:0:0:0:
155,360,48464,2,0,P|250:339|311:326,1,140,6|2,0:0|3:1,0:0:0:0:
396,315,48981,1,8,0:0:0:0:
361,223,49154,2,0,P|341:141|378:81,1,140,6|4,0:0|3:0,0:0:0:0:
465,0,49640,2,0,P|427:10|369:5,1,70,8|0,0:0|0:0,0:0:0:0:
288,4,49973,2,0,P|241:-2|205:6,1,70,4|0,0:0|0:0,0:0:0:0:
185,27,50217,1,8,0:0:0:0:
185,27,50299,1,8,0:0:0:0:
177,123,50462,1,4,3:0:0:0:
96,172,50625,6,0,P|64:165|12:155,2,70,4|2|8,0:0|3:1|0:0,0:0:0:0:
90,279,51125,2,0,B|186:265|134:212|257:219,1,181.999991668702,6|2,0:0|0:0,0:0:0:0:
345,207,51625,1,8,0:0:0:0:
399,126,51791,2,0,B|424:80|374:13|374:13|379:66|364:91,1,167.999994873047,6|2,0:0|3:1,0:0:0:0:
287,102,52291,2,0,P|259:76|192:58,1,94.5000003604889,12|2,0:0|0:0,0:0:0:0:
112,80,52625,1,6,0:0:0:0:
85,166,52791,1,0,0:0:0:0:
85,166,52875,1,8,0:0:0:0:
85,166,52958,1,4,3:0:0:0:
171,197,53125,6,0,B|188:249|179:296|179:296|66:330,1,189.000000720978,6|2,0:0|0:0,0:0:0:0:
43,258,53625,1,8,0:0:0:0:
87,347,53791,2,0,B|204:315|204:315|293:337,1,189.000000720978,6|2,0:0|3:1,0:0:0:0:
372,362,54291,1,8,0:0:0:0:
441,279,54458,2,0,P|428:197|318:167,1,189.000000720978,6|4,0:0|3:0,0:0:0:0:
250,223,54958,2,0,P|314:196|333:167,1,94.5000003604889,8|0,0:0|0:0,0:0:0:0:
317,69,55291,2,0,P|248:80|217:64,1,94.5000003604889,4|0,0:0|0:0,0:0:0:0:
207,54,55541,1,8,0:0:0:0:
207,54,55624,1,8,0:0:0:0:
85,102,55790,6,0,L|104:289,1,183.960000954382,4|0,0:0|0:0,0:0:0:0:
200,357,56495,2,0,L|218:173,1,183.960000954382,4|0,0:0|0:0,0:0:0:0:
247,79,57201,2,0,P|306:45|394:64,1,140,4|8,0:0|0:0,0:0:0:0:
447,120,57718,1,8,0:0:0:0:
377,181,57890,1,8,0:0:0:0:
422,292,58063,1,12,0:2:0:0:
430,307,58580,6,0,P|353:311|285:277,1,140,6|2,0:0|0:0,0:0:0:0:
237,226,59078,2,0,P|260:195|268:157,1,70,10|8,0:0|0:0,0:0:0:0:
250,87,59410,1,0,0:0:0:0:
250,87,59576,1,0,0:0:0:0:
179,140,59742,1,8,0:0:0:0:
121,82,59908,6,0,P|67:102|26:186,1,140,6|2,0:0|0:0,0:0:0:0:
53,249,60388,2,0,L|128:228,1,70,10|8,0:0|0:0,0:0:0:0:
177,295,60708,2,0,L|147:362,2,70,0|0|8,0:0|0:0|0:0,0:0:0:0:
250,233,61188,6,0,P|301:215|388:214,1,140,4|0,0:0|0:0,0:0:0:0:
452,266,61683,1,10,0:0:0:0:
452,266,61849,1,8,0:0:0:0:
512,207,62014,2,0,P|500:163|491:127,2,70,0|0|8,0:0|0:0|0:0,0:0:0:0:
399,200,62510,6,0,P|405:138|411:44,1,140,6|2,0:0|0:0,0:0:0:0:
333,31,63001,1,10,0:0:0:0:
333,31,63165,1,0,0:0:0:0:
264,89,63341,2,0,L|275:170,2,70,8|8|8,0:0|0:0|0:0,0:0:0:0:
174,34,63874,6,0,L|159:184,1,140,4|0,0:0|0:0,0:0:0:0:
225,239,64397,1,4,0:2:0:0:
225,239,64572,1,0,0:0:0:0:
174,303,64747,2,0,P|132:312|101:304,2,70,12|0|4,0:2|0:0|0:2,0:0:0:0:
233,383,65270,6,0,P|283:359|323:283,1,140,4|0,0:0|0:0,0:0:0:0:
304,209,65793,1,4,0:2:0:0:
304,209,65967,1,0,0:0:0:0:
376,142,66142,2,0,P|374:107|369:72,2,70,12|0|4,0:2|0:0|0:2,0:0:0:0:
460,106,66665,6,0,P|470:186|484:252,1,140,4|0,0:0|0:0,0:0:0:0:
406,324,67180,1,4,0:2:0:0:
406,324,67352,1,0,0:0:0:0:
476,366,67525,2,0,P|501:328|536:316,2,70,12|0|4,0:2|0:0|0:2,0:0:0:0:
393,294,68041,6,0,P|322:283|264:320,1,140,4|0,0:0|0:0,0:0:0:0:
201,374,68546,2,0,P|159:350|128:338,1,70,4|0,0:2|0:0,0:0:0:0:
49,318,68883,1,8,0:0:0:0:
106,268,69052,1,8,0:0:0:0:
29,201,69220,1,8,0:0:0:0:
102,126,69389,5,8,0:0:0:0:
