osu file format v14

[General]
AudioFilename: audio.mp3
AudioLeadIn: 0
PreviewTime: 43917
Countdown: 0
SampleSet: Normal
StackLeniency: 0.7
Mode: 0
LetterboxInBreaks: 0
WidescreenStoryboard: 1

[Editor]
Bookmarks: 58569
DistanceSpacing: 1.3
BeatDivisor: 4
GridSize: 4
TimelineZoom: 5.399997

[Metadata]
Title:Zetsubou Billy (TV Size)
TitleUnicode:絶望ビリー (TV Size)
Artist:MAXIMUM THE HORMONE
ArtistUnicode:マキシマム ザ ホルモン
Creator:greenhue
Version:Expert
Source:Death Note
Tags:Japanese anime myxomatosis myxo nao tomori lasse naotoshi
BeatmapID:2174236
BeatmapSetID:1040265

[Difficulty]
HPDrainRate:4
CircleSize:4
OverallDifficulty:7.5
ApproachRate:9.2
SliderMultiplier:3
SliderTickRate:2

[Events]
//Background and Video events
0,0,"trojan.jpg",0,0
//Break Periods
//Storyboard Layer 0 (Background)
//Storyboard Layer 1 (Fail)
//Storyboard Layer 2 (Pass)
//Storyboard Layer 3 (Foreground)
//Storyboard Layer 4 (Overlay)
//Storyboard Sound Samples

[TimingPoints]
296,322.58064516129,4,1,1,90,1,0
296,-125,4,1,1,90,0,0
2392,315.789473684211,4,1,1,90,1,0
2865,319.488817891374,4,1,1,90,1,0
7177,309.597523219814,4,1,1,90,1,0
7950,320.341697810998,4,1,1,90,1,0
12594,318.471337579618,4,1,1,90,1,0
13230,324.324324324324,4,2,1,70,1,0
13230,-222.222222222221,4,2,1,70,0,0
17121,320.855614973262,4,2,1,70,1,0
17121,-222.222222222222,4,2,1,70,0,0
18404,324.324324324324,4,2,1,70,1,0
18404,-222.222222222222,4,2,1,70,0,0
19701,322.58064516129,4,2,1,70,1,0
19701,-222.222222222222,4,2,1,70,0,0
20971,-181.818181818181,4,2,1,70,0,0
22281,304.568527918782,4,2,1,70,1,0
22281,-181.818181818182,4,2,1,70,0,0
22579,-133.333333333333,4,2,1,70,0,0
22890,315.789473684211,4,2,1,70,1,0
23052,-133.333333333333,4,2,1,90,0,0
23521,333.333333333333,4,2,1,70,1,0
23521,-80,4,1,1,90,0,0
24173,-105.263157894737,4,1,1,90,0,0
24687,-176.991150442478,4,1,1,90,0,0
24821,-66.6666666666667,4,1,1,90,0,0
24854,315.789473684211,4,2,1,70,1,0
25146,-105.263157894737,4,1,1,90,0,0
25485,326.086956521739,4,2,1,70,1,0
25634,-80,4,1,1,90,0,0
26137,326.086956521739,4,2,1,70,1,0
26137,-80,4,1,1,90,0,0
27260,-180.18018018018,4,1,1,90,0,0
27441,315.789473684211,4,2,1,70,1,0
27503,-181.818181818182,4,1,1,60,0,0
27585,-95.2380952380952,4,1,1,90,0,0
28704,326.086956521739,4,2,1,70,1,0
30008,315.789473684211,4,2,1,70,1,0
30639,324.324324324324,4,2,1,70,1,0
30648,-100,4,1,1,90,0,0
30801,-71.4285714285714,4,1,1,90,0,0
31287,326.086956521739,4,2,1,70,1,0
31288,-105.263157894737,4,1,1,90,0,0
32591,340.909090909091,4,2,1,70,1,0
32592,-100,4,1,1,90,0,0
33262,-57.1428571428571,4,1,1,90,0,0
33784,-95.2380952380952,4,1,1,90,0,0
33954,360.36036036036,4,2,1,70,1,0
34674,379.027163613392,4,1,1,90,1,0
34674,-133.333333333333,4,1,1,60,0,0
35432,368.324125230203,4,1,1,90,1,0
36168,379.266750948167,4,1,1,90,1,0
36168,-133.333333333333,4,1,1,60,0,0
36926,394.736842105263,4,1,1,90,1,0
37683,-133.333333333333,4,1,1,60,0,0
37715,371.17228580266,4,1,1,90,1,0
38441,-100,4,1,1,90,0,0
39199,342.857142857143,4,1,1,90,1,0
39884,329.67032967033,4,1,1,90,1,0
40543,346.820809248555,4,1,1,90,1,0
41063,333.333333333333,4,1,1,90,1,0
41563,333.333333333333,4,1,1,90,1,0
42564,348.837209302326,4,1,1,90,1,0
43230,-80,4,1,1,90,0,0
43917,-133.333333333333,4,1,1,90,0,0
43959,333.333333333333,4,1,1,90,1,0
45291,-100,4,1,1,100,0,0
45791,-90.9090909090909,4,1,1,100,0,0
46459,-76.9230769230769,4,1,1,100,0,0
46957,-66.6666666666667,4,1,1,100,0,0
47791,-90.9090909090909,4,1,1,100,0,0
48292,344.827586206897,4,1,1,90,1,0
48464,-83.3333333333333,4,1,1,90,0,0
49154,324.324324324324,4,1,1,90,1,0
49154,-111.111111111111,4,1,1,100,0,0
49624,-100,4,1,1,100,0,0
49640,333.333333333333,4,1,1,90,1,0
49973,326.086956521739,4,1,1,90,1,0
50624,-100,4,1,1,100,0,0
50625,333.333333333333,4,1,1,90,1,0
51790,-76.9230769230769,4,1,1,100,0,0
52290,-66.6666666666667,4,1,1,100,0,0
53124,-100,4,1,1,100,0,0
53790,-76.9230769230769,4,1,1,100,0,0
54457,-100,4,1,1,100,0,0
55290,-66.6666666666667,4,1,1,100,0,0
55790,352.941176470588,4,1,1,90,1,0
55790,-133.333333333333,4,1,1,90,0,0
57201,344.827586206897,4,1,1,90,1,0
57201,-133.333333333333,4,1,1,90,0,0
58057,-80,4,1,1,90,0,0
58580,332.225913621262,4,1,1,90,1,0
59908,320,4,1,1,90,1,0
61188,330.578512396694,4,1,1,90,1,0
62510,327.868852459016,4,1,1,90,1,0
63164,355.029585798817,4,1,1,90,1,0
63874,349.243306169965,4,1,1,90,1,0
63874,-133.333333333333,4,1,1,90,0,0
64048,-133.333333333333,4,1,1,90,0,0
65270,348.837209302326,4,1,1,90,1,0
66664,344.43168771527,4,1,1,90,1,0
68041,337.078651685393,4,1,1,90,1,0

[Colours]
Combo1 : 204,191,191
Combo2 : 239,200,63
Combo3 : 152,101,31
Combo4 : 247,239,140

[HitObjects]
0,267,296,6,0,B|74:194|202:275|145:386,1,240,4|4,0:0|0:0,0:0:0:0:
512,267,1586,6,0,B|438:194|310:275|367:386,1,240,4|4,0:0|0:0,0:0:0:0:
143,63,2392,5,8,0:0:0:0:
145,91,2549,1,8,0:0:0:0:
146,122,2707,1,8,0:0:0:0:
0,291,2865,6,2,B|35:235|35:235|127:226|127:226|186:235|186:235|304:219,1,300,6|2,0:0|0:0,0:0:0:0:
342,113,3344,2,0,B|339:68|273:50|273:50|245:78|250:120,1,150,10|8,0:0|0:0,0:0:0:0:
390,282,3663,1,0,0:0:0:0:
390,282,3823,1,0,0:0:0:0:
424,168,3983,1,8,0:0:0:0:
284,323,4142,6,2,B|170:320|170:320|122:227|122:227|63:162,1,300,6|2,0:0|0:0,0:0:0:0:
12,288,4622,2,0,B|21:338|21:338|38:370|38:370|78:291,1,150,10|8,0:0|0:0,0:0:0:0:
208,229,4941,1,0,0:0:0:0:
208,229,5101,1,0,0:0:0:0:
169,368,5261,1,8,0:0:0:0:
98,222,5420,6,2,B|107:159|107:159|152:129|152:129|247:115|247:115|310:16,1,300,6|2,0:0|0:0,0:0:0:0:
181,0,5900,2,0,B|125:0|85:33|85:33|110:53|183:56,1,150,10|8,0:0|0:0,0:0:0:0:
340,135,6219,1,0,0:0:0:0:
340,135,6379,1,0,0:0:0:0:
314,0,6539,1,8,0:0:0:0:
228,224,6698,6,2,B|336:238|336:238|416:217|416:217|441:151|441:151|473:101,1,300,6|2,0:0|0:0,0:0:0:0:
508,239,7178,2,0,B|508:282|508:282|489:339|489:339|450:312,1,150,10|0,0:0|0:0,0:0:0:0:
340,135,7486,1,8,0:0:0:0:
340,114,7641,1,8,0:0:0:0:
341,90,7796,1,8,0:0:0:0:
258,324,7950,6,2,B|247:280|247:280|253:238|253:238|214:169|214:169|213:104|213:104|238:86|238:86|280:25,1,300,6|2,0:0|0:0,0:0:0:0:
418,159,8430,2,0,B|405:189|375:199|375:199|330:171|327:128,1,150,10|8,0:0|0:0,0:0:0:0:
392,59,8750,1,0,0:0:0:0:
392,59,8911,1,0,0:0:0:0:
334,274,9071,1,8,0:0:0:0:
157,16,9231,6,2,B|95:33|95:33|65:65|65:65|74:142|74:142|68:178|68:178|90:269,1,300,6|2,0:0|0:0,0:0:0:0:
238,185,9711,2,0,B|223:152|223:152|174:156|158:203|158:203|178:222,1,150,10|8,0:0|0:0,0:0:0:0:
254,266,10032,1,0,0:0:0:0:
254,266,10192,1,0,0:0:0:0:
153,97,10352,1,8,0:0:0:0:
75,274,10512,6,2,B|95:313|95:313|100:351|100:351|164:377|164:377|247:379|247:379|332:341,1,300,6|2,0:0|0:0,0:0:0:0:
403,218,10993,2,0,B|391:195|337:175|337:175|327:265,1,150,10|8,0:0|0:0,0:0:0:0:
415,321,11313,1,0,0:0:0:0:
415,321,11473,1,0,0:0:0:0:
421,122,11633,1,8,0:0:0:0:
236,258,11794,6,2,B|229:212|229:212|245:157|245:157|233:72|233:72|267:27|267:27|332:-13,1,300,6|2,0:0|0:0,0:0:0:0:
421,122,12274,2,0,B|406:173|406:173|362:175|324:123|324:123,1,150,10|8,0:0|0:0,0:0:0:0:
430,23,12594,1,4,3:0:0:0:
512,157,12753,1,8,0:0:0:0:
503,184,12912,1,8,0:0:0:0:
496,214,13071,1,8,0:0:0:0:
381,302,13230,5,4,3:1:0:0:
381,302,13392,1,0,0:0:0:0:
265,225,13554,2,0,P|271:190|274:132,1,67.4999979400635,0|0,0:0|0:0,0:0:0:0:
189,316,13878,1,8,1:0:0:0:
189,316,14040,1,4,3:0:0:0:
98,216,14202,2,0,P|67:201|26:175,1,67.4999979400635,0|4,0:0|3:0,0:0:0:0:
121,51,14527,5,2,3:2:0:0:
121,51,14689,1,0,0:0:0:0:
205,134,14851,2,0,P|239:131|297:118,1,67.4999979400635,2|0,0:0|0:0,0:0:0:0:
357,39,15175,1,8,1:0:0:0:
357,39,15338,1,0,0:0:0:0:
453,98,15500,2,0,P|462:126|475:178,1,67.4999979400635,2|0,0:0|0:0,0:0:0:0:
402,287,15824,5,4,3:0:0:0:
402,287,15986,1,0,0:0:0:0:
330,222,16148,2,0,P|336:187|340:139,1,67.4999979400635,0|0,0:0|0:0,0:0:0:0:
507,247,16473,1,8,1:0:0:0:
507,247,16635,1,4,3:0:0:0:
446,376,16797,2,0,P|411:375|353:386,1,67.4999979400635,0|4,0:0|3:0,0:0:0:0:
253,284,17121,5,2,3:2:0:0:
221,300,17201,1,0,0:0:0:0:
197,290,17281,1,0,0:0:0:0:
178,299,17361,1,0,0:0:0:0:
158,286,17441,2,0,L|83:281,1,67.4999979400635,2|0,0:0|0:0,0:0:0:0:
56,174,17762,1,8,1:0:0:0:
56,174,17923,1,0,0:0:0:0:
142,86,18083,2,0,P|131:53|123:15,1,67.4999979400635,2|0,0:0|0:0,0:0:0:0:
242,112,18404,5,4,3:0:0:0:
242,112,18566,1,0,0:0:0:0:
301,180,18728,2,0,P|295:216|293:266,1,67.4999979400635,0|0,0:0|0:0,0:0:0:0:
396,129,19052,1,8,1:0:0:0:
396,129,19214,1,4,3:0:0:0:
494,92,19376,2,0,P|491:58|486:25,1,67.4999979400635,0|4,0:0|3:0,0:0:0:0:
389,379,19701,5,2,3:2:0:0:
405,347,19781,1,0,0:0:0:0:
395,323,19862,1,0,0:0:0:0:
404,304,19942,1,0,0:0:0:0:
392,292,20023,2,0,B|382:256|382:256|390:206,1,67.4999979400635,2|0,0:0|0:0,0:0:0:0:
391,92,20346,1,8,1:0:0:0:
391,92,20507,1,0,0:0:0:0:
286,187,20668,2,0,P|253:185|202:185,1,67.4999979400635,2|0,0:0|0:0,0:0:0:0:
79,81,20991,6,0,P|120:76|161:68,1,82.5000025177003,4|0,3:0|0:0,0:0:0:0:
139,177,21313,1,2,0:0:0:0:
139,177,21475,1,0,0:0:0:0:
270,93,21636,2,0,P|284:47|292:4,1,82.5000025177003,8|0,1:0|0:0,0:0:0:0:
223,207,21959,1,2,0:0:0:0:
223,207,22120,1,0,0:0:0:0:
347,286,22281,2,0,P|385:273|460:262,1,82.5000025177003,4|0,3:0|0:0,0:0:0:0:
188,334,22585,5,8,1:0:0:0:
188,334,22737,1,0,3:0:0:0:
110,228,22890,1,4,3:0:0:0:
98,325,23047,1,8,1:0:0:0:
205,244,23205,1,8,1:0:0:0:
83,337,23363,1,8,1:0:0:0:
9,133,23521,6,0,B|2:81|2:81|31:66|31:66|73:23|73:23|147:1,1,187.5,4|2,0:0|3:1,0:0:0:0:
210,0,23771,1,2,3:0:0:0:
203,95,23854,2,0,B|253:93|253:93|299:74|299:74|324:80|324:80|393:60,1,187.5,8|2,0:0|0:0,0:0:0:0:
461,30,24104,1,2,3:0:0:0:
452,119,24187,2,0,B|447:150|447:150|456:204,1,71.2499980974198,4|0,3:0|0:0,0:0:0:0:
385,301,24354,2,0,B|382:258|382:258|373:213,1,71.2499980974198,2|0,3:1|0:0,0:0:0:0:
283,163,24521,2,0,B|278:201|278:201|265:261,1,71.2499980974198,8|0,0:0|0:0,0:0:0:0:
278,361,24687,6,0,B|248:316|197:322|197:322|155:366|120:354,1,165.000005035401,2|2,0:0|3:1,0:0:0:0:
114,366,25169,2,0,B|106:313|106:313|123:274|123:274|117:165,1,142.49999619484,8|2,0:0|0:0,0:0:0:0:
32,90,25485,2,0,B|66:109|66:109|162:108,1,75,4|0,0:0|0:0,0:0:0:0:
280,68,25648,2,0,B|236:89|236:89|199:161|199:161|194:254,2,187.5,8|4|8,0:0|3:0|0:0,0:0:0:0:
499,157,26137,6,0,B|442:162|442:162|416:159|416:159|387:181|387:181|346:171|346:171|317:177,1,187.5,4|2,0:0|3:1,0:0:0:0:
287,250,26381,1,2,3:0:0:0:
348,321,26463,2,0,B|323:326|323:326|281:346|281:346|253:338|253:338|227:335|125:317,1,187.5,8|2,0:0|0:0,0:0:0:0:
135,251,26707,1,2,3:0:0:0:
172,177,26789,2,0,B|179:130|179:130|170:78,1,93.75,4|0,3:0|0:0,0:0:0:0:
267,26,26952,2,0,B|262:77|262:77|277:127,1,93.75,2|0,3:1|0:0,0:0:0:0:
381,124,27115,2,0,B|378:82|378:82|349:20,1,93.75,8|0,0:0|0:0,0:0:0:0:
287,250,27278,6,0,B|326:221|358:226|358:226|391:244|391:244|422:268|418:273,1,123.75000377655,2|0,0:0|0:0,0:0:0:0:
408,263,27598,2,0,B|344:298|344:298|291:268|291:268|260:281|260:281|150:271,1,236.249992790222,2|0,3:1|3:0,0:0:0:0:
118,252,27914,2,0,P|110:212|113:135,1,78.7499975967408,2|2,0:0|3:0,0:0:0:0:
195,101,28072,2,0,B|204:140|204:140|200:218,1,78.7499975967408,4|0,0:0|0:0,0:0:0:0:
5,176,28230,2,0,B|9:130|9:130|54:87|54:87|139:64,2,157.499995193482,8|4|8,0:0|3:0|0:0,0:0:0:0:
19,256,28704,5,4,0:0:0:0:
213,88,28867,2,0,B|221:125|221:125|207:200|207:200|211:243,1,150,2|8,3:1|0:0,0:0:0:0:
310,312,29193,1,2,0:0:0:0:
506,198,29356,2,0,B|435:171|435:171|353:220|353:220|243:186,2,225,4|2|2,3:0|0:0|0:0,0:0:0:0:
443,278,30008,5,4,3:0:0:0:
367,25,30165,2,0,B|368:71|368:71|355:115|355:115|365:220,1,150,2|8,3:1|0:0,0:0:0:0:
214,281,30481,2,0,B|214:240|214:240|198:173,1,75,2|0,0:0|0:0,0:0:0:0:
48,77,30639,6,0,B|36:105|36:105|40:124|34:150,1,75,6|0,0:0|0:0,0:0:0:0:
83,285,30801,2,0,B|117:221|117:221|114:131|114:131|148:68,2,209.999993591309,0|4|8,0:0|3:0|0:0,0:0:0:0:
210,311,31287,1,4,0:0:0:0:
242,159,31450,2,0,B|277:148|277:148|379:144,1,71.2499980974198,2|0,3:1|0:0,0:0:0:0:
335,242,31613,2,0,B|368:228|368:228|397:209,1,71.2499980974198,8|0,0:0|0:0,0:0:0:0:
475,268,31776,2,0,B|486:233|486:233|489:131,1,71.2499980974198,2|0,0:0|0:0,0:0:0:0:
496,87,31939,6,0,B|432:104|432:104|386:91|386:91|341:48|341:48|275:58,2,213.749994292259,4|2|2,3:0|0:0|0:0,0:0:0:0:
312,36,32591,2,0,B|273:53|273:53|218:86,1,75,4|0,3:0|0:0,0:0:0:0:
73,79,32761,2,0,B|106:77|106:77|154:75,1,75,2|0,3:1|0:0,0:0:0:0:
341,122,32931,2,0,B|294:144|283:150|247:160,1,75,8|0,0:0|0:0,0:0:0:0:
75,173,33102,2,0,B|102:167|102:167|192:176,1,75,2|0,3:1|0:0,0:0:0:0:
312,229,33272,5,6,0:0:0:0:
201,321,33528,1,8,0:0:0:0:
201,321,33613,1,0,0:0:0:0:
413,384,33784,2,0,B|420:339|420:339|453:289,1,78.7499975967408,8|0,0:0|0:0,0:0:0:0:
368,219,33954,6,0,B|373:157|373:157|366:110|366:110|390:54|390:54|388:-38,2,225,4|6|6,0:0|0:3|0:3,0:0:0:0:
201,48,34674,1,0,0:0:0:0:
256,192,34768,12,0,35336,2:0:0:0:
443,282,35432,5,4,0:0:0:0:
346,175,35708,1,4,3:0:0:0:
224,321,35984,1,4,3:0:0:0:
201,48,36168,1,0,0:0:0:0:
256,192,36262,12,0,36830,2:0:0:0:
418,80,36926,6,0,B|411:166|411:166|419:206|419:206|410:275|410:275|415:317,2,225,4|0|0,0:0|0:0|0:0,0:0:0:0:
289,328,37715,1,0,0:0:0:0:
256,192,37807,12,0,38363,2:0:0:0:
157,323,38457,5,4,0:0:0:0:
102,183,38735,1,4,3:0:0:0:
134,50,39014,1,4,3:0:0:0:
398,309,39199,6,0,B|406:247|406:247|385:195|385:195|386:159,1,150,8|4,0:0|3:0,0:0:0:0:
415,20,39541,2,0,B|381:50|381:50|324:79|324:79|280:121,1,150,12|0,0:2|0:0,0:0:0:0:
466,116,39884,1,4,3:0:0:0:
466,116,40048,1,4,3:0:0:0:
248,26,40213,1,10,0:0:0:0:
145,218,40378,6,0,B|204:183|246:194|315:221,1,150,0|4,0:0|3:0,0:0:0:0:
86,45,40716,2,0,B|46:67|24:124|41:220,1,150,4|10,3:0|0:0,0:0:0:0:
224,343,41063,2,0,B|178:278|169:188|193:106|268:70,1,300,4|4,0:0|3:0,0:0:0:0:
288,211,41563,5,10,0:0:0:0:
111,111,41729,1,0,0:0:0:0:
111,111,41813,1,8,3:0:0:0:
111,111,41896,1,4,3:0:0:0:
321,19,42063,2,0,B|344:44|386:50|386:50|428:82|432:153,1,150,4|10,3:0|0:0,0:0:0:0:
440,269,42396,1,0,0:0:0:0:
308,172,42563,1,4,0:0:0:0:
445,102,42738,1,0,0:0:0:0:
156,229,42912,5,10,0:0:0:0:
293,320,43087,1,4,3:0:0:0:
216,102,43261,2,0,B|193:33|76:25|21:70,1,187.5,4|8,0:0|0:0,0:0:0:0:
29,90,43523,1,8,0:0:0:0:
85,102,43610,1,8,0:0:0:0:
135,63,43697,1,4,3:0:0:0:
183,14,43784,1,8,0:0:0:0:
255,18,43872,1,8,0:0:0:0:
297,74,43959,1,4,0:0:0:0:
216,102,44959,5,8,0:0:0:0:
216,102,45292,5,4,0:0:0:0:
157,232,45459,1,2,3:1:0:0:
227,368,45625,1,8,0:0:0:0:
398,362,45792,2,0,B|455:342|483:269|447:167|352:237|311:185|339:50,1,330.000010070801,6|2,0:0|3:1,0:0:0:0:
430,120,46292,1,8,0:0:0:0:
359,287,46459,6,2,B|197:381|76:251|76:251|99:209|164:190,1,389.999982147218,6|2,0:0|3:1,0:0:0:0:
219,237,46959,1,12,0:0:0:0:
65,342,47125,1,2,0:0:0:0:
166,131,47292,1,6,0:0:0:0:
161,57,47375,1,0,0:0:0:0:
99,32,47459,1,8,0:0:0:0:
52,61,47542,1,8,0:0:0:0:
37,106,47625,1,8,0:0:0:0:
51,142,47708,1,4,3:0:0:0:
76,162,47792,6,0,B|140:88|222:125|222:125|285:197|396:151,1,330.000010070801,6|2,0:0|3:1,0:0:0:0:
317,65,48292,1,8,0:0:0:0:
423,343,48464,2,0,B|462:392|579:352|488:169|380:193|313:312,1,359.999989013672,6|2,0:0|3:1,0:0:0:0:
135,376,48981,1,8,0:0:0:0:
186,365,49067,1,0,0:0:0:0:
223,325,49154,6,0,B|334:178|163:93|144:168|125:168,1,269.999991760254,6|4,0:0|3:0,0:0:0:0:
345,172,49640,1,8,0:0:0:0:
345,172,49806,1,0,0:0:0:0:
174,249,49973,1,4,0:0:0:0:
11,60,50136,1,0,0:0:0:0:
66,81,50217,1,8,0:0:0:0:
121,59,50299,1,8,0:0:0:0:
169,23,50380,1,8,0:0:0:0:
228,29,50462,1,4,3:0:0:0:
283,51,50543,1,8,0:0:0:0:
323,95,50625,5,4,0:0:0:0:
250,202,50791,1,2,3:1:0:0:
348,329,50958,1,8,0:0:0:0:
40,282,51125,2,0,B|67:216|200:178|172:354|320:257,1,300,6|2,0:0|0:0,0:0:0:0:
353,159,51625,1,8,0:0:0:0:
415,361,51791,6,2,B|503:231|410:98|302:153|233:260|363:325,1,389.999982147218,6|2,0:0|3:1,0:0:0:0:
511,362,52291,1,12,0:0:0:0:
511,362,52458,1,2,0:0:0:0:
329,364,52625,1,6,0:0:0:0:
451,251,52791,1,0,0:0:0:0:
408,193,52875,1,8,0:0:0:0:
435,150,52958,1,4,3:0:0:0:
416,126,53041,1,8,0:0:0:0:
422,108,53125,6,0,B|340:88|269:164|269:164|201:169|118:124,1,300,6|2,0:0|0:0,0:0:0:0:
236,72,53625,1,8,0:0:0:0:
377,328,53791,2,0,B|261:229|96:210|56:364|104:389,1,389.999982147218,6|2,0:0|3:1,0:0:0:0:
184,353,54291,1,8,0:0:0:0:
34,242,54458,6,0,B|-57:147|3:43|3:43|53:50|104:93|98:46,1,300,6|4,0:0|3:0,0:0:0:0:
123,186,54958,1,8,0:0:0:0:
123,186,55124,1,0,0:0:0:0:
236,72,55291,1,4,0:0:0:0:
299,238,55458,1,0,0:0:0:0:
347,255,55541,1,8,0:0:0:0:
400,240,55624,1,8,0:0:0:0:
417,202,55708,1,8,0:0:0:0:
402,161,55791,6,0,B|324:229|395:363|510:313,1,225.000008583069,4|0,0:0|0:0,0:0:0:0:
116,166,56495,2,0,B|193:234|122:368|7:318,1,225.000008583069,4|0,0:0|0:0,0:0:0:0:
251,40,57201,2,0,B|243:77|243:77|252:122|281:170|281:170|263:201|272:268,1,225.000008583069,4|8,0:0|0:0,0:0:0:0:
369,298,57718,1,8,0:0:0:0:
396,166,57890,1,8,0:0:0:0:
158,0,58063,1,12,0:2:0:0:
512,200,58580,6,2,B|477:235|477:235|381:216|381:216|330:217|330:217|282:243|282:243|220:222,1,300,6|2,0:0|0:0,0:0:0:0:
163,122,59078,2,0,B|166:77|205:60|205:60|260:87|255:129,1,150,10|8,0:0|0:0,0:0:0:0:
146,254,59410,1,0,0:0:0:0:
146,254,59576,1,0,0:0:0:0:
57,110,59742,1,8,0:0:0:0:
8,294,59908,6,2,B|73:360|73:360|171:371|171:371|218:336|218:336|300:316,1,300,6|2,0:0|0:0,0:0:0:0:
340,231,60388,2,0,B|291:156|291:156|264:203|277:283,1,150,10|8,0:0|0:0,0:0:0:0:
374,346,60708,1,0,0:0:0:0:
374,346,60868,1,0,0:0:0:0:
512,265,61028,1,8,0:0:0:0:
364,136,61188,6,0,B|364:78|364:78|419:3|419:3|523:23|523:23|541:79|541:79,1,300,6|2,0:0|0:0,0:0:0:0:
512,195,61683,2,0,B|522:228|463:268|463:268|439:239|437:219,1,150,10|8,0:0|0:0,0:0:0:0:
350,37,62014,1,0,0:0:0:0:
350,37,62179,1,0,0:0:0:0:
376,230,62345,1,8,0:0:0:0:
254,90,62510,6,2,B|197:73|197:73|144:54|144:54|90:77|90:77|25:78|25:78|7:179,1,300,6|2,0:0|0:0,0:0:0:0:
165,260,63001,2,0,B|153:206|122:174|122:174|73:230,1,150,10|0,0:0|0:0,0:0:0:0:
5,313,63341,1,8,0:0:0:0:
2,335,63519,1,8,0:0:0:0:
1,355,63696,1,8,0:0:0:0:
144,292,63874,6,0,B|209:237|209:237|280:297|280:297|329:326,1,225.000008583069,4|0,0:0|0:0,0:0:0:0:
428,212,64397,2,0,B|422:192|397:175|397:175|356:184|330:230,1,112.500004291535,4|0,0:2|0:0,0:0:0:0:
417,319,64747,1,12,0:2:0:0:
417,319,64921,1,0,0:0:0:0:
493,137,65096,1,4,0:2:0:0:
277,160,65270,6,0,B|240:115|240:115|215:94|215:94|207:39|207:39|378:15,1,300,4|0,0:0|0:0,0:0:0:0:
393,143,65793,2,0,B|379:214|379:214|338:243|338:243|314:290,1,150,4|0,0:2|0:0,0:0:0:0:
195,205,66142,1,12,0:2:0:0:
195,205,66316,1,0,0:0:0:0:
136,325,66490,1,4,0:2:0:0:
19,263,66665,6,0,B|60:182|60:182|95:176|95:176|121:125|121:125|184:90|184:90|241:104,1,300,4|0,0:0|0:0,0:0:0:0:
36,78,67180,2,0,B|38:38|73:8|73:8|112:8|184:31,1,150,4|0,0:2|0:0,0:0:0:0:
196,203,67525,1,12,0:2:0:0:
196,203,67697,1,0,0:0:0:0:
261,71,67869,1,4,0:2:0:0:
328,273,68041,6,0,B|333:161|333:161|389:103|389:103|391:72|391:72|496:-1,1,300,4|0,0:0|0:0,0:0:0:0:
508,154,68546,2,0,B|493:196|495:233|495:233|456:232|402:174,1,150,4|0,0:2|0:0,0:0:0:0:
253,119,68883,1,8,0:0:0:0:
257,97,69052,1,8,0:0:0:0:
261,71,69220,1,8,0:0:0:0:
161,200,69389,1,4,3:0:0:0:
