osu file format v14

[General]
AudioFilename: audio.mp3
AudioLeadIn: 0
PreviewTime: 45291
Countdown: 0
SampleSet: Normal
StackLeniency: 0.7
Mode: 0
LetterboxInBreaks: 0
WidescreenStoryboard: 1

[Editor]
Bookmarks: 58569
DistanceSpacing: 1
BeatDivisor: 4
GridSize: 4
TimelineZoom: 1.6

[Metadata]
Title:Zetsubou Billy (TV Size)
TitleUnicode:Zetsubou Billy (TV Size)
Artist:Maximum The Hormone
ArtistUnicode:Maximum The Hormone
Creator:Seto Kousuke
Version:Insane
Source:Death Note
Tags:Anime Ending
BeatmapID:1402389
BeatmapSetID:662524

[Difficulty]
HPDrainRate:5
CircleSize:4
OverallDifficulty:8
ApproachRate:9
SliderMultiplier:1.7
SliderTickRate:1

[Events]
//Background and Video events
0,0,"cropped-1920-1080-332761.jpg",0,0
//Break Periods
//Storyboard Layer 0 (Background)
//Storyboard Layer 1 (Fail)
//Storyboard Layer 2 (Pass)
//Storyboard Layer 3 (Foreground)
//Storyboard Sound Samples

[TimingPoints]
296,322.58064516129,4,1,0,60,1,0
2392,315.789473684211,4,1,0,60,1,0
2865,319.488817891374,4,1,0,60,1,0
3024,319.488817891374,4,1,0,60,1,0
7177,309.597523219814,4,1,0,60,1,0
7950,320.341697810998,4,1,0,60,1,0
8110,320.341697810998,4,1,0,60,1,0
12594,318.471337579618,4,1,0,60,1,0
13230,322.58064516129,4,1,0,60,1,0
13230,-133.333333333333,4,1,0,60,0,0
20971,321.71581769437,4,1,0,60,1,0
20971,-133.333333333333,4,1,0,60,0,0
22579,315.789473684211,4,1,0,60,1,0
23526,323.886639676113,4,1,0,60,1,0
24821,325.20325203252,4,1,0,60,1,0
28235,303.643724696356,4,1,0,60,1,0
28690,326.441784548422,4,1,0,60,1,0
30648,320,4,1,0,60,1,0
31288,326.086956521739,4,1,0,60,1,0
32592,335.195530726257,4,1,0,60,1,0
33262,355.029585798817,4,1,0,60,1,0
33929,372.670807453416,4,1,0,60,1,0
34674,379.027163613392,4,1,0,60,1,0
35432,368.324125230203,4,1,0,60,1,0
36168,379.266750948167,4,1,0,60,1,0
36168,-181.818181818181,4,1,0,60,0,0
36926,378.966750948167,4,1,0,60,1,0
39199,342.857142857143,4,1,0,60,1,0
39199,-83.3333333333333,4,1,0,60,0,0
39884,308.800823468863,4,1,0,60,1,0
40347,358.851674641148,4,1,0,60,1,0
41064,333.361191626409,4,1,0,60,1,0
41563,333.361191626409,4,1,0,60,1,0
43230,343.642611683849,4,1,0,60,1,0
45291,333.333333333333,4,1,0,75,1,1
45291,-88.4955752212389,4,1,0,75,0,1
55790,348.837209302326,4,1,0,60,1,0
58580,332.225913621262,4,1,0,60,1,0
58580,-83.3333333333333,4,1,0,60,0,0
58746,332.225913621262,4,1,0,60,1,0
59908,320,4,1,0,60,1,0
59908,-86.9565217391304,4,1,0,60,0,0
60068,320,4,1,0,60,1,0
60388,-86.9565217391304,4,1,0,60,0,0
61188,330.578512396694,4,1,0,60,1,0
61188,-83.3333333333333,4,1,0,60,0,0
61353,330.578512396694,4,1,0,60,1,0
62510,327.868852459016,4,1,0,60,1,0
62510,-83.3333333333333,4,1,0,60,0,0
62673,327.868852459016,4,1,0,60,1,0
63164,355.029585798817,4,1,0,60,1,0
63874,349.243306169965,4,1,0,60,1,0
63874,-117.647058823529,4,1,0,60,0,0
64048,349.243306169965,4,1,0,60,1,0
64397,-117.647058823529,4,1,0,60,0,0
65270,348.837209302326,4,1,0,60,1,0
65270,-117.647058823529,4,1,0,60,0,0
65444,348.837209302326,4,1,0,60,1,0
65792,-117.647058823529,4,1,0,60,0,0
66664,344.43168771527,4,1,0,60,1,0
66664,-117.647058823529,4,1,0,60,0,0
66836,344.43168771527,4,1,0,60,1,0
68041,-117.647058823529,4,1,0,60,0,0
68730,336.322869955157,4,1,0,60,1,0
68898,336.322869955157,4,1,0,60,1,0

[Colours]
Combo1 : 128,64,64
Combo2 : 128,64,0
Combo3 : 128,0,0
Combo4 : 0,64,128
SliderBorder : 196,0,0

[HitObjects]
64,64,296,5,0,0:0:0:0:
64,64,618,1,0,0:0:0:0:
204,152,779,1,0,0:0:0:0:
204,152,941,2,0,L|288:152,1,85
296,316,1263,2,0,L|212:316,1,85
412,324,1586,5,0,0:0:0:0:
412,324,1908,1,0,0:0:0:0:
272,236,2070,1,0,0:0:0:0:
380,116,2231,2,0,L|464:112,1,85
260,244,2549,1,0,0:0:0:0:
424,208,2707,1,0,0:0:0:0:
276,344,2865,6,0,B|244:352|212:336|212:336|160:348|160:348|128:336|88:344,1,170
68,152,3343,1,0,0:0:0:0:
68,152,3503,1,0,0:0:0:0:
140,264,3662,1,0,0:0:0:0:
44,244,3822,1,0,0:0:0:0:
156,172,3982,1,0,0:0:0:0:
268,336,4142,6,0,B|332:344|332:344|368:324|368:324|400:332|448:312,1,170
384,136,4621,1,0,0:0:0:0:
384,136,4781,1,0,0:0:0:0:
312,248,4940,1,0,0:0:0:0:
296,156,5100,1,0,0:0:0:0:
408,228,5260,1,0,0:0:0:0:
312,56,5420,6,0,B|252:56|252:56|204:76|204:76|120:76,1,170
78,267,5899,1,0,0:0:0:0:
78,267,6059,1,0,0:0:0:0:
150,155,6218,1,0,0:0:0:0:
57,170,6378,1,0,0:0:0:0:
165,248,6538,1,0,0:0:0:0:
288,96,6698,6,0,B|344:80|384:96|384:96|416:108|468:96,1,170
454,296,7177,1,0,0:0:0:0:
454,296,7331,1,0,0:0:0:0:
342,170,7486,1,0,0:0:0:0:
281,318,7641,1,0,0:0:0:0:
432,193,7796,1,0,0:0:0:0:
268,327,7950,6,0,B|203:340|148:328|148:328|174:305|172:268,1,170
230,94,8430,1,0,0:0:0:0:
230,94,8590,1,0,0:0:0:0:
260,229,8750,1,0,0:0:0:0:
306,143,8910,1,0,0:0:0:0:
183,177,9071,1,0,0:0:0:0:
294,351,9231,6,0,B|356:386|433:348|433:348|395:335|376:336,1,170
211,304,9711,1,0,0:0:0:0:
211,304,9871,1,0,0:0:0:0:
351,277,10032,1,0,0:0:0:0:
274,230,10192,1,0,0:0:0:0:
294,351,10352,1,0,0:0:0:0:
447,207,10512,6,0,B|461:156|448:120|448:120|427:71|445:30,1,170
260,90,10993,1,0,0:0:0:0:
260,90,11153,1,0,0:0:0:0:
372,163,11313,1,0,0:0:0:0:
346,70,11473,1,0,0:0:0:0:
278,186,11633,1,0,0:0:0:0:
151,39,11793,6,0,P|75:43|32:124,1,170
119,296,12274,1,0,0:0:0:0:
119,296,12434,1,0,0:0:0:0:
125,124,12594,1,0,0:0:0:0:
296,211,12753,1,0,0:0:0:0:
108,115,12912,1,0,0:0:0:0:
315,222,13071,1,0,0:0:0:0:
350,66,13230,6,0,P|352:28|340:0,2,63.7500024318696
270,127,13713,1,0,0:0:0:0:
428,136,13875,2,0,L|492:136,2,63.7500024318696
270,127,14359,1,0,0:0:0:0:
320,216,14520,2,0,L|320:296,1,63.7500024318696
224,216,14842,2,0,L|224:284,1,63.7500024318696
365,130,15165,2,0,P|401:137|428:160,2,63.7500024318696
270,127,15649,1,0,0:0:0:0:
129,220,15810,6,0,P|92:212|64:192,2,63.7500024318696
224,215,16294,1,0,0:0:0:0:
126,87,16455,2,0,L|128:24,2,63.7500024318696
224,215,16939,1,0,0:0:0:0:
328,93,17100,2,0,L|418:93,1,63.7500024318696
391,185,17423,2,0,L|327:185,1,63.7500024318696
184,65,17746,2,0,P|147:72|119:92,2,63.7500024318696
273,22,18229,1,0,0:0:0:0:
327,185,18391,6,0,L|327:261,1,63.7500024318696
286,341,18713,1,0,0:0:0:0:
286,341,18875,1,0,0:0:0:0:
188,204,19036,2,0,L|112:204,1,63.7500024318696
38,260,19359,1,0,0:0:0:0:
38,260,19520,1,0,0:0:0:0:
189,121,19681,6,0,L|262:120,1,63.7500024318696
254,291,20004,2,0,L|190:290,1,63.7500024318696
319,200,20326,1,0,0:0:0:0:
377,291,20488,1,0,0:0:0:0:
437,200,20649,2,0,L|438:136,1,63.7500024318696
317,30,20971,6,0,P|307:66|312:100,1,63.7500024318696
479,66,21292,2,0,P|443:56|409:62,1,63.7500024318696
319,200,21614,2,0,L|243:200,1,63.7500024318696
169,151,21936,1,0,0:0:0:0:
169,151,22097,1,0,0:0:0:0:
83,277,22257,2,0,L|84:352,1,63.7500024318696
80,173,22579,1,0,0:0:0:0:
96,185,22894,5,0,0:0:0:0:
243,173,23052,1,0,0:0:0:0:
157,70,23210,1,0,0:0:0:0:
96,185,23368,1,0,0:0:0:0:
218,303,23526,6,0,B|249:313|249:313|318:311,1,85
370,274,23768,1,0,0:0:0:0:
370,274,23849,2,0,P|384:232|371:188,1,85
311,150,24092,1,0,0:0:0:0:
311,150,24173,2,0,P|297:192|310:236,1,85
385,112,24497,1,0,0:0:0:0:
262,17,24659,2,0,B|203:17|203:17|183:25|183:25|105:28,1,127.5
90,36,24983,1,0,0:0:0:0:
33,114,25146,2,0,P|23:157|32:203,1,85
96,279,25471,5,0,0:0:0:0:
233,275,25634,1,0,0:0:0:0:
161,167,25796,1,0,0:0:0:0:
96,279,25959,1,0,0:0:0:0:
274,352,26121,6,0,P|307:322|317:278,1,85
291,215,26365,1,0,0:0:0:0:
291,215,26447,2,0,P|288:170|312:131,1,85
379,110,26690,1,0,0:0:0:0:
379,110,26772,2,0,P|381:154|357:193,1,85
314,57,27097,1,0,0:0:0:0:
197,171,27260,6,0,B|170:166|148:179|148:179|132:171|132:171|93:188|39:175,1,127.5
27,180,27585,1,0,0:0:0:0:
131,58,27747,2,0,L|217:58,1,85
314,57,28073,1,0,0:0:0:0:
406,202,28235,1,0,0:0:0:0:
303,42,28386,1,0,0:0:0:0:
415,218,28538,1,0,0:0:0:0:
228,160,28690,6,0,B|198:158|198:158|118:180,1,85
90,227,28934,1,0,0:0:0:0:
90,227,29016,2,0,P|78:269|92:316,1,85
163,373,29342,1,0,0:0:0:0:
240,308,29506,1,0,0:0:0:0:
316,375,29669,1,0,0:0:0:0:
427,261,29832,6,0,B|434:218|434:218|423:183|423:183|425:102,1,127.5
426,89,30158,1,0,0:0:0:0:
344,24,30322,2,0,P|295:14|251:26,1,85
172,63,30648,1,0,0:0:0:0:
130,224,30808,1,0,0:0:0:0:
284,178,30968,1,0,0:0:0:0:
172,63,31128,1,0,0:0:0:0:
39,206,31288,6,0,P|36:250|56:288,1,85
298,257,31614,2,0,P|301:213|281:175,1,85
142,357,31940,2,0,P|186:360|224:340,1,85
207,95,32266,2,0,P|163:92|125:112,1,85
53,285,32592,5,0,0:0:0:0:
180,190,32759,1,0,0:0:0:0:
221,342,32927,1,0,0:0:0:0:
81,191,33094,1,0,0:0:0:0:
264,232,33262,5,0,0:0:0:0:
112,368,33439,1,0,0:0:0:0:
112,368,33528,1,0,0:0:0:0:
112,368,33617,1,0,0:0:0:0:
180,190,33794,1,0,0:0:0:0:
181,236,33883,1,0,0:0:0:0:
182,282,33929,6,0,B|188:368|188:368|244:324,1,127.5
360,170,34488,1,0,0:0:0:0:
423,246,34674,2,0,B|363:279|301:241|301:241|247:202|157:244,1,255
259,92,35432,1,0,0:0:0:0:
254,188,35708,1,0,0:0:0:0:
252,283,35984,1,0,0:0:0:0:
86,237,36168,6,0,L|193:234,1,93.5000028533936
443,41,36926,6,0,P|391:23|324:61,1,127.5
362,278,37494,1,0,0:0:0:0:
431,197,37683,2,0,B|400:166|323:169|294:200|294:200|250:162|190:185,1,255
154,348,38441,1,0,0:0:0:0:
233,279,38726,1,0,0:0:0:0:
194,183,39010,1,0,0:0:0:0:
400,356,39199,6,0,B|468:356|468:356|500:316,2,101.999996887207
278,203,39884,5,0,0:0:0:0:
351,125,40038,1,0,0:0:0:0:
467,240,40192,1,0,0:0:0:0:
263,202,40347,1,0,0:0:0:0:
252,202,40436,1,0,0:0:0:0:
241,202,40526,1,0,0:0:0:0:
364,116,40705,1,0,0:0:0:0:
469,257,40885,1,0,0:0:0:0:
439,54,41064,6,0,P|361:19|281:64,1,170
252,202,41563,1,0,0:0:0:0:
430,135,41729,1,0,0:0:0:0:
441,135,41813,1,0,0:0:0:0:
452,135,41896,1,0,0:0:0:0:
275,47,42063,1,0,0:0:0:0:
370,220,42229,1,0,0:0:0:0:
434,38,42396,1,0,0:0:0:0:
434,38,42479,1,0,0:0:0:0:
434,38,42563,6,0,P|356:17|266:54,1,170
203,118,43063,1,0,0:0:0:0:
101,71,43230,1,0,0:0:0:0:
43,229,43401,1,0,0:0:0:0:
42,250,43487,1,0,0:0:0:0:
42,271,43573,1,0,0:0:0:0:
42,292,43659,1,0,0:0:0:0:
41,313,43745,1,0,0:0:0:0:
41,335,43831,1,0,0:0:0:0:
41,356,43917,5,0,0:0:0:0:
256,192,44003,12,0,44948,0:0:0:0:
206,109,45291,5,0,0:0:0:0:
359,49,45457,1,0,0:0:0:0:
332,213,45624,1,0,0:0:0:0:
267,28,45791,2,0,B|186:0|132:41|132:41|160:27|192:32,1,192.100000586243
359,49,46291,1,0,0:0:0:0:
407,233,46457,6,0,B|419:266|419:266|476:179|419:102,1,192.100000586243
271,26,46957,2,0,P|220:15|172:35,1,96.0500002931213
57,139,47291,2,0,L|9:149,2,48.0250001465607
92,149,47541,1,0,0:0:0:0:
110,179,47624,1,0,0:0:0:0:
117,214,47707,1,0,0:0:0:0:
110,249,47791,6,0,B|106:287|88:311|88:311|73:335|87:376|87:376|103:345|148:338,1,192.100000586243
268,209,48291,1,0,0:0:0:0:
404,349,48457,2,0,B|358:363|315:337|315:337|281:316|217:323,1,192.100000586243
358,244,48957,1,0,0:0:0:0:
256,94,49124,6,0,B|257:128|239:160|239:160|224:191|250:242|250:242|276:192,1,192.100000586243
357,67,49624,1,0,0:0:0:0:
427,158,49790,1,0,0:0:0:0:
256,94,49957,1,0,0:0:0:0:
358,244,50124,1,0,0:0:0:0:
352,219,50207,1,0,0:0:0:0:
349,195,50290,1,0,0:0:0:0:
345,171,50374,1,0,0:0:0:0:
342,147,50457,1,0,0:0:0:0:
336,124,50540,1,0,0:0:0:0:
332,100,50624,5,0,0:0:0:0:
243,246,50790,1,0,0:0:0:0:
176,88,50957,1,0,0:0:0:0:
115,249,51124,2,0,B|169:243|202:269|202:269|240:277|270:253|270:253|215:238,1,192.100000586243
176,88,51624,1,0,0:0:0:0:
1,171,51790,6,0,B|47:188|93:172|93:172|144:157|200:178,1,192.100000586243
380,177,52290,1,0,0:0:0:0:
225,83,52457,1,0,0:0:0:0:
333,251,52624,2,0,L|381:253,2,48.0250001465607
302,232,52874,1,0,0:0:0:0:
293,198,52957,1,0,0:0:0:0:
295,163,53040,1,0,0:0:0:0:
311,131,53124,6,0,P|326:82|311:40,1,96.0500002931213
116,28,53457,1,0,0:0:0:0:
225,83,53624,1,0,0:0:0:0:
108,199,53790,2,0,P|58:208|2:194,1,96.0500002931213
208,183,54124,1,0,0:0:0:0:
140,334,54290,1,0,0:0:0:0:
296,270,54457,2,0,L|394:269,1,96.0500002931213
387,64,54790,5,0,0:0:0:0:
308,165,54957,1,0,0:0:0:0:
444,171,55124,1,0,0:0:0:0:
280,68,55290,1,0,0:0:0:0:
248,61,55374,1,0,0:0:0:0:
216,60,55457,1,0,0:0:0:0:
185,68,55540,1,0,0:0:0:0:
155,79,55624,1,0,0:0:0:0:
123,78,55707,1,0,0:0:0:0:
93,69,55790,5,0,0:0:0:0:
413,73,56487,1,0,0:0:0:0:
93,69,57185,5,0,0:0:0:0:
83,91,57534,5,0,0:0:0:0:
132,176,57708,1,0,0:0:0:0:
58,266,57883,1,0,0:0:0:0:
153,362,58057,1,0,0:0:0:0:
236,31,58580,6,0,B|242:55|227:83|227:83|239:113|239:113|202:169|242:234,1,203.999993774414
429,176,59078,1,0,0:0:0:0:
429,176,59244,1,0,0:0:0:0:
336,276,59410,1,0,0:0:0:0:
331,176,59576,1,0,0:0:0:0:
424,271,59742,1,0,0:0:0:0:
236,224,59908,6,0,B|180:208|150:222|150:222|111:238|81:216|81:216|103:215|122:202,1,195.500003728867
196,19,60388,1,0,0:0:0:0:
196,19,60548,1,0,0:0:0:0:
296,112,60708,1,0,0:0:0:0:
196,117,60868,1,0,0:0:0:0:
291,23,61028,1,0,0:0:0:0:
449,143,61188,6,0,B|469:200|451:243|451:243|420:296|458:358,1,203.999993774414
296,206,61683,1,0,0:0:0:0:
296,206,61848,1,0,0:0:0:0:
196,299,62014,1,0,0:0:0:0:
296,304,62179,1,0,0:0:0:0:
200,211,62344,1,0,0:0:0:0:
399,264,62510,6,0,P|445:284|396:248,1,203.999993774414
246,369,63000,1,0,0:0:0:0:
246,369,63164,1,0,0:0:0:0:
312,175,63341,1,0,0:0:0:0:
379,355,63519,1,0,0:0:0:0:
309,155,63696,1,0,0:0:0:0:
176,307,63874,6,0,B|148:313|115:309|115:309|93:296|93:296|65:285|12:296,1,144.500002756119
153,146,64397,2,0,L|151:248,1,72.2500013780594
126,51,64746,1,0,0:0:0:0:
61,126,64921,1,0,0:0:0:0:
212,69,65095,1,0,0:0:0:0:
350,195,65270,6,0,B|361:227|361:227|331:222|306:233|306:233|278:218|252:228,1,144.500002756119
341,374,65792,2,0,L|340:292,1,72.2500013780594
449,180,66141,1,0,0:0:0:0:
446,274,66316,1,0,0:0:0:0:
442,369,66490,1,0,0:0:0:0:
376,221,66664,6,0,P|312:213|260:272,1,144.500002756119
101,344,67180,1,0,0:0:0:0:
202,344,67352,1,0,0:0:0:0:
154,255,67524,1,0,0:0:0:0:
101,344,67697,1,0,0:0:0:0:
202,344,67869,1,0,0:0:0:0:
315,189,68041,6,0,B|327:140|316:114|316:114|301:83|316:40,1,144.500002756119
499,113,68558,5,0,0:0:0:0:
406,28,68730,1,0,0:0:0:0:
496,213,68898,5,0,0:0:0:0:
403,128,69066,1,0,0:0:0:0:
499,24,69234,5,0,0:0:0:0:
401,226,69402,1,0,0:0:0:0:
