osu file format v14

[General]
AudioFilename: audio.mp3
AudioLeadIn: 0
PreviewTime: 60140
Countdown: 1
SampleSet: None
StackLeniency: 0.7
Mode: 0
LetterboxInBreaks: 1
WidescreenStoryboard: 1

[Editor]
DistanceSpacing: 1.4
BeatDivisor: 4
GridSize: 8
TimelineZoom: 2.699999

[Metadata]
Title:Chu Chu Lovely Muni Muni Mura Mura Purin Purin Boron Nururu Rero Rero
TitleUnicode:Chu Chu Lovely Muni Muni Mura Mura Purin Purin Boron Nururu Rero Rero
Artist:Maximum The Hormone
ArtistUnicode:Maximum The Hormone
Creator:OK_oreGENKI
Version:None(CS2)
Source:
Tags:
BeatmapID:2067197
BeatmapSetID:588308

[Difficulty]
HPDrainRate:6
CircleSize:2
OverallDifficulty:7
ApproachRate:9
SliderMultiplier:1.9
SliderTickRate:1

[Events]
//Background and Video events
0,0,"BG.jpg",0,0
//Break Periods
//Storyboard Layer 0 (Background)
//Storyboard Layer 1 (Fail)
//Storyboard Layer 2 (Pass)
//Storyboard Layer 3 (Foreground)
//Storyboard Sound Samples

[TimingPoints]
156,232.378001549187,4,2,4,70,1,0
1086,232.378001549187,4,2,4,76,1,0
15958,229.007633587786,4,2,4,70,1,0
23286,226.415094339623,4,2,4,70,1,0
30522,463.320463320463,4,2,4,60,1,0
37942,232.327807985086,4,2,4,70,1,0
45388,232.327807985086,4,2,4,70,1,0
60256,233.327807985086,4,2,4,70,1,0
75188,227.272727272727,4,2,4,70,1,0
89733,464.2166344294,4,2,4,50,1,0
97160,232.1083172147,4,2,4,70,1,0
104587,232.427807985086,4,2,4,70,1,0
119462,232.727807985086,4,2,4,70,1,0
138080,476.190476190476,4,2,4,70,1,0
145699,234.375,4,2,4,70,1,0
153199,240,4,2,4,70,1,0
155149,243.90243902439,4,2,4,70,1,0
157100,245.901639344262,4,2,4,70,1,0
161034,487.80487804878,4,2,4,70,1,0
168838,232.558139534884,4,2,4,70,1,0
176279,234.375,4,2,4,70,1,0
176279,-76.9230769230769,4,2,4,80,0,0
180029,230.769230769231,4,2,4,70,1,0
180029,-76.9230769230769,4,2,4,80,0,0

[Colours]
Combo1 : 255,155,155
Combo2 : 255,192,162
Combo3 : 255,243,238

[HitObjects]
44,283,156,5,0,0:0:0:0:
44,283,388,1,0,0:0:0:0:
44,283,621,1,0,0:0:0:0:
44,283,853,1,0,0:0:0:0:
44,283,1086,6,0,P|119:298|148:264,1,95,4|0,1:2|0:0,0:0:0:0:
233,227,1318,2,0,P|312:246|317:294,1,95,10|0,0:0|0:0,0:0:0:0:
366,361,1550,1,0,1:0:0:0:
439,262,1666,1,0,1:0:0:0:
314,250,1783,6,0,L|193:262,1,95,10|0,0:0|0:0,0:0:0:0:
104,303,2015,2,0,P|70:260|78:200,1,95,2|0,1:0|0:0,0:0:0:0:
169,86,2247,5,10,0:0:0:0:
292,100,2364,2,0,L|397:113,1,95,2|0,1:0|0:0,0:0:0:0:
219,195,2596,1,0,1:0:0:0:
108,252,2713,2,2,P|33:231|-5:123,1,190,8|2,0:0|1:0,0:1:0:0:
421,67,3177,5,10,0:0:0:0:
421,67,3409,1,0,1:0:0:0:
421,67,3642,1,10,0:0:0:0:
421,67,3874,6,0,L|407:200,1,95,0|0,1:0|0:0,0:0:0:0:
336,268,4106,1,10,0:0:0:0:
240,208,4223,2,0,P|192:192|144:256,1,95,0|0,1:0|0:0,0:0:0:0:
80,320,4455,1,0,1:0:0:0:
185,363,4571,1,10,0:0:0:0:
290,320,4687,1,0,0:0:0:0:
334,214,4804,6,0,P|351:161|320:96,1,95,0|0,1:0|0:0,0:0:0:0:
171,45,5036,2,0,P|178:100|235:144,1,95,10|0,0:0|0:0,0:0:0:0:
320,168,5268,1,0,1:0:0:0:
437,131,5384,1,0,1:0:0:0:
344,48,5501,6,0,L|344:153,1,95,10|0,0:0|0:0,0:0:0:0:
203,129,5733,2,0,L|203:224,1,95,2|0,1:0|0:0,0:0:0:0:
293,308,5965,5,10,0:0:0:0:
411,345,6082,2,0,P|467:337|493:292,1,95,2|0,1:0|0:0,0:0:0:0:
378,227,6314,1,0,1:0:0:0:
258,196,6430,2,2,L|36:210,1,190,10|2,0:0|1:0,0:1:0:0:
399,163,6895,5,10,0:0:0:0:
399,163,7127,1,0,1:0:0:0:
399,163,7360,1,10,0:0:0:0:
399,163,7592,6,0,P|335:162|313:98,1,95,0|0,1:0|0:0,0:0:0:0:
416,67,7824,1,10,0:0:0:0:
495,134,7941,2,0,P|504:175|471:230,1,95,0|0,1:0|0:0,0:0:0:0:
388,259,8173,1,0,1:0:0:0:
296,221,8289,1,10,0:0:0:0:
258,128,8405,1,0,0:0:0:0:
296,36,8522,6,0,L|408:41,1,95,4|0,1:2|0:0,0:0:0:0:
158,136,8754,2,0,L|270:141,1,95,10|0,0:0|0:0,0:0:0:0:
20,236,8986,5,0,1:0:0:0:
120,260,9103,1,0,1:0:0:0:
210,205,9219,1,10,0:0:0:0:
234,103,9335,1,0,0:0:0:0:
180,14,9451,6,0,L|64:25,1,95,2|0,1:0|0:0,0:0:0:0:
0,108,9683,1,10,0:0:0:0:
111,162,9800,2,0,P|134:223|122:258,1,95,2|0,1:0|0:0,0:0:0:0:
64,352,10032,1,0,1:0:0:0:
183,365,10148,2,2,L|291:354,2,95,10|0|2,0:0|0:0|1:0,0:1:0:0:
480,192,10613,5,10,0:0:0:0:
256,32,10845,1,0,1:0:0:0:
32,192,11078,1,10,0:0:0:0:
480,192,11310,6,0,L|370:110,1,95,0|0,1:0|0:0,0:0:0:0:
333,87,11543,1,10,0:0:0:0:
256,32,11659,2,0,L|171:92,1,95,0|0,1:0|0:0,0:0:0:0:
108,135,11891,1,0,1:0:0:0:
32,192,12007,1,10,0:0:0:0:
108,248,12123,1,0,0:0:0:0:
188,300,12240,6,0,P|136:343|83:341,1,95,0|0,1:0|0:0,0:0:0:0:
191,191,12472,2,0,P|243:148|296:150,1,95,10|0,0:0|0:0,0:0:0:0:
352,221,12704,1,0,1:0:0:0:
455,166,12821,1,0,1:0:0:0:
428,52,12937,1,10,0:0:0:0:
315,40,13053,1,0,0:0:0:0:
361,129,13169,6,0,P|382:93|373:27,1,95,2|0,1:0|0:0,0:0:0:0:
189,124,13402,1,10,0:0:0:0:
143,213,13518,2,0,P|122:177|131:111,1,95,2|0,1:0|0:0,0:0:0:0:
330,227,13750,1,0,1:0:0:0:
376,316,13866,2,2,P|397:280|388:214,2,95,10|0|2,0:0|0:0|1:0,0:1:0:0:
48,192,14331,5,10,0:0:0:0:
464,192,14563,1,0,1:0:0:0:
48,192,14796,1,10,0:0:0:0:
464,192,15028,6,0,P|441:124|402:102,1,95,0|8,1:0|0:0,0:0:0:0:
333,62,15260,1,8,1:2:0:0:
241,100,15377,1,8,0:0:0:0:
203,192,15493,1,8,1:2:0:0:
151,283,15609,1,8,0:0:0:0:
56,245,15726,1,8,1:2:0:0:
17,154,15842,1,8,0:0:0:0:
53,61,15958,6,0,P|128:80|176:48,1,95,0|0,1:0|0:0,0:0:0:0:
256,16,16187,1,8,0:0:0:0:
240,144,16301,1,0,0:0:0:0:
355,85,16416,1,0,1:0:0:0:
339,213,16530,1,0,1:0:0:0:
454,154,16645,2,0,P|478:159|524:253,1,95,8|0,0:0|0:0,0:0:0:0:
267,300,16874,6,0,P|221:310|144:265,1,95,0|0,1:0|1:0,0:0:0:0:
40,176,17103,1,8,0:0:0:0:
144,192,17217,1,0,1:0:0:0:
304,96,17332,1,0,0:0:0:0:
208,112,17446,1,0,1:0:0:0:
112,128,17561,2,0,P|64:176|64:240,1,95,8|0,0:0|0:0,0:0:0:0:
192,384,17790,6,0,L|224:256,1,95,0|0,1:0|1:0,0:0:0:0:
320,224,18019,1,8,0:0:0:0:
320,224,18133,1,0,1:0:0:0:
240,128,18248,1,0,0:0:0:0:
240,128,18362,1,0,1:0:0:0:
128,176,18477,2,0,P|80:144|80:80,1,95,8|0,0:0|0:0,0:0:0:0:
160,16,18706,6,0,L|384:32,1,190,0|8,1:0|0:0,0:0:0:0:
352,368,19164,2,0,L|128:352,1,190,0|8,0:0|0:0,0:0:0:0:
31,82,19622,6,0,P|80:70|127:181,1,190,0|8,1:0|0:0,0:0:0:0:
55,272,19965,2,0,L|181:286,1,95,0|0,1:0|0:0,0:0:0:0:
255,305,20194,2,0,P|274:254|258:200,1,95,0|8,1:0|0:0,0:0:0:0:
222,99,20423,1,0,0:0:0:0:
101,129,20538,6,0,P|75:85|85:20,1,95,0|0,1:0|1:0,0:0:0:0:
0,208,20767,2,0,P|26:252|16:317,1,95,8|0,0:0|1:0,0:0:0:0:
337,251,20996,1,0,0:0:0:0:
234,269,21110,1,0,1:0:0:0:
148,207,21225,1,8,0:0:0:0:
131,105,21339,1,0,0:0:0:0:
192,20,21454,6,0,P|80:0|80:0,1,95,0|0,1:0|1:0,0:0:0:0:
262,137,21683,1,8,0:0:0:0:
380,103,21797,2,0,P|416:94|483:118,1,95,0|0,1:0|0:0,0:0:0:0:
183,243,22026,2,0,P|101:252|43:142,1,190,0|0,1:0|0:0,0:0:0:0:
280,66,22370,5,8,1:2:0:0:
331,141,22484,1,8,0:0:0:0:
381,215,22599,1,8,1:2:0:0:
306,267,22713,1,8,0:0:0:0:
231,317,22828,1,8,1:2:0:0:
180,242,22942,1,8,0:0:0:0:
130,167,23057,1,8,1:2:0:0:
205,116,23171,1,8,0:0:0:0:
280,66,23286,5,0,1:0:0:0:
280,66,23399,2,0,P|182:76|149:-2,1,190,8|8,0:0|0:0,0:0:0:0:
134,234,23738,1,0,1:0:0:0:
134,234,23851,2,0,P|192:314|141:381,1,190,8|8,0:0|0:0,0:0:0:0:
353,275,24191,1,0,1:0:0:0:
353,275,24304,2,0,P|393:185|477:196,1,190,8|8,0:0|0:0,0:0:0:0:
48,320,24644,5,0,1:0:0:0:
48,320,24757,2,0,L|80:96,1,190,8|8,0:0|0:0,0:0:0:0:
464,64,25097,1,0,1:0:0:0:
464,64,25210,2,0,L|432:288,1,190,8|8,0:0|0:0,0:0:0:0:
0,352,25550,1,0,1:0:0:0:
0,352,25663,2,0,L|32:128,1,190,8|8,0:0|0:0,0:0:0:0:
512,32,26002,6,0,L|480:256,2,190,0|4|4,1:0|1:2|1:2,0:0:0:0:
162,163,26908,6,0,P|64:159|41:75,1,190,4|0,1:2|0:0,0:0:0:0:
38,82,27248,1,8,0:0:0:0:
285,98,27361,2,0,P|289:0|362:7,1,190,0|0,1:0|1:0,0:0:0:0:
358,4,27701,1,8,0:0:0:0:
350,221,27814,2,0,P|448:225|471:309,1,190,0|0,1:0|0:0,0:0:0:0:
473,301,28154,1,8,0:0:0:0:
219,300,28267,6,0,L|16:312,1,190,0|0,1:0|1:0,0:0:0:0:
29,311,28607,1,8,0:0:0:0:
293,84,28719,2,0,L|496:72,1,190,0|0,1:0|0:0,0:0:0:0:
483,73,29059,1,8,0:0:0:0:
171,240,29172,2,0,P|73:236|50:152,1,190,0|0,1:0|1:0,0:0:0:0:
48,159,29512,1,8,0:0:0:0:
216,50,29625,5,0,1:0:0:0:
216,50,29738,1,8,0:0:0:0:
267,119,29852,1,8,1:2:0:0:
267,119,29965,1,8,0:0:0:0:
216,188,30078,1,8,1:2:0:0:
216,188,30191,1,8,0:0:0:0:
134,162,30304,1,8,1:2:0:0:
134,162,30418,1,8,0:0:0:0:
135,76,30522,5,4,1:2:0:0:
216,50,30985,1,0,1:0:0:0:
267,119,31448,1,0,1:0:0:0:
216,188,31911,1,0,1:0:0:0:
134,162,32375,6,0,P|66:167|36:226,1,95,8|8,1:2|0:0,0:0:0:0:
202,254,32838,1,0,1:0:0:0:
351,92,33301,2,0,L|496:83,2,142.5,0|0|0,1:0|0:0|0:0,0:0:0:0:
51,309,34228,6,0,P|89:282|135:287,1,95,0|8,1:0|0:0,0:0:0:0:
217,313,34691,1,0,1:0:0:0:
268,244,35155,1,0,1:0:0:0:
217,175,35618,1,0,1:0:0:0:
136,201,36081,6,0,P|100:175|87:103,1,95,8|8,1:2|0:0,0:0:0:0:
179,39,36545,1,0,1:0:0:0:
442,164,37008,2,0,P|459:253|422:316,2,142.5,0|0|0,1:0|0:0|0:0,0:0:0:0:
208,160,37942,6,0,P|80:128|80:64,1,190,4|0,1:2|1:0,0:0:0:0:
172,53,38290,1,0,0:0:0:0:
172,53,38406,2,0,P|216:102|268:71,1,95,8|0,0:0|0:0,0:0:0:0:
348,61,38638,2,0,L|335:175,1,95,0|8,0:0|0:0,0:0:0:0:
255,202,38871,5,0,0:0:0:0:
255,202,38987,1,8,0:0:0:0:
337,252,39103,1,0,1:0:0:0:
337,252,39219,1,0,0:0:0:0:
249,303,39335,2,0,P|169:256|157:221,1,95,8|0,0:0|0:0,0:0:0:0:
131,166,39568,1,0,0:0:0:0:
58,248,39684,1,8,0:0:0:0:
12,147,39800,6,0,L|19:26,1,95,0|0,1:0|0:0,0:0:0:0:
71,13,40032,2,0,L|64:134,1,95,0|0,1:0|0:0,0:0:0:0:
119,147,40265,2,0,L|126:26,1,95,8|0,0:0|0:0,0:0:0:0:
178,13,40497,2,0,L|171:134,1,95,0|8,1:0|0:0,0:0:0:0:
218,156,40729,6,0,P|363:135|328:30,2,285
32,124,41659,6,0,P|-5:191|75:292,1,190,0|0,1:0|1:0,0:0:0:0:
152,223,42007,1,0,0:0:0:0:
152,223,42123,2,0,P|207:232|231:301,1,95,8|0,0:0|0:0,0:0:0:0:
318,341,42356,2,0,P|378:329|402:275,1,95,0|8,1:0|0:0,0:0:0:0:
319,214,42588,5,0,0:0:0:0:
267,256,42704,1,8,0:0:0:0:
267,322,42821,1,0,1:0:0:0:
319,363,42937,1,0,0:0:0:0:
384,349,43053,2,0,P|435:325|486:352,1,95,8|0,0:0|1:0,0:0:0:0:
512,375,43285,1,0,0:0:0:0:
478,317,43401,1,8,0:0:0:0:
439,263,43517,6,0,L|329:253,1,95,0|0,1:0|0:0,0:0:0:0:
402,205,43750,2,0,L|307:196,1,95,0|0,1:0|0:0,0:0:0:0:
365,147,43982,2,0,L|270:138,1,95,8|0,0:0|0:0,0:0:0:0:
327,88,44214,2,0,L|232:79,1,95,0|8,1:0|0:0,0:0:0:0:
289,29,44447,6,0,L|-9:5,2,285,8|0|8,0:0|0:0|0:0,0:0:0:0:
487,173,45388,6,0,P|425:249|317:218,1,190,4|0,1:2|1:0,0:0:0:0:
291,204,45736,1,0,0:0:0:0:
291,204,45794,1,0,0:0:0:0:
291,204,45852,1,8,0:0:0:0:
221,186,45968,1,0,1:0:0:0:
164,230,46084,1,0,0:0:0:0:
163,301,46201,1,8,0:0:0:0:
218,346,46317,6,0,P|226:248|126:195,1,190,4|0,1:2|1:0,0:0:0:0:
98,187,46665,1,0,0:0:0:0:
98,187,46723,1,0,0:0:0:0:
98,187,46781,1,8,0:0:0:0:
35,152,46897,1,0,1:0:0:0:
24,81,47013,1,0,0:0:0:0:
73,29,47130,1,8,0:0:0:0:
143,35,47246,6,0,P|233:72|312:7,1,190,4|0,1:2|1:0,0:0:0:0:
384,80,47595,1,0,0:0:0:0:
400,64,47711,1,8,0:0:0:0:
400,176,47827,1,0,1:0:0:0:
416,160,47943,1,0,0:0:0:0:
416,272,48059,1,8,0:0:0:0:
432,256,48175,6,0,P|336:272|352:352,1,190,4|0,1:2|1:0,0:0:0:0:
80,128,48524,2,0,P|176:112|160:32,1,190,0|0,0:0|1:0,0:0:0:0:
370,59,48872,6,0,L|382:156,1,95,0|8,0:0|0:0,0:0:0:0:
276,326,49105,2,0,P|165:330|108:250,1,190,4|0,1:2|1:0,0:0:0:0:
18,57,49453,2,0,B|52:20|52:20|46:116|110:167,1,190,0|0,0:0|1:0,0:0:0:0:
254,216,49802,2,0,L|349:214,1,95,0|8,0:0|0:0,0:0:0:0:
488,202,50034,6,0,P|395:292|434:350,1,190,4|0,1:2|1:0,0:0:0:0:
276,165,50383,2,0,P|271:35|202:25,1,190,8|0,0:0|1:0,0:0:0:0:
192,384,50731,2,0,P|162:351|163:268,1,95,0|8,0:0|0:0,0:0:0:0:
32,144,50963,5,4,1:2:0:0:
48,112,51080,1,0,0:0:0:0:
144,80,51196,1,0,1:0:0:0:
128,48,51313,1,0,0:0:0:0:
240,112,51428,1,8,0:0:0:0:
224,144,51545,1,0,1:0:0:0:
128,176,51660,1,0,0:0:0:0:
144,208,51777,1,8,0:0:0:0:
160,240,51893,6,0,L|391:226,1,190,4|0,1:2|1:0,0:0:0:0:
96,344,52241,2,0,P|57:324|53:239,1,95,0|8,0:0|0:0,0:0:0:0:
210,121,52473,6,0,P|225:161|214:233,2,95,0|8|8,1:0|0:0|0:0,0:0:0:0:
14,56,52822,2,0,P|8:138|112:180,1,190,0|0,1:0|1:0,0:0:0:0:
188,252,53170,5,0,0:0:0:0:
221,152,53287,1,8,0:0:0:0:
188,252,53403,1,0,1:0:0:0:
221,152,53519,1,0,0:0:0:0:
188,252,53635,1,8,0:0:0:0:
221,152,53751,6,0,L|438:141,1,190,4|0,1:2|1:0,0:0:0:0:
498,201,54100,5,0,0:0:0:0:
403,245,54216,1,8,0:0:0:0:
498,201,54332,1,0,1:0:0:0:
403,245,54448,1,0,0:0:0:0:
498,201,54564,1,8,0:0:0:0:
403,245,54681,6,0,P|319:197|336:92,1,190,4|0,1:2|1:0,0:0:0:0:
37,52,55029,2,0,P|133:88|130:200,1,190,0|0,0:0|1:0,0:0:0:0:
257,373,55378,2,0,P|274:333|257:250,1,95,0|8,0:0|0:0,0:0:0:0:
493,99,55610,6,0,P|391:79|312:168,1,190,4|0,1:2|1:0,0:0:0:0:
343,332,55958,2,0,P|261:364|174:290,1,190,0|0,0:0|1:0,0:0:0:0:
27,136,56307,2,0,P|83:133|121:160,1,95,0|8,0:0|0:0,0:0:0:0:
345,357,56539,6,0,P|419:312|429:203,1,190,4|0,1:2|1:0,0:0:0:0:
338,84,56888,1,0,0:0:0:0:
338,84,57004,1,8,0:0:0:0:
491,134,57120,1,0,1:0:0:0:
491,134,57236,1,0,0:0:0:0:
338,84,57352,1,8,0:0:0:0:
338,84,57469,6,0,P|251:76|179:159,1,190,4|0,1:2|1:0,0:0:0:0:
183,308,57818,1,0,0:0:0:0:
183,308,57934,1,8,0:0:0:0:
88,178,58050,1,0,1:0:0:0:
88,178,58166,1,0,0:0:0:0:
183,308,58282,1,8,0:0:0:0:
183,308,58398,6,0,P|279:332|341:234,1,190,4|0,1:2|1:0,0:0:0:0:
471,29,58746,2,0,P|360:57|351:129,1,190,0|0,0:0|1:0,0:0:0:0:
274,383,59095,2,0,P|241:347|238:278,1,95,8|0,0:0|0:0,0:0:0:0:
198,60,59327,5,12,1:2:0:0:
280,106,59443,1,8,0:0:0:0:
192,158,59559,1,8,1:2:0:0:
172,251,59675,1,8,0:0:0:0:
95,185,59792,1,8,0:3:0:0:
1,195,59908,1,0,0:0:0:0:
41,101,60024,1,4,0:3:0:0:
2,14,60140,1,0,0:0:0:0:
104,23,60256,5,4,1:2:0:0:
408,361,61189,5,4,1:2:0:0:
104,23,62122,5,4,1:2:0:0:
408,361,63055,5,8,0:0:0:0:
408,361,63405,1,8,0:3:0:0:
408,361,63755,1,4,0:3:0:0:
181,162,63989,5,4,1:2:0:0:
332,222,64455,1,0,1:0:0:0:
144,256,64922,1,4,1:2:0:0:
368,128,65389,1,0,1:0:0:0:
58,201,65855,1,4,1:2:0:0:
454,183,66322,1,0,1:0:0:0:
256,192,66789,5,0,1:0:0:0:
256,192,67022,1,8,0:0:0:0:
269,100,67138,1,8,1:2:0:0:
211,28,67255,1,8,0:0:0:0:
119,22,67371,1,8,1:2:0:0:
52,86,67488,1,8,0:0:0:0:
54,178,67605,1,8,1:2:0:0:
123,240,67722,6,0,P|193:243|220:294,1,95,4|0,1:2|0:0,0:0:0:0:
28,378,67955,2,0,P|-1:326|15:258,1,95,10|0,0:0|0:0,0:0:0:0:
54,178,68189,5,0,1:0:0:0:
144,261,68305,1,0,1:0:0:0:
265,237,68422,2,0,P|277:201|259:111,1,95,10|0,0:0|0:0,0:0:0:0:
212,36,68655,6,0,L|80:40,1,95,2|0,1:0|0:0,0:0:0:0:
384,171,68889,1,10,0:0:0:0:
502,201,69005,2,0,P|521:151|480:100,1,95,2|0,1:0|0:0,0:0:0:0:
262,226,69239,1,0,1:0:0:0:
149,269,69355,2,2,P|76:257|65:152,1,190,10|2,0:0|1:0,0:1:0:0:
294,26,69822,5,10,0:0:0:0:
63,156,70055,1,0,1:0:0:0:
463,256,70289,1,10,0:0:0:0:
205,382,70522,6,0,P|183:325|207:252,1,95,0|0,1:0|0:0,0:0:0:0:
256,192,70755,1,10,0:0:0:0:
336,94,70872,2,0,P|361:55|358:-9,1,95,0|0,1:0|0:0,0:0:0:0:
256,192,71105,1,0,1:0:0:0:
141,203,71222,1,10,0:0:0:0:
53,129,71339,1,0,0:0:0:0:
41,15,71455,6,0,P|116:25|142:50,1,95,0|0,1:0|0:0,0:0:0:0:
128,155,71689,2,0,P|171:184|248:166,1,95,10|0,0:0|0:0,0:0:0:0:
332,152,71922,1,0,1:0:0:0:
420,239,72039,1,0,1:0:0:0:
349,339,72155,2,0,P|322:289|348:220,1,95,10|0,0:0|0:0,0:0:0:0:
464,160,72389,6,0,P|491:210|465:279,1,95,2|0,1:0|0:0,0:0:0:0:
407,356,72622,1,10,0:0:0:0:
285,304,72739,2,0,P|232:295|181:316,1,95,2|0,1:0|0:0,0:0:0:0:
91,378,72972,1,0,1:0:0:0:
7,286,73089,2,2,P|-8:229|31:170,2,95,10|0|2,0:0|0:0|1:0,0:1:0:0:
414,237,73555,5,10,0:0:0:0:
301,33,73789,1,0,1:0:0:0:
97,146,74022,1,10,0:0:0:0:
210,350,74255,5,0,1:0:0:0:
316,336,74372,1,8,0:0:0:0:
423,323,74488,1,8,1:2:0:0:
316,310,74606,1,8,0:0:0:0:
210,297,74722,1,8,1:2:0:0:
316,284,74839,1,8,0:0:0:0:
423,271,74955,1,8,1:2:0:0:
316,258,75072,1,8,0:0:0:0:
210,245,75188,6,0,L|109:233,1,95,4|0,1:2|0:0,0:0:0:0:
67,140,75415,1,8,0:0:0:0:
141,66,75528,1,0,0:0:0:0:
234,113,75642,1,0,1:0:0:0:
218,217,75756,1,0,1:0:0:0:
115,233,75869,6,0,P|104:282|131:332,1,95,8|0,0:0|0:0,0:0:0:0:
386,370,76097,2,0,P|350:286|261:275,1,190,0|8,1:0|0:0,0:0:0:0:
163,352,76438,1,0,1:0:0:0:
163,352,76551,2,0,L|25:363,1,95,0|0,0:0|1:0,0:0:0:0:
305,225,76778,2,0,L|443:214,1,95,8|0,0:0|0:0,0:0:0:0:
130,193,77006,6,0,P|102:141|107:101,2,95,0|0|8,1:0|1:0|0:0,0:0:0:0:
242,244,77347,1,0,1:0:0:0:
224,344,77460,1,0,0:0:0:0:
360,200,77574,1,0,1:0:0:0:
345,99,77687,1,8,0:0:0:0:
464,272,77801,1,0,0:0:0:0:
448,372,77915,6,0,P|412:309|500:254,1,190,0|8,1:0|0:0,0:0:0:0:
72,12,78369,2,0,P|108:75|20:130,1,190,0|8,0:0|0:0,0:0:0:0:
183,345,78824,6,0,P|243:278|353:307,1,190,0|8,1:0|0:0,0:0:0:0:
446,343,79165,2,0,L|438:208,1,95,0|0,1:0|0:0,0:0:0:0:
325,146,79392,2,0,L|317:281,1,95,0|8,1:0|0:0,0:0:0:0:
222,317,79619,1,0,0:0:0:0:
114,256,79733,6,0,L|216:254,1,95,0|0,1:0|1:0,0:0:0:0:
419,143,79960,2,0,L|322:146,1,95,8|0,0:0|1:0,0:0:0:0:
44,302,80188,5,0,0:0:0:0:
157,299,80301,1,0,1:0:0:0:
270,296,80415,1,8,0:0:0:0:
383,293,80528,1,0,0:0:0:0:
486,342,80642,6,0,B|468:279|468:279|491:236|491:236|465:130,1,190,0|8,1:0|0:0,0:0:0:0:
320,33,80983,2,0,B|334:82|334:82|323:144,1,95,0|0,1:0|0:0,0:0:0:0:
187,208,81210,2,0,B|173:159|173:159|184:97,2,95,0|8|0,1:0|0:0|0:0,0:0:0:0:
352,304,81551,5,0,1:0:0:0:
448,288,81665,1,8,0:0:0:0:
288,224,81778,1,8,1:2:0:0:
384,208,81892,1,8,0:0:0:0:
224,144,82005,1,8,1:2:0:0:
320,128,82119,1,8,0:0:0:0:
160,64,82233,1,8,1:2:0:0:
256,48,82347,1,8,0:0:0:0:
352,31,82460,5,4,1:2:0:0:
352,31,82574,2,0,L|128:15,1,190,8|8,0:0|0:0,0:0:0:0:
160,353,82915,1,0,1:0:0:0:
160,353,83029,2,0,L|384:369,1,190,8|8,0:0|0:0,0:0:0:0:
174,127,83369,1,0,1:0:0:0:
174,127,83483,2,0,P|67:113|27:36,1,190,8|8,0:0|0:0,0:0:0:0:
338,127,83824,1,0,1:0:0:0:
338,127,83938,2,0,P|445:113|485:36,1,190,8|8,0:0|0:0,0:0:0:0:
98,36,84278,1,0,1:0:0:0:
98,36,84392,2,0,L|84:270,1,190,8|8,0:0|0:0,0:0:0:0:
414,36,84733,1,0,1:0:0:0:
414,36,84847,2,0,L|428:270,1,190,8|8,0:0|0:0,0:0:0:0:
40,32,85187,6,0,L|32:144,1,95,8|0,0:0|0:0,0:0:0:0:
176,160,85415,2,0,L|144:264,1,95,8|0,0:0|0:0,0:0:0:0:
0,384,85642,2,0,L|208:368,1,190,8|0,0:0|0:0,0:0:0:0:
424,160,86097,6,0,P|439:97|380:16,2,126.666666666667,8|2|2,0:0|0:0|0:0,0:0:0:0:
8,232,86627,5,8,0:0:0:0:
130,244,86778,1,2,0:0:0:0:
252,256,86930,1,2,0:0:0:0:
16,216,87081,5,8,0:0:0:0:
138,228,87232,1,2,0:0:0:0:
260,240,87384,1,2,0:0:0:0:
443,341,87612,6,0,P|424:280|472:216,2,126.666666666667,8|2|2,0:0|0:0|0:0,0:0:0:0:
272,216,88066,2,0,P|291:155|243:91,2,126.666666666667,8|2|2,0:0|0:0|0:0,0:0:0:0:
264,224,88426,1,0,0:0:0:0:
256,232,88483,1,8,0:0:0:0:
248,240,88540,1,0,0:0:0:0:
240,248,88597,1,0,1:0:0:0:
232,256,88653,1,0,0:0:0:0:
224,264,88710,1,8,0:0:0:0:
216,272,88767,1,0,0:0:0:0:
208,280,88824,5,0,1:0:0:0:
124,288,88937,1,8,0:0:0:0:
52,244,89051,1,8,0:0:0:0:
20,167,89164,1,8,0:0:0:0:
41,85,89278,1,8,0:0:0:0:
107,33,89392,1,8,0:0:0:0:
191,30,89505,1,8,0:0:0:0:
260,77,89619,1,0,0:0:0:0:
287,157,89733,5,0,1:2:0:0:
287,157,90197,1,0,1:0:0:0:
287,157,90661,1,0,1:0:0:0:
287,157,91125,1,0,1:0:0:0:
40,336,91589,6,0,L|40:208,1,95,8|8,0:0|0:0,0:0:0:0:
144,312,92054,1,0,1:0:0:0:
472,48,92518,5,0,1:0:0:0:
328,40,92866,1,0,0:0:0:0:
184,32,93214,1,0,0:0:0:0:
16,240,93446,6,0,L|128:232,1,95,8|8,1:2|0:0,0:0:0:0:
224,176,93910,1,0,1:0:0:0:
224,176,94375,1,0,1:0:0:0:
224,176,94839,1,0,1:0:0:0:
480,296,95303,6,0,L|480:168,1,95,8|8,1:2|0:0,0:0:0:0:
376,272,95768,1,0,1:0:0:0:
80,48,96232,5,0,1:0:0:0:
88,192,96580,1,0,0:0:0:0:
96,336,96928,1,0,0:0:0:0:
501,224,97160,6,0,L|306:239,1,190,4|0,1:2|1:0,0:0:0:0:
201,339,97508,1,0,0:0:0:0:
201,339,97624,2,0,L|339:346,1,95,8|0,0:0|0:0,0:0:0:0:
95,249,97856,2,0,L|-43:242,1,95,0|8,0:0|0:0,0:0:0:0:
228,198,98088,1,0,0:0:0:0:
323,191,98204,1,8,0:0:0:0:
418,184,98320,1,0,1:0:0:0:
512,176,98436,6,0,L|522:77,1,95,0|8,0:0|0:0,0:0:0:0:
372,290,98668,2,0,L|362:389,2,95,0|0|8,1:0|0:0|0:0,1:0:0:0:
278,85,99016,6,0,L|376:93,1,95,0|0,1:0|0:0,0:0:0:0:
157,170,99248,2,0,L|59:162,1,95,0|0,1:0|0:0,0:0:0:0:
313,65,99481,2,0,L|411:73,1,95,8|0,0:0|0:0,0:0:0:0:
122,190,99713,2,0,L|24:182,1,95,0|8,1:0|0:0,0:0:0:0:
400,296,99945,5,0,0:0:0:0:
376,360,100061,1,8,0:0:0:0:
296,168,100293,1,8,0:0:0:0:
272,232,100409,1,0,0:0:0:0:
378,27,100641,1,0,0:0:0:0:
378,27,100757,1,8,0:0:0:0:
378,27,100873,6,0,P|278:69|173:11,1,190,0|0,1:0|1:0,0:0:0:0:
103,96,101221,1,0,0:0:0:0:
103,96,101337,2,0,P|77:148|103:221,1,95,8|0,0:0|0:0,0:0:0:0:
264,116,101570,2,0,P|290:64|264:-9,1,95,0|8,1:0|0:0,0:0:0:0:
4,235,101802,5,0,0:0:0:0:
85,197,101918,1,8,0:0:0:0:
154,255,102034,1,0,1:0:0:0:
130,342,102150,2,0,P|113:302|134:252,1,95,0|8,0:0|0:0,0:0:0:0:
284,175,102382,2,0,P|301:215|280:265,2,95,0|0|8,1:0|0:0|0:0,1:0:0:0:
148,76,102730,6,0,P|107:54|44:58,1,95,0|0,1:0|0:0,0:0:0:0:
235,208,102962,2,0,P|276:230|339:226,1,95,0|0,1:0|0:0,0:0:0:0:
73,208,103194,2,0,P|48:244|69:327,1,95,8|0,0:0|0:0,0:0:0:0:
309,95,103426,2,0,P|334:59|313:-24,1,95,0|8,1:0|0:0,0:0:0:0:
176,272,103659,5,8,0:0:0:0:
240,264,103775,1,8,0:0:0:0:
440,200,104007,1,8,0:0:0:0:
216,128,104239,1,8,0:0:0:0:
152,120,104355,1,8,0:0:0:0:
88,112,104471,1,8,0:0:0:0:
24,104,104587,6,0,P|122:142|84:222,1,190,4|0,1:2|1:0,0:0:0:0:
33,273,104935,1,0,0:0:0:0:
33,273,104993,1,0,0:0:0:0:
33,273,105051,1,8,0:0:0:0:
76,363,105168,1,0,1:0:0:0:
175,351,105284,1,0,0:0:0:0:
194,253,105400,1,8,0:0:0:0:
106,205,105516,6,0,P|149:109|226:151,1,190,4|0,1:2|1:0,0:0:0:0:
275,204,105864,1,0,0:0:0:0:
275,204,105922,1,0,0:0:0:0:
275,204,105980,1,8,0:0:0:0:
367,165,106097,1,0,1:0:0:0:
360,66,106213,1,0,0:0:0:0:
263,42,106329,1,8,0:0:0:0:
212,127,106446,6,0,P|116:83|158:6,1,190,4|0,1:2|1:0,0:0:0:0:
360,66,106795,1,0,0:0:0:0:
360,66,106853,1,0,0:0:0:0:
360,66,106911,2,0,L|373:176,1,95,8|0,0:0|1:0,0:0:0:0:
174,280,107143,2,0,L|161:170,1,95,0|8,0:0|0:0,0:0:0:0:
490,171,107376,6,0,P|385:224|408:317,1,190,4|0,1:2|1:0,0:0:0:0:
22,213,107724,2,0,P|127:160|104:67,1,190,0|0,0:0|1:0,0:0:0:0:
376,26,108073,6,0,L|366:154,1,95,0|8,0:0|0:0,0:0:0:0:
308,364,108305,2,0,P|232:307|135:343,1,190,4|0,1:2|1:0,0:0:0:0:
24,208,108654,1,0,0:0:0:0:
56,112,108770,1,8,0:0:0:0:
152,96,108886,1,0,1:0:0:0:
120,192,109003,1,0,0:0:0:0:
24,208,109119,1,8,0:0:0:0:
56,112,109235,6,0,L|89:15,1,95,4|0,1:2|0:0,0:0:0:0:
214,253,109467,1,0,1:0:0:0:
214,253,109584,2,0,L|181:350,1,95,0|8,0:0|0:0,0:0:0:0:
400,144,109816,2,0,L|497:111,2,95,0|0|8,1:0|0:0|0:0,0:0:0:0:
176,200,110165,5,4,1:2:0:0:
136,200,110281,1,0,0:0:0:0:
304,288,110397,1,0,1:0:0:0:
264,288,110513,1,0,0:0:0:0:
448,224,110630,1,8,0:0:0:0:
448,264,110746,1,0,1:0:0:0:
368,104,110862,1,0,0:0:0:0:
368,144,110978,1,8,0:0:0:0:
464,16,111094,6,0,P|390:72|446:141,1,190,4|0,1:2|1:0,0:0:0:0:
248,347,111443,2,0,P|269:299|256:239,1,95,0|8,0:0|0:0,0:0:0:0:
120,85,111676,6,0,P|78:125|81:179,2,95,0|8|8,1:0|0:0|0:0,0:0:0:0:
335,31,112024,2,0,P|333:129|232:165,1,190,4|0,1:2|1:0,0:0:0:0:
162,251,112373,5,8,0:0:0:0:
74,159,112489,1,0,1:0:0:0:
43,279,112605,1,0,0:0:0:0:
162,251,112721,1,8,0:0:0:0:
74,159,112838,1,0,0:0:0:0:
43,279,112954,6,0,L|277:291,1,190,4|0,1:2|1:0,0:0:0:0:
363,261,113303,5,0,0:0:0:0:
455,173,113419,1,8,0:0:0:0:
335,142,113535,1,0,1:0:0:0:
363,261,113651,1,0,0:0:0:0:
455,173,113768,1,8,0:0:0:0:
335,142,113884,6,0,P|245:116|245:8,1,190,4|0,1:2|1:0,0:0:0:0:
16,214,114232,2,0,P|85:239|74:370,1,190,0|0,0:0|1:0,0:0:0:0:
324,232,114581,2,0,P|339:201|325:125,1,95,0|8,0:0|0:0,0:0:0:0:
150,87,114813,6,0,P|61:87|-4:-3,1,190,4|0,1:2|1:0,0:0:0:0:
383,0,115162,2,0,P|450:92|411:177,1,190,0|0,0:0|1:0,0:0:0:0:
295,337,115511,2,0,P|266:308|273:220,1,95,0|8,0:0|0:0,0:0:0:0:
0,89,115743,6,0,P|89:90|129:209,1,190,4|0,1:2|1:0,0:0:0:0:
256,312,116092,1,0,0:0:0:0:
272,208,116208,1,8,0:0:0:0:
288,104,116324,1,0,1:0:0:0:
304,208,116441,1,0,0:0:0:0:
320,104,116557,1,8,0:0:0:0:
336,0,116673,6,0,P|262:47|138:0,1,190,4|0,1:2|1:0,0:0:0:0:
0,164,117021,1,0,0:0:0:0:
104,180,117137,1,8,0:0:0:0:
208,196,117253,1,0,1:0:0:0:
104,212,117370,1,0,0:0:0:0:
208,228,117486,1,8,0:0:0:0:
312,244,117602,6,0,P|369:221|366:99,1,190,4|0,1:2|1:0,0:0:0:0:
5,136,117951,2,0,L|224:127,1,190,0|0,0:0|1:0,0:0:0:0:
509,189,118300,2,0,L|412:194,1,95,0|8,0:0|0:0,0:0:0:0:
87,193,118532,5,4,1:2:0:0:
93,291,118648,1,8,0:0:0:0:
190,318,118765,1,0,1:2:0:0:
244,234,118881,1,8,0:0:0:0:
181,156,118997,1,8,0:3:0:0:
5,239,119113,1,0,0:0:0:0:
113,384,119229,1,4,0:3:0:0:
284,328,119346,1,0,0:0:0:0:
283,147,119462,5,4,1:2:0:0:
323,121,120392,5,4,0:0:0:0:
363,95,121323,5,4,1:2:0:0:
403,69,122254,5,8,0:0:0:0:
403,69,122603,1,8,0:3:0:0:
403,69,122952,1,4,0:3:0:0:
146,272,123185,6,0,P|65:270|43:143,1,190,0|0,1:2|0:0,0:0:0:0:
366,272,123651,2,0,P|447:270|469:143,1,190,0|0,1:0|0:0,0:0:0:0:
94,226,124116,6,0,L|119:33,1,190,4|0,1:2|0:0,0:0:0:0:
418,226,124582,2,0,L|393:33,1,190,0|0,1:0|0:0,0:0:0:0:
121,364,125047,6,0,P|33:285|54:186,1,190,4|0,1:2|0:0,0:0:0:0:
391,20,125512,2,0,P|478:98|458:198,1,190,0|0,1:0|0:0,0:0:0:0:
256,192,125978,5,8,3:2:0:0:
324,84,126909,6,0,P|376:41|429:43,1,95,4|0,1:2|0:0,0:0:0:0:
321,193,127142,2,0,P|269:236|216:234,1,95,10|0,0:0|0:0,0:0:0:0:
160,163,127374,1,0,1:0:0:0:
57,218,127491,1,0,1:0:0:0:
84,332,127607,1,10,0:0:0:0:
197,344,127723,1,0,0:0:0:0:
243,239,127840,6,0,P|249:195|255:137,1,95,0|0,1:0|0:0,0:0:0:0:
344,59,128072,1,10,0:0:0:0:
254,144,128189,2,0,P|207:147|166:125,1,95,0|0,1:0|0:0,0:0:0:0:
104,18,128422,1,0,1:0:0:0:
16,105,128538,2,0,P|97:116|157:37,1,190,10|0,0:0|1:0,0:0:0:0:
464,192,129003,5,10,0:0:0:0:
48,192,129236,1,0,1:0:0:0:
464,192,129469,1,10,0:0:0:0:
48,192,129702,6,0,P|95:172|147:192,1,95,0|0,1:0|0:0,0:0:0:0:
232,258,129934,1,10,0:0:0:0:
314,164,130051,2,0,P|324:117|288:50,1,95,0|0,1:0|0:0,0:0:0:0:
196,24,130283,5,0,1:0:0:0:
249,111,130400,1,10,0:0:0:0:
352,136,130516,1,0,0:0:0:0:
441,81,130632,6,0,L|464:199,1,95,0|0,1:0|0:0,0:0:0:0:
334,325,130865,2,0,L|311:207,1,95,8|0,0:0|0:0,0:0:0:0:
212,38,131098,1,0,1:0:0:0:
253,132,131215,1,0,1:0:0:0:
214,230,131331,1,10,0:0:0:0:
118,271,131447,1,0,0:0:0:0:
21,234,131563,6,0,L|11:117,1,95,0|0,1:0|0:0,0:0:0:0:
82,40,131795,1,10,0:0:0:0:
154,140,131912,2,0,P|218:152|250:134,1,95,0|0,1:0|0:0,0:0:0:0:
333,61,132144,1,0,1:0:0:0:
367,176,132262,2,0,L|374:284,2,95,10|0|0,0:0|0:0|1:0,0:0:0:0:
84,64,132727,5,10,0:0:0:0:
256,320,132960,1,0,1:0:0:0:
428,64,133192,1,10,0:0:0:0:
84,64,133425,6,0,P|103:118|93:172,1,95,4|0,1:2|0:0,0:0:0:0:
27,231,133658,1,8,0:0:0:0:
129,249,133774,1,8,0:0:0:0:
231,267,133891,1,8,0:0:0:0:
333,285,134007,1,8,0:0:0:0:
231,267,134123,1,8,0:0:0:0:
129,249,134240,1,8,0:0:0:0:
27,231,134356,5,4,1:0:0:0:
256,192,134589,1,0,1:0:0:0:
485,153,134822,1,8,0:0:0:0:
102,0,135171,5,8,0:0:0:0:
168,115,135403,1,0,3:0:0:0:
168,115,135520,1,0,1:0:0:0:
145,246,135752,1,8,0:0:0:0:
145,246,135869,1,0,1:0:0:0:
43,331,136102,1,8,0:0:0:0:
43,331,136218,5,0,1:0:0:0:
256,224,136451,1,0,1:0:0:0:
469,331,136683,1,8,0:0:0:0:
256,256,137032,5,8,0:0:0:0:
256,64,137265,1,8,0:0:0:0:
256,64,137382,1,0,1:0:0:0:
256,288,137614,5,12,1:2:0:0:
49,72,138080,6,0,L|56:194,1,95,4|0,1:2|1:0,0:0:0:0:
234,270,138556,2,0,L|227:148,1,95,8|0,0:0|0:0,0:0:0:0:
357,73,139032,2,0,P|412:56|466:91,1,95,0|0,0:0|1:0,0:0:0:0:
377,182,139389,1,0,0:0:0:0:
377,182,139508,2,0,P|322:199|268:164,1,95,8|0,0:0|0:0,0:0:0:0:
163,132,139865,1,8,0:0:0:0:
163,132,139984,6,0,L|170:265,1,95,0|0,1:0|1:0,0:0:0:0:
323,345,140460,2,0,L|316:212,1,95,8|0,0:0|0:0,0:0:0:0:
254,131,140937,2,0,P|213:121|136:149,1,95,0|0,0:0|1:0,0:0:0:0:
32,248,141294,2,0,L|104:248,1,47.5,0|8,0:0|0:0,0:0:0:0:
209,313,141532,1,0,0:0:0:0:
209,313,141651,2,0,L|297:313,1,47.5,0|8,0:0|0:0,0:0:0:0:
353,198,141889,6,0,P|371:158|360:76,1,95,0|0,1:0|1:0,0:0:0:0:
260,17,142365,2,0,L|264:100,1,47.5,8|0,0:0|0:0,0:0:0:0:
187,160,142603,1,0,0:0:0:0:
187,160,142722,1,8,0:0:0:0:
187,160,142841,2,0,P|143:173|72:146,1,95,0|0,0:0|1:0,0:0:0:0:
295,33,143318,2,0,P|339:20|410:47,1,95,8|0,0:0|0:0,0:0:0:0:
502,191,143794,6,0,P|405:210|402:320,1,190,0|8,1:0|0:0,0:0:0:0:
223,359,144508,1,0,0:0:0:0:
56,253,144746,2,0,P|121:254|152:232,1,95,0|8,1:0|0:0,0:0:0:0:
208,168,145103,1,8,0:0:0:0:
200,160,145222,1,8,1:2:0:0:
192,152,145341,1,8,0:0:0:0:
184,144,145460,1,8,1:2:0:0:
176,136,145580,1,8,0:0:0:0:
168,128,145699,6,0,L|177:30,1,95,4|0,1:2|0:0,0:0:0:0:
326,287,145933,2,0,L|317:385,1,95,10|0,0:0|1:0,0:0:0:0:
442,110,146167,1,2,0:0:0:0:
442,110,146284,2,0,P|464:65|457:15,1,95,0|10,1:0|0:0,0:0:0:0:
194,325,146518,1,0,0:0:0:0:
194,325,146636,6,0,L|89:328,1,95,0|0,1:0|0:0,0:0:0:0:
355,149,146870,1,10,0:0:0:0:
355,149,146988,2,0,L|460:146,1,95,0|2,1:0|0:0,0:0:0:0:
147,278,147222,1,0,1:0:0:0:
147,278,147339,2,0,P|129:239|158:151,1,95,10|0,0:0|0:0,0:0:0:0:
392,32,147574,6,0,P|441:48|473:96,1,95,0|0,1:0|0:0,0:0:0:0:
280,280,147808,2,0,P|229:252|200:208,1,95,10|0,0:0|1:0,0:0:0:0:
176,56,148042,1,2,0:0:0:0:
158,277,148159,2,0,P|135:230|140:157,1,95,0|10,1:0|0:0,0:0:0:0:
207,12,148394,1,0,0:0:0:0:
443,76,148511,6,0,P|445:119|413:179,1,95,0|0,1:0|0:0,0:0:0:0:
299,299,148745,1,10,0:0:0:0:
484,181,148863,2,0,P|444:202|397:217,1,95,0|2,1:0|0:0,0:0:0:0:
171,227,149097,1,0,1:0:0:0:
394,374,149214,2,0,P|338:360|301:329,1,95,8|0,0:0|0:0,0:0:0:0:
295,53,149449,6,0,P|353:80|368:145,2,95,2|0|8,0:0|0:0|0:0,0:0:0:0:
162,151,149800,2,0,P|68:168|86:2,1,285,0|8,1:0|0:0,0:0:0:0:
323,74,150386,2,0,B|379:218|267:218|323:370,2,285,0|0|8,1:0|0:0|0:0,0:0:0:0:
80,180,151324,1,0,1:0:0:0:
304,336,151558,2,0,P|483:293|425:123,1,380,8|8,0:0|0:0,0:0:0:0:
140,22,152261,5,0,1:0:0:0:
132,78,152378,1,8,0:0:0:0:
124,134,152495,1,8,0:0:0:0:
116,190,152613,1,8,0:0:0:0:
256,160,152730,1,8,0:3:0:0:
264,216,152847,1,0,0:0:0:0:
272,272,152964,1,4,0:3:0:0:
280,328,153081,1,0,1:0:0:0:
159,308,153199,5,4,1:0:0:0:
159,308,154159,5,4,1:2:0:0:
152,88,155149,5,4,1:0:0:0:
152,88,156124,5,4,1:2:0:0:
424,168,157100,5,4,1:0:0:0:
424,168,158083,5,4,1:2:0:0:
424,168,159067,5,4,1:0:0:0:
256,328,160050,5,12,0:0:0:0:
256,328,160419,1,8,0:3:0:0:
256,328,160788,1,4,0:3:0:0:
53,74,161034,5,4,1:2:0:0:
159,163,161277,1,0,0:0:0:0:
151,195,161399,1,0,0:0:0:0:
143,227,161521,1,0,1:0:0:0:
256,328,161765,1,0,0:0:0:0:
401,290,162009,1,4,1:2:0:0:
463,153,162253,1,0,0:0:0:0:
378,29,162497,1,0,1:0:0:0:
378,29,162985,5,4,1:2:0:0:
235,251,163351,1,0,0:0:0:0:
235,251,163473,1,0,0:0:0:0:
137,138,163716,1,0,0:0:0:0:
84,322,163960,1,4,1:2:0:0:
135,94,164204,1,0,0:0:0:0:
0,231,164448,1,4,1:2:0:0:
256,328,164936,5,4,1:2:0:0:
352,288,165180,1,0,0:0:0:0:
392,192,165424,1,0,1:0:0:0:
352,95,165668,1,0,0:0:0:0:
256,55,165912,1,4,1:2:0:0:
159,95,166155,1,0,0:0:0:0:
119,191,166399,1,4,1:2:0:0:
159,288,166643,1,0,0:0:0:0:
256,328,166887,6,0,P|310:159|452:257,1,380,4|8,1:2|0:0,0:0:0:0:
302,85,167985,1,0,1:0:0:0:
335,289,168107,1,0,1:0:0:0:
427,107,168229,1,8,0:0:0:0:
245,199,168351,1,10,0:0:0:0:
105,302,168838,6,0,P|65:309|-5:292,1,95,0|0,1:0|0:0,0:0:0:0:
201,204,169070,2,0,P|241:197|311:214,1,95,10|0,0:0|0:0,0:0:0:0:
388,287,169303,1,0,1:0:0:0:
424,169,169419,1,0,1:0:0:0:
462,52,169535,6,0,L|351:56,1,95,10|0,0:0|0:0,0:0:0:0:
224,139,169768,2,0,P|214:183|246:238,1,95,2|0,1:0|0:0,0:0:0:0:
347,275,170000,1,10,0:0:0:0:
457,218,170117,6,0,L|360:222,1,95,2|0,1:0|0:0,0:0:0:0:
246,263,170349,1,0,1:0:0:0:
145,191,170465,2,2,P|122:165|119:97,2,95,10|0|2,0:0|0:0|1:0,0:1:0:0:
439,71,170931,5,10,0:0:0:0:
256,320,171163,1,0,1:0:0:0:
73,71,171396,1,10,0:0:0:0:
439,71,171628,6,0,L|440:184,1,95,0|0,1:0|0:0,0:0:0:0:
304,328,171861,1,10,0:0:0:0:
208,312,171977,2,0,L|207:199,1,95,0|0,1:0|0:0,0:0:0:0:
0,192,172210,1,0,1:0:0:0:
96,176,172326,1,10,0:0:0:0:
192,160,172442,1,0,0:0:0:0:
288,144,172558,6,0,P|305:91|274:26,1,95,0|0,1:0|0:0,0:0:0:0:
136,0,172791,2,0,P|119:53|150:118,1,95,10|0,0:0|0:0,0:0:0:0:
252,170,173024,1,0,1:0:0:0:
369,133,173140,1,0,1:0:0:0:
276,50,173257,6,0,L|276:155,1,95,10|0,0:0|0:0,0:0:0:0:
135,131,173489,2,0,L|135:226,1,95,2|0,1:0|0:0,0:0:0:0:
225,310,173721,5,10,0:0:0:0:
343,347,173838,2,0,P|399:339|425:294,1,95,2|0,1:0|0:0,0:0:0:0:
310,229,174070,1,0,1:0:0:0:
190,198,174186,2,2,P|130:196|87:216,2,95,10|0|2,0:0|0:0|1:0,0:1:0:0:
420,310,174651,5,10,0:0:0:0:
256,80,174884,1,0,1:0:0:0:
92,310,175117,1,10,0:0:0:0:
420,310,175349,6,0,P|444:268|418:185,1,95,0|0,1:0|0:0,0:0:0:0:
348,42,175582,1,10,0:0:0:0:
256,80,175698,2,0,P|211:89|155:70,1,95,0|0,1:0|0:0,0:0:0:0:
0,123,175931,1,0,1:0:0:0:
56,210,176047,1,10,0:0:0:0:
151,254,176163,1,0,0:0:0:0:
254,239,176279,6,0,P|309:229|367:156,1,123.499994346619,12|0,0:0|0:0,0:0:0:0:
207,32,176513,2,0,P|152:42|94:115,1,123.499994346619,10|0,0:0|0:0,0:0:0:0:
403,273,176747,1,2,0:0:0:0:
473,129,176864,1,0,1:0:0:0:
367,1,176982,6,0,L|226:5,1,123.499994346619,10|0,0:0|1:0,0:0:0:0:
78,161,177216,2,0,L|219:157,1,123.499994346619,10|0,0:0|0:0,0:0:0:0:
405,216,177450,5,8,0:0:0:0:
437,57,177568,2,0,P|359:30|304:44,1,123.499994346619,0|10,0:0|0:0,0:0:0:0:
189,128,177802,1,0,1:0:0:0:
42,61,177919,2,0,L|22:199,1,123.499994346619,10|0,0:0|1:0,0:0:0:0:
180,302,178154,2,0,L|200:164,1,123.499994346619,12|0,0:0|0:0,0:0:0:0:
356,64,178388,6,0,P|404:115|410:214,1,123.499994346619,10|0,0:0|0:0,0:0:0:0:
156,320,178622,2,0,P|108:269|102:170,1,123.499994346619,10|0,0:0|1:0,0:0:0:0:
278,31,178857,2,0,P|345:51|400:134,1,123.499994346619,10|0,0:0|1:0,0:0:0:0:
233,352,179091,6,0,P|166:332|111:249,1,123.499994346619,10|0,0:0|0:0,0:0:0:0:
126,134,179325,1,10,0:0:0:0:
276,192,179443,2,0,P|338:205|414:170,1,123.499994346619,0|10,0:0|0:0,0:0:0:0:
442,33,179677,1,0,1:0:0:0:
338,159,179794,1,10,0:0:0:0:
175,175,179911,1,0,1:0:0:0:
49,70,180029,6,0,P|102:38|202:70,1,123.499994346619,10|0,0:0|0:0,0:0:0:0:
338,159,180259,2,0,P|370:212|338:312,1,123.499994346619,10|0,0:0|0:0,0:0:0:0:
133,371,180490,1,10,0:0:0:0:
39,241,180605,1,0,1:0:0:0:
119,100,180721,6,0,P|194:91|247:128,1,123.499994346619,10|0,0:0|1:0,0:0:0:0:
299,266,180952,2,0,P|354:291|413:279,1,123.499994346619,10|0,0:0|0:0,0:0:0:0:
511,151,181182,5,10,0:0:0:0:
355,106,181298,2,0,P|314:32|329:-9,1,123.499994346619,0|10,0:0|0:0,0:0:0:0:
256,211,181529,1,0,1:0:0:0:
143,292,181644,2,0,P|85:292|30:249,1,123.499994346619,10|0,0:0|1:0,0:0:0:0:
0,98,181875,2,0,P|58:98|113:141,1,123.499994346619,10|0,0:0|0:0,0:0:0:0:
356,320,182105,6,0,P|404:269|410:170,1,123.499994346619,10|0,0:0|0:0,0:0:0:0:
156,64,182336,2,0,P|108:115|102:214,1,123.499994346619,10|0,0:0|1:0,0:0:0:0:
278,353,182567,2,0,P|345:333|400:250,1,123.499994346619,10|0,0:0|1:0,0:0:0:0:
184,46,182798,6,0,P|127:86|100:182,1,123.499994346619,10|0,0:0|0:0,0:0:0:0:
341,360,183029,1,8,1:2:0:0:
425,278,183144,1,8,0:0:0:0:
445,163,183259,1,8,1:2:0:0:
394,57,183375,1,8,0:0:0:0:
290,3,183490,1,8,1:2:0:0:
174,19,183605,1,8,0:0:0:0:
89,100,183721,5,4,1:2:0:0:
