osu file format v14

[General]
AudioFilename: audio.mp3
AudioLeadIn: 0
PreviewTime: 64407
Countdown: 0
SampleSet: Soft
StackLeniency: 0.4
Mode: 0
LetterboxInBreaks: 0
WidescreenStoryboard: 1

[Editor]
Bookmarks: 132510
DistanceSpacing: 0.5
BeatDivisor: 4
GridSize: 16
TimelineZoom: 2.2

[Metadata]
Title:Hide Away My Heart
TitleUnicode:Hide Away My Heart
Artist:MaxNRG
ArtistUnicode:MaxNRG
Creator:stq
Version:Ultimate
Source:
Tags:dnb drum and & bass liquicity liquid cut
BeatmapID:1650879
BeatmapSetID:786442

[Difficulty]
HPDrainRate:2.8
CircleSize:4
OverallDifficulty:9
ApproachRate:9.6
SliderMultiplier:2
SliderTickRate:1

[Events]
//Background and Video events
0,0,"DXc_yixVoAErLYf.png",0,0
//Break Periods
//Storyboard Layer 0 (Background)
//Storyboard Layer 1 (Fail)
//Storyboard Layer 2 (Pass)
//Storyboard Layer 3 (Foreground)
//Storyboard Sound Samples

[TimingPoints]
107,344.827586206897,4,2,25,70,1,0
49762,-200,4,2,25,40,0,0
51141,-166.666666666667,4,2,25,42,0,0
52520,-142.857142857143,4,2,25,44,0,0
53900,-125,4,2,25,44,0,0
55279,-100,4,2,25,55,0,0
60796,-90.9090909090909,4,2,25,70,0,0
64417,-200,4,2,25,30,0,0
65969,-1000,4,2,25,70,0,0
66227,-1000,4,2,25,5,0,0
66313,-76.9230769230769,4,1,25,70,0,1
69072,-133.333333333333,4,1,25,70,0,1
69331,-90.9090909090909,4,2,25,5,0,1
69417,-66.6666666666667,4,1,25,70,0,1
70451,-133.333333333333,4,1,25,70,0,1
71831,-66.6666666666667,4,1,25,70,0,1
74589,-133.333333333333,4,1,25,70,0,1
74848,-133.333333333333,4,2,25,5,0,1
74934,-66.6666666666667,4,1,25,70,0,1
80107,-133.333333333333,4,1,25,70,0,1
80193,-133.333333333333,4,2,25,5,0,1
80451,-66.6666666666667,4,1,25,70,0,1
81486,-133.333333333333,4,1,25,70,0,1
82865,-66.6666666666667,4,1,25,70,0,1
85624,-133.333333333333,4,1,25,70,0,1
85710,-133.333333333333,4,2,25,5,0,1
85968,-66.6666666666667,4,1,25,70,0,1
88038,-1000,4,2,25,70,0,0
88296,-1000,4,2,25,5,0,0
88382,-66.6666666666667,4,2,25,70,0,0
88641,-66.6666666666667,4,2,25,30,0,0
88727,-66.6666666666667,4,2,25,70,0,0
89072,-62.5,4,2,25,70,0,0
89158,-133.333333333333,4,2,25,30,0,0
89244,-133.333333333333,4,2,25,70,0,0
89331,-133.333333333333,4,2,25,30,0,0
89417,-133.333333333333,4,2,25,70,0,0
89503,-133.333333333333,4,2,25,30,0,0
89589,-133.333333333333,4,2,25,70,0,0
89675,-133.333333333333,4,2,25,30,0,0
89762,-60.6060606060606,4,2,25,70,0,0
89848,-133.333333333333,4,2,25,30,0,0
89934,-133.333333333333,4,2,25,70,0,0
90020,-133.333333333333,4,2,25,30,0,0
90107,-133.333333333333,4,2,25,70,0,0
90193,-133.333333333333,4,2,25,30,0,0
90279,-133.333333333333,4,2,25,70,0,0
90365,-133.333333333333,4,2,25,30,0,0
90451,-58.8235294117647,4,2,25,70,0,0
90538,-133.333333333333,4,2,25,30,0,0
90624,-133.333333333333,4,2,25,70,0,0
90710,-133.333333333333,4,2,25,30,0,0
90796,-133.333333333333,4,2,25,70,0,0
90882,-133.333333333333,4,2,25,30,0,0
90969,-133.333333333333,4,2,25,70,0,0
91055,-133.333333333333,4,2,25,30,0,0
91141,-66.6666666666667,4,2,25,70,0,0
91400,-133.333333333333,4,2,25,30,0,0
91486,-66.6666666666667,4,2,25,70,0,0
91831,-57.1428571428571,4,2,25,70,0,0
91917,-133.333333333333,4,2,25,30,0,0
92003,-133.333333333333,4,2,25,70,0,0
92089,-133.333333333333,4,2,25,30,0,0
92175,-133.333333333333,4,2,25,70,0,0
92262,-133.333333333333,4,2,25,30,0,0
92348,-133.333333333333,4,2,25,70,0,0
92434,-133.333333333333,4,2,25,30,0,0
92520,-54.054054054054,4,2,25,70,0,0
92607,-133.333333333333,4,2,25,30,0,0
92693,-133.333333333333,4,2,25,70,0,0
92779,-133.333333333333,4,2,25,30,0,0
92865,-133.333333333333,4,2,25,70,0,0
92951,-133.333333333333,4,2,25,30,0,0
93038,-133.333333333333,4,2,25,70,0,0
93124,-133.333333333333,4,2,25,30,0,0
93210,-51.2820512820513,4,2,25,70,0,0
93296,-133.333333333333,4,2,25,30,0,0
93382,-133.333333333333,4,2,25,70,0,0
93469,-133.333333333333,4,2,25,30,0,0
93555,-133.333333333333,4,2,25,70,0,0
93641,-133.333333333333,4,2,25,30,0,0
93727,-133.333333333333,4,2,25,70,0,0
93813,-133.333333333333,4,2,25,30,0,0
93900,-66.6666666666667,4,2,25,70,0,0
94158,-133.333333333333,4,2,25,30,0,0
94244,-66.6666666666667,4,2,25,70,0,0
94589,-46.5116279069767,4,2,25,80,0,0
94675,-133.333333333333,4,2,25,30,0,0
94762,-50,4,2,25,80,0,0
94848,-133.333333333333,4,2,25,30,0,0
94934,-50,4,2,25,80,0,0
95020,-133.333333333333,4,2,25,30,0,0
95107,-50,4,2,25,80,0,0
95193,-133.333333333333,4,2,25,30,0,0
95279,-42.5531914893617,4,2,25,80,0,0
95365,-133.333333333333,4,2,25,30,0,0
95451,-50,4,2,25,80,0,0
95538,-133.333333333333,4,2,25,30,0,0
95624,-50,4,2,25,80,0,0
95710,-133.333333333333,4,2,25,30,0,0
95796,-50,4,2,25,80,0,0
95882,-133.333333333333,4,2,25,30,0,0
95969,-40.8163265306122,4,2,25,80,0,0
96055,-133.333333333333,4,2,25,30,0,0
96141,-50,4,2,25,80,0,0
96572,-133.333333333333,4,2,25,30,0,0
96658,-133.333333333333,4,2,25,80,0,0
96917,-133.333333333333,4,2,25,30,0,0
97003,-50,4,2,25,80,0,0
97348,-37.7358490566038,4,2,25,80,0,0
97434,-133.333333333333,4,2,25,30,0,0
97520,-50,4,2,25,80,0,0
97607,-133.333333333333,4,2,25,30,0,0
97693,-50,4,2,25,80,0,0
97779,-133.333333333333,4,2,25,30,0,0
97865,-50,4,2,25,80,0,0
97951,-133.333333333333,4,2,25,30,0,0
98038,-37.037037037037,4,2,25,60,0,0
98555,-66.6666666666667,4,2,25,70,0,0
99072,-50,4,2,25,80,0,0
99331,-133.333333333333,4,2,25,30,0,0
99417,-133.333333333333,4,2,25,70,0,0
99675,-133.333333333333,4,2,25,30,0,0
99762,-66.6666666666667,4,2,25,70,0,0
100107,-50,4,2,25,70,0,0
100193,-133.333333333333,4,2,25,30,0,0
100279,-133.333333333333,4,2,25,70,0,0
100365,-133.333333333333,4,2,25,30,0,0
100451,-133.333333333333,4,2,25,70,0,0
100538,-133.333333333333,4,2,25,30,0,0
100624,-133.333333333333,4,2,25,70,0,0
100710,-133.333333333333,4,2,25,30,0,0
100796,-46.5116279069767,4,2,25,70,0,0
100882,-133.333333333333,4,2,25,30,0,0
100969,-133.333333333333,4,2,25,70,0,0
101055,-133.333333333333,4,2,25,30,0,0
101141,-133.333333333333,4,2,25,70,0,0
101227,-133.333333333333,4,2,25,30,0,0
101313,-133.333333333333,4,2,25,70,0,0
101400,-133.333333333333,4,2,25,30,0,0
101486,-40,4,2,25,70,0,0
101572,-133.333333333333,4,2,25,30,0,0
101658,-133.333333333333,4,2,25,70,0,0
101744,-133.333333333333,4,2,25,30,0,0
101831,-133.333333333333,4,2,25,70,0,0
101917,-133.333333333333,4,2,25,30,0,0
102003,-133.333333333333,4,2,25,70,0,0
102089,-133.333333333333,4,2,25,30,0,0
102175,-66.6666666666667,4,2,25,70,0,0
102434,-133.333333333333,4,2,25,30,0,0
102520,-66.6666666666667,4,2,25,70,0,0
102865,-44.4444444444445,4,2,25,70,0,0
102951,-133.333333333333,4,2,25,30,0,0
103038,-133.333333333333,4,2,25,70,0,0
103124,-133.333333333333,4,2,25,30,0,0
103210,-133.333333333333,4,2,25,70,0,0
103296,-133.333333333333,4,2,25,30,0,0
103382,-133.333333333333,4,2,25,70,0,0
103469,-133.333333333333,4,2,25,30,0,0
103555,-40.8163265306122,4,2,25,70,0,0
103641,-133.333333333333,4,2,25,30,0,0
103727,-133.333333333333,4,2,25,70,0,0
103813,-133.333333333333,4,2,25,30,0,0
103900,-133.333333333333,4,2,25,70,0,0
103986,-133.333333333333,4,2,25,30,0,0
104072,-133.333333333333,4,2,25,70,0,0
104158,-133.333333333333,4,2,25,30,0,0
104244,-34.4827586206897,4,2,25,70,0,0
104331,-133.333333333333,4,2,25,30,0,0
104417,-133.333333333333,4,2,25,70,0,0
104503,-133.333333333333,4,2,25,30,0,0
104589,-133.333333333333,4,2,25,70,0,0
104675,-133.333333333333,4,2,25,30,0,0
104762,-133.333333333333,4,2,25,70,0,0
104848,-133.333333333333,4,2,25,30,0,0
104934,-66.6666666666667,4,2,25,70,0,0
105193,-133.333333333333,4,2,25,30,0,0
105279,-66.6666666666667,4,2,25,70,0,0
105624,-36.3636363636364,4,2,25,80,0,0
105710,-133.333333333333,4,2,25,30,0,0
105796,-50,4,2,25,80,0,0
105882,-133.333333333333,4,2,25,30,0,0
105969,-50,4,2,25,80,0,0
106055,-133.333333333333,4,2,25,30,0,0
106141,-50,4,2,25,80,0,0
106227,-133.333333333333,4,2,25,30,0,0
106313,-32.258064516129,4,2,25,80,0,0
106400,-133.333333333333,4,2,25,30,0,0
106486,-50,4,2,25,80,0,0
106572,-133.333333333333,4,2,25,30,0,0
106658,-50,4,2,25,80,0,0
106744,-133.333333333333,4,2,25,30,0,0
106831,-50,4,2,25,80,0,0
106917,-133.333333333333,4,2,25,30,0,0
107003,-30.3030303030303,4,2,25,80,0,0
107089,-133.333333333333,4,2,25,30,0,0
107175,-50,4,2,25,80,0,0
107607,-133.333333333333,4,2,25,30,0,0
107693,-133.333333333333,4,2,25,70,0,0
107951,-133.333333333333,4,2,25,30,0,0
108038,-66.6666666666667,4,2,25,70,0,0
108382,-27.7777777777778,4,2,25,80,0,0
108469,-133.333333333333,4,2,25,30,0,0
108555,-50,4,2,25,80,0,0
108641,-133.333333333333,4,2,25,30,0,0
108727,-50,4,2,25,80,0,0
108900,-40,4,2,25,70,0,0
109244,-38.4615384615385,4,2,25,60,0,0
110107,-1000,4,2,25,70,0,0
110365,-1000,4,2,25,5,0,0
110451,-66.6666666666667,4,2,25,70,0,0
110710,-133.333333333333,4,2,25,5,0,0
110796,-66.6666666666667,4,2,25,70,0,0
111141,-47.6190476190476,4,2,25,70,0,0
111831,-45.4545454545455,4,2,25,70,0,0
112520,-43.4782608695652,4,2,25,70,0,0
113210,-133.333333333333,4,2,25,70,0,0
113469,-133.333333333333,4,2,25,5,0,0
113555,-66.6666666666667,4,2,25,70,0,0
113900,-33.3333333333333,4,2,25,80,0,0
113986,-50,4,2,25,30,0,0
114072,-50,4,2,25,80,0,0
114158,-50,4,2,25,30,0,0
114244,-50,4,2,25,80,0,0
114331,-50,4,2,25,30,0,0
114417,-50,4,2,25,80,0,0
114503,-50,4,2,25,30,0,0
114589,-30.7692307692308,4,2,25,80,0,0
114675,-50,4,2,25,30,0,0
114762,-50,4,2,25,80,0,0
114848,-50,4,2,25,30,0,0
114934,-50,4,2,25,80,0,0
115020,-50,4,2,25,30,0,0
115107,-50,4,2,25,80,0,0
115193,-50,4,2,25,30,0,0
115279,-28.5714285714286,4,2,25,80,0,0
115365,-50,4,2,25,30,0,0
115451,-50,4,2,25,80,0,0
115538,-50,4,2,25,30,0,0
115624,-50,4,2,25,80,0,0
115710,-50,4,2,25,30,0,0
115796,-50,4,2,25,80,0,0
115969,-133.333333333333,4,2,25,70,0,0
116227,-133.333333333333,4,2,25,5,0,0
116313,-66.6666666666667,4,2,25,70,0,0
116658,-40,4,2,25,70,0,0
117348,-38.4615384615385,4,2,25,70,0,0
119244,-25,4,2,25,80,0,0
119331,-50,4,2,25,30,0,0
119417,-50,4,2,25,80,0,0
119503,-50,4,2,25,30,0,0
119589,-50,4,2,25,80,0,0
119675,-50,4,2,25,30,0,0
119762,-50,4,2,25,80,0,0
119848,-50,4,2,25,30,0,0
119934,-50,4,2,25,80,0,0
120020,-50,4,2,25,30,0,0
120107,-50,4,2,25,85,0,0
120624,-40,4,2,25,90,0,0
121141,-33.3333333333333,4,2,25,95,0,0
121400,-33.3333333333333,4,2,25,30,0,0
121486,-133.333333333333,4,2,25,100,0,0
121744,-133.333333333333,4,2,25,5,0,0
121831,-66.6666666666667,4,2,25,70,0,0
122175,-36.3636363636364,4,2,25,70,0,0
122865,-35.0877192982456,4,2,25,70,0,0
124244,-133.333333333333,4,2,25,70,0,0
124503,-133.333333333333,4,2,25,5,0,0
124589,-66.6666666666667,4,2,25,70,0,0
124934,-28.5714285714286,4,2,25,80,0,0
125020,-50,4,2,25,30,0,0
125107,-50,4,2,25,80,0,0
125193,-50,4,2,25,30,0,0
125279,-50,4,2,25,80,0,0
125365,-50,4,2,25,30,0,0
125451,-50,4,2,25,80,0,0
125538,-50,4,2,25,30,0,0
125624,-27.3972602739726,4,2,25,80,0,0
125710,-50,4,2,25,30,0,0
125796,-50,4,2,25,80,0,0
125882,-50,4,2,25,30,0,0
125969,-50,4,2,25,80,0,0
126055,-50,4,2,25,30,0,0
126141,-50,4,2,25,80,0,0
126227,-50,4,2,25,30,0,0
126313,-26.6666666666667,4,2,25,80,0,0
126400,-50,4,2,25,30,0,0
126486,-50,4,2,25,80,0,0
126572,-50,4,2,25,30,0,0
126658,-50,4,2,25,80,0,0
126744,-50,4,2,25,30,0,0
126831,-50,4,2,25,80,0,0
130279,-26.3157894736842,4,2,25,80,0,0
130365,-50,4,2,25,30,0,0
130451,-25.974025974026,4,2,25,80,0,0
130538,-50,4,2,25,30,0,0
130624,-25.6410256410256,4,2,25,80,0,0
130710,-50,4,2,25,30,0,0
130796,-25.3164556962025,4,2,25,80,0,0
132175,-133.333333333333,4,2,25,70,0,0
132434,-133.333333333333,4,2,25,5,0,0
132520,-133.333333333333,4,2,25,90,0,0

[Colours]
Combo1 : 255,155,255
Combo2 : 91,255,91
Combo3 : 117,255,255
Combo4 : 255,117,117
Combo5 : 255,221,119

[HitObjects]
355,182,49762,6,0,L|293:204,2,50,2|0|0,0:0|0:0|0:0,0:0:0:0:
181,201,50279,2,0,L|119:179,2,50,2|0|0,0:0|0:0|0:0,0:0:0:0:
228,112,50796,2,0,L|289:111,1,50,2|0,0:0|0:0,0:0:0:0:
388,255,51141,6,0,L|340:311,2,59.9999981689454,2|0|0,0:0|0:0|0:0,0:0:0:0:
124,255,51658,2,0,L|172:311,2,59.9999981689454,2|0|0,0:0|0:0|0:0,0:0:0:0:
267,145,52175,2,0,L|267:60,1,59.9999981689454,2|0,0:0|0:0,0:0:0:0:
62,36,52520,6,0,L|131:83,2,69.9999978637696,2|0|0,0:0|0:0|0:0,0:0:0:0:
334,261,53038,2,0,L|265:214,2,69.9999978637696,2|0|0,0:0|0:0|0:0,0:0:0:0:
471,57,53555,2,0,L|477:145,1,69.9999978637696,2|0,0:0|0:0,0:0:0:0:
190,38,53900,6,0,L|106:82,2,80,2|0|0,0:0|0:0|0:0,0:0:0:0:
380,299,54417,2,0,L|464:343,2,80,2|0|0,0:0|0:0|0:0,0:0:0:0:
88,166,54934,2,0,L|43:251,1,80,2|0,0:0|0:0,0:0:0:0:
312,87,55279,6,0,L|268:300,2,200,2|8|0,0:3|0:0|0:0,0:0:0:0:
185,143,56141,2,0,L|73:169,2,100,2|8|0,0:3|0:0|0:0,0:0:0:0:
122,65,56658,6,0,L|166:278,2,200,2|8|0,0:3|0:0|0:0,0:0:0:0:
249,121,57520,2,0,L|361:147,2,100,2|8|0,0:3|0:0|0:0,0:0:0:0:
362,222,58038,6,0,L|318:9,2,200,2|8|0,0:3|0:0|0:0,0:0:0:0:
235,166,58900,2,0,L|123:140,2,100,2|8|0,0:3|0:0|0:0,0:0:0:0:
86,301,59417,6,0,L|130:88,2,200,2|8|0,0:3|0:0|0:0,0:0:0:0:
213,245,60279,2,0,L|325:219,2,100,2|8|0,0:3|0:0|0:0,0:0:0:0:
362,66,60796,6,0,L|249:92,2,110.000003356934,8|0|8,0:1|0:0|0:0,0:0:0:0:
236,324,61313,2,0,L|349:298,2,110.000003356934,8|0|2,0:1|0:0|0:3,0:0:0:0:
63,132,61831,2,0,P|122:145|153:193,1,110.000003356934,8|0,0:1|0:0,0:0:0:0:
381,203,62175,6,0,L|300:215,3,55.0000016784668,8|2|2|2,0:1|0:3|0:3|0:3,0:0:0:0:
205,134,62520,2,0,L|257:105,1,55.0000016784668,8|0,0:0|0:0,0:0:0:0:
353,58,62693,2,0,L|434:70,3,55.0000016784668,8|2|2|2,0:1|0:3|0:3|0:3,0:0:0:0:
467,194,63038,2,0,L|473:269,1,55.0000016784668,6|0,0:3|0:0,0:0:0:0:
315,301,63210,2,0,L|234:313,3,55.0000016784668,8|0|0|0,0:1|0:0|0:0|0:0,0:0:0:0:
135,200,63555,6,0,L|216:212,3,55.0000016784668,8|2|2|2,0:1|0:3|0:3|0:3,0:0:0:0:
353,58,63900,2,0,L|299:66,1,55.0000016784668,8|2,0:0|0:3,0:0:0:0:
79,79,64072,2,0,L|196:115,1,110.000003356934,4|0,0:1|0:0,0:0:0:0:
378,254,64417,6,0,L|318:278,2,50,0|0|0,0:0|0:0|0:0,0:0:0:0:
189,208,64934,2,0,L|281:169,1,100,0|0,0:0|0:0,0:0:0:0:
482,176,65451,2,0,L|389:137,1,100,0|0,0:0|0:0,0:0:0:0:
450,267,65969,6,0,L|467:272,1,15,4|0,0:3|0:0,0:0:0:0:
380,332,66313,6,0,L|199:327,1,129.999994049073,4|0,0:0|0:0,0:0:0:0:
118,184,66658,2,0,L|299:179,1,129.999994049073,8|0,0:0|0:0,0:0:0:0:
410,48,67003,6,0,L|387:185,2,129.999994049073,2|2|8,0:2|0:3|0:0,0:0:0:0:
111,67,67520,2,0,L|134:204,2,129.999994049073,0|2|0,0:0|0:3|0:0,0:0:0:0:
419,216,68038,2,0,P|432:256|396:353,2,129.999994049073,8|0|2,0:0|0:0|0:2,0:0:0:0:
120,235,68555,2,0,P|112:272|143:372,2,129.999994049073,2|8|0,0:3|0:0|0:0,0:0:0:0:
318,122,69072,6,0,B|346:146|346:146|385:135|385:135|391:160,1,75.0000028610231,2|0,0:3|0:0,0:0:0:0:
219,113,69417,2,0,B|191:100|191:100|153:99|147:130|147:130|92:169,1,150.000005722046,8|0,0:0|0:0,0:0:0:0:
356,250,69762,6,0,B|390:255|390:255|414:261|414:261|441:255|441:255|463:242|463:242|524:256,2,150.000005722046,2|2|8,0:2|0:3|0:0,0:0:0:0:
212,205,70279,2,0,L|295:204,1,75.0000028610231,0|0,0:0|0:0,0:0:0:0:
446,123,70451,6,0,L|510:57,2,75.0000028610231,0|0|8,0:0|0:0|0:0,0:0:0:0:
343,71,70969,2,0,L|279:5,2,75.0000028610231,0|0|2,0:0|0:0|0:3,0:0:0:0:
179,133,71486,2,0,L|243:67,1,75.0000028610231,8|0,0:0|0:0,0:0:0:0:
326,237,71831,6,0,B|375:293|375:293|434:233,1,150.000005722046,4|0,0:0|0:0,0:0:0:0:
456,138,72175,2,0,B|407:82|407:82|348:142,1,150.000005722046,8|0,0:0|0:0,0:0:0:0:
182,206,72520,6,0,B|140:193|140:193|39:255,2,150.000005722046,2|2|8,0:2|0:3|0:0,0:0:0:0:
324,310,73038,2,0,B|366:323|366:323|467:261,2,150.000005722046,0|2|0,0:0|0:3|0:0,0:0:0:0:
269,157,73555,2,0,L|130:85,2,150.000005722046,8|0|2,0:0|0:0|0:2,0:0:0:0:
377,209,74072,2,0,L|516:137,2,150.000005722046,2|8|0,0:3|0:0|0:0,0:0:0:0:
354,60,74589,6,0,L|238:50,1,112.500004291535,4|0,0:0|0:0,0:0:0:0:
225,201,74934,2,0,B|224:256|224:256|241:279|241:279|258:302|258:302|280:376,1,150.000005722046,8|0,0:0|0:0,0:0:0:0:
90,246,75279,6,0,B|76:205|76:205|106:147|106:147|101:69,2,150.000005722046,2|2|8,0:2|0:3|0:0,0:0:0:0:
458,165,75796,2,0,B|408:135|408:135|330:135|330:135|284:107|284:107|260:63|260:63|172:46,1,300.000011444092,4|2,0:0|0:3,0:0:0:0:
225,201,76313,2,0,L|371:248,1,150.000005722046,8|2,0:0|0:3,0:0:0:0:
200,288,76658,2,0,P|177:316|57:361,3,150.000005722046,2|2|8|2,0:2|0:3|0:0|0:2,0:0:0:0:
188,113,77348,6,0,B|139:57|139:57|80:117,1,150.000005722046,4|0,0:0|0:0,0:0:0:0:
58,212,77692,2,0,B|107:268|107:268|166:208,1,150.000005722046,8|0,0:0|0:0,0:0:0:0:
332,144,78037,6,0,B|374:157|374:157|475:95,2,150.000005722046,0|2|8,0:0|0:3|0:0,0:0:0:0:
190,40,78555,2,0,B|148:27|148:27|47:89,2,150.000005722046,0|2|0,0:0|0:3|0:0,0:0:0:0:
245,193,79072,2,0,L|384:265,2,150.000005722046,8|0|2,0:0|0:0|0:2,0:0:0:0:
137,141,79589,2,0,L|-2:213,2,150.000005722046,2|8|0,0:3|0:0|0:0,0:0:0:0:
218,269,80107,6,0,B|190:245|190:245|151:256|151:256|145:231,1,75.0000028610231,0|0,0:0|0:0,0:0:0:0:
317,278,80452,2,0,B|345:291|345:291|383:292|389:261|389:261|444:222,1,150.000005722046,8|0,0:0|0:0,0:0:0:0:
180,141,80797,6,0,B|146:136|146:136|122:130|122:130|95:136|95:136|73:149|73:149|12:135,2,150.000005722046,2|2|8,0:2|0:3|0:0,0:0:0:0:
324,186,81314,2,0,L|241:187,1,75.0000028610231,0|0,0:0|0:0,0:0:0:0:
90,268,81486,6,0,L|26:334,2,75.0000028610231,2|0|8,0:3|0:0|0:0,0:0:0:0:
193,320,82004,2,0,L|257:386,2,75.0000028610231,0|2|2,0:3|0:2|0:3,0:0:0:0:
357,258,82521,2,0,L|293:324,1,75.0000028610231,8|0,0:0|0:0,0:0:0:0:
245,94,82865,6,0,B|300:67|300:67|355:61|355:61|386:46,1,150.000005722046,4|0,0:0|0:0,0:0:0:0:
245,244,83210,2,0,B|190:239|190:239|138:205|138:205|104:196,1,150.000005722046,8|0,0:0|0:0,0:0:0:0:
338,164,83555,6,0,B|380:151|380:151|481:213,2,150.000005722046,2|2|8,0:2|0:3|0:0,0:0:0:0:
196,268,84073,2,0,B|154:281|154:281|53:219,2,150.000005722046,0|0|0,0:0|0:0|0:0,0:0:0:0:
251,115,84590,2,0,L|390:43,2,150.000005722046,8|0|2,0:0|0:0|0:2,0:0:0:0:
143,167,85107,2,0,L|4:95,2,150.000005722046,2|8|0,0:3|0:0|0:0,0:0:0:0:
298,300,85624,6,0,L|317:175,1,112.500004291535,4|0,0:0|0:0,0:0:0:0:
496,133,85969,2,0,B|462:114|453:69|428:58|428:58|396:21,1,150.000005722046,8|0,0:0|0:0,0:0:0:0:
198,125,86313,6,0,B|150:142|150:142|74:237,2,150.000005722046,2|2|8,0:2|0:3|0:0,0:0:0:0:
192,307,86831,2,0,L|200:224,1,75.0000028610231,0|0,0:0|0:0,0:0:0:0:
402,219,87003,6,0,L|297:218,3,75.0000028610231,8|2|2|2,0:0|0:3|0:3|0:3,0:0:0:0:
232,123,87348,2,0,L|269:217,1,75.0000028610231,8|2,0:0|0:3,0:0:0:0:
324,89,87520,6,0,B|355:87|355:87|414:109,1,75.0000028610231,2|0,3:2|3:0,0:0:0:0:
488,182,87693,2,0,B|457:180|457:180|398:202,1,75.0000028610231,2|0,3:2|3:0,0:0:0:0:
315,307,87865,2,0,B|346:309|346:309|405:287,1,75.0000028610231,2|2,3:0|3:0,0:0:0:0:
221,259,88038,6,0,L|204:256,1,15,4|0,0:3|0:0,0:0:0:0:
44,192,88382,6,0,B|83:129|83:129|144:109|144:109|193:130|193:130|236:100,1,225.000008583069,4|0,1:0|0:0,0:0:0:0:
451,134,88727,2,0,L|203:201,1,225.000008583069,8|0,1:0|0:0,0:0:0:0:
45,326,89072,6,0,B|102:274|102:274|147:312|183:309,3,160,2|2|8|2,0:0|0:3|1:0|0:0,0:0:0:0:
233,192,89762,2,0,B|261:243|261:243|279:258|330:236|339:149,3,165.000001573563,2|2|8|2,0:3|0:0|1:0|0:0,0:0:0:0:
385,29,90451,2,0,B|435:28|435:28|479:34|451:133,3,170.000003242493,2|2|8|2,0:0|0:3|1:0|0:0,0:0:0:0:
216,36,91141,6,0,B|140:55|140:55|132:39|76:60|80:93|80:93|12:160,1,225.000008583069,4|0,0:0|0:0,0:0:0:0:
205,270,91486,2,0,B|223:218|314:136|327:68,1,225.000008583069,8|0,1:0|0:0,0:0:0:0:
450,313,91831,6,0,B|372:298|372:298|348:359|348:359|255:346,3,175.00000166893,2|2|8|2,0:0|0:3|1:0|0:0,0:0:0:0:
119,204,92520,2,0,B|139:200|139:200|132:82|132:82|236:147,3,184.999999294281,2|2|8|2,0:3|0:0|1:0|0:0,0:0:0:0:
512,24,93210,2,0,B|489:41|489:41|481:148|481:148|396:89,3,195.000000743866,2|2|8|2,0:0|0:3|1:0|0:3,0:0:0:0:
222,220,93900,6,0,B|182:273|182:273|149:269|149:269|106:291|106:291|70:293|70:293|20:249,1,225.000008583069,4|0,0:0|0:0,0:0:0:0:
165,105,94244,2,0,B|222:65|222:65|253:56|253:56|273:57|273:57|308:75|308:75|364:138,1,225.000008583069,8|0,1:0|0:0,0:0:0:0:
456,306,94589,6,0,B|401:293|401:293|353:329|353:329|288:318|288:318|216:346,3,215.00000328064,2|2|8|2,1:2|1:3|1:0|1:2,0:0:0:0:
45,192,95279,2,0,B|96:205|96:205|138:184|138:184|177:195|177:195|216:175|216:175|232:175|232:175|291:167,3,234.999996414185,2|2|8|2,1:3|1:2|1:0|1:2,0:0:0:0:
480,46,95969,2,0,B|425:59|425:59|374:35|374:35|292:28|292:28|275:57|275:57|212:55,1,245.000002336502,2|2,1:2|1:3,0:0:0:0:
222,73,96227,1,2,1:3:0:0:
209,110,96313,2,0,B|193:167|193:167|217:269|217:269|210:323,1,200,8|2,1:0|1:3,0:0:0:0:
323,189,96658,6,0,L|453:194,1,112.500004291535,4|0,0:0|0:0,0:0:0:0:
285,120,97003,2,0,P|169:59|56:240,1,300,8|0,1:0|0:0,0:0:0:0:
212,304,97348,6,0,B|251:316|251:316|274:338|274:338|306:340|306:340|357:310|357:310|384:313|384:313|425:291|425:291|489:303,3,265.000011119843,2|2|8|2,1:2|1:3|1:0|1:2,0:0:0:0:
285,120,98038,6,0,P|149:39|299:222,2,810.000003089905,4|4|12,1:0|1:0|1:0,0:0:0:0:
405,75,99417,6,0,P|515:53|536:65,1,112.500004291535,4|0,1:0|0:0,0:0:0:0:
320,187,99762,2,0,P|183:183|66:187,1,225.000008583069,8|0,1:0|0:0,0:0:0:0:
205,359,100107,6,0,B|169:360|169:360|147:340|116:313|116:313|86:327|60:312|60:312|29:263,3,200,2|2|8|2,0:0|0:3|1:0|0:0,0:0:0:0:
366,251,100796,2,0,P|447:318|373:357,3,215.00000328064,2|2|8|2,0:3|0:0|1:0|0:0,0:0:0:0:
382,84,101486,2,0,P|483:83|425:0,3,250,2|2|8|2,0:0|0:3|1:0|0:0,0:0:0:0:
293,171,102175,6,0,P|204:146|60:140,1,225.000008583069,4|0,0:0|2:0,0:0:0:0:
257,259,102520,2,0,P|371:276|378:156,1,225.000008583069,8|0,1:0|0:0,0:0:0:0:
238,51,102865,6,0,B|310:38|310:38|353:57|353:57|388:96|388:96|445:119,3,225.000008583069,2|2|8|2,0:0|0:3|1:0|0:0,0:0:0:0:
146,255,103555,2,0,P|38:281|106:369,3,245.000002336502,2|2|8|2,0:3|0:0|1:0|0:0,0:0:0:0:
387,142,104244,2,0,P|495:168|388:255,3,290.000008850098,2|2|8|2,0:0|0:3|1:0|0:3,0:0:0:0:
242,170,104934,6,0,P|193:173|67:48,1,225.000008583069,4|0,0:0|0:0,0:0:0:0:
314,154,105279,2,0,P|320:243|270:398,1,225.000008583069,8|0,1:0|0:0,0:0:0:0:
32,272,105624,6,0,B|63:216|63:216|112:218|112:218|142:203|142:203|163:177|163:177|209:199|209:199|317:101,3,275.000002622604,2|2|8|2,1:2|1:3|1:0|1:2,0:0:0:0:
505,45,106313,2,0,B|471:89|471:89|433:96|433:96|402:117|402:117|376:91|376:91|351:101|351:101|338:86|338:86|297:94|297:94|277:82|277:82|217:67,3,310.000002365112,2|2|8|2,1:3|1:2|1:0|1:2,0:0:0:0:
28,140,107003,2,0,B|86:171|86:171|196:184|196:184|271:220|271:220|363:236,1,330.000003147125,2|2,1:2|1:3,0:0:0:0:
368,260,107262,1,2,1:3:0:0:
351,296,107348,2,0,B|311:316|311:316|190:309|190:309|87:334,1,200,8|2,1:0|1:3,0:0:0:0:
301,138,107693,6,0,P|415:100|425:104,1,112.500004291535,4|0,1:0|0:0,0:0:0:0:
222,253,108038,2,0,L|14:131,1,225.000008583069,8|0,1:0|0:0,0:0:0:0:
461,242,108382,6,0,B|399:236|399:236|376:206|376:206|340:212|340:212|299:149|299:149|270:155|270:155|246:128|246:128|216:125|216:125|192:149|192:149|99:86,1,359.999989013672,2|2,1:2|1:3,0:0:0:0:
37,329,108727,2,0,L|224:251,1,200,8|0,1:0|0:0,0:0:0:0:
351,376,109072,6,0,L|287:268,1,125,8|0,1:0|0:0,0:0:0:0:
391,278,109244,2,0,P|431:228|493:212,3,129.999994049073,2|2|8|2,3:0|3:0|1:0|0:3,0:0:0:0:
401,162,109589,2,0,L|262:188,2,129.999994049073,0|0|8,3:0|3:0|0:0,0:0:0:0:
140,184,109934,2,0,L|22:238,1,129.999994049073,8|0,1:0|3:0,0:0:0:0:
85,111,110107,6,0,L|101:104,1,15,4|0,0:3|0:0,0:0:0:0:
277,158,110451,2,0,L|245:401,1,225.000008583069,4|0,1:0|2:0,0:0:0:0:
146,156,110796,2,0,P|218:97|317:51,1,150.000005722046,8|0,1:0|0:0,0:0:0:0:
449,217,111141,6,0,P|410:232|345:238,1,104.999996795654,2|0,0:0|0:0,0:0:0:0:
389,165,111313,2,0,L|488:115,1,104.999996795654,0|0,0:0|0:0,0:0:0:0:
360,355,111486,2,0,P|324:335|277:289,1,104.999996795654,8|0,1:0|0:0,0:0:0:0:
362,276,111658,2,0,L|480:304,1,104.999996795654,2|0,0:0|0:0,0:0:0:0:
189,228,111831,6,0,P|205:121|213:98,1,110.000003356934,0|0,0:0|0:0,0:0:0:0:
291,138,112003,2,0,L|285:252,1,110.000003356934,0|0,0:0|0:0,0:0:0:0:
170,320,112175,2,0,P|74:268|56:252,1,110.000003356934,8|0,1:0|0:0,0:0:0:0:
121,194,112348,2,0,L|130:75,1,110.000003356934,0|0,0:0|0:0,0:0:0:0:
219,40,112520,6,0,L|369:52,1,115.000002193451,0|0,0:0|0:0,0:0:0:0:
415,92,112693,2,0,L|301:132,1,115.000002193451,2|0,0:3|0:0,0:0:0:0:
284,310,112865,2,0,L|134:322,1,115.000002193451,0|0,0:0|0:0,0:0:0:0:
88,362,113038,2,0,L|207:375,1,115.000002193451,0|0,0:0|0:0,0:0:0:0:
284,230,113210,6,0,L|181:150,1,112.500004291535,4|0,0:0|0:0,0:0:0:0:
34,260,113555,2,0,L|148:59,1,225.000008583069,12|0,1:0|0:0,0:0:0:0:
468,211,113900,6,0,B|412:176|412:176|384:167|384:167|360:181|360:181|330:208|330:208|301:216|301:216|270:222|270:222|265:245|265:245|188:283,3,300.000011444092,2|2|8|2,1:2|1:3|1:0|1:2,0:0:0:0:
15,88,114589,2,0,B|73:114|73:114|114:72|114:72|174:54|174:54|215:82|215:82|270:84|270:84|371:37,3,325.000009298325,2|2|8|2,1:3|1:2|1:0|1:2,0:0:0:0:
444,356,115279,2,0,B|391:358|391:358|349:373|349:373|309:356|309:356|279:336|279:336|229:347|229:347|192:367|192:367|146:347|146:347|42:350,2,350.00000333786,2|2|8,1:2|1:3|1:0,0:0:0:0:
276,246,115796,2,0,P|238:225|167:202,1,100,2|0,0:3|0:0,0:0:0:0:
35,240,115969,6,0,L|104:143,1,112.500004291535,4|0,0:0|0:0,0:0:0:0:
227,123,116313,2,0,L|457:182,1,225.000008583069,8|0,1:0|0:0,0:0:0:0:
263,315,116658,6,0,P|233:333|136:353,1,125,2|0,0:0|0:0,0:0:0:0:
276,246,116831,2,0,L|420:284,1,125,0|0,0:0|0:0,0:0:0:0:
152,259,117003,2,0,P|122:242|56:168,1,125,8|0,1:0|0:0,0:0:0:0:
219,236,117176,2,0,L|258:380,1,125,2|0,0:0|0:0,0:0:0:0:
191,103,117348,6,0,P|328:89|337:100,1,129.999994049073,0|0,0:0|0:0,0:0:0:0:
124,140,117520,2,0,L|57:21,1,129.999994049073,0|0,0:0|0:0,0:0:0:0:
312,194,117693,2,0,P|392:305|387:318,1,129.999994049073,8|0,1:0|0:0,0:0:0:0:
246,154,117865,2,0,L|315:36,1,129.999994049073,0|0,0:0|0:0,0:0:0:0:
414,255,118038,6,0,P|473:383|467:438,1,129.999994049073,0|0,0:0|0:0,0:0:0:0:
369,348,118210,1,2,1:3:0:0:
292,332,118296,1,2,1:3:0:0:
216,313,118382,2,0,L|80:270,1,129.999994049073,8|0,1:0|0:0,0:0:0:0:
43,123,118555,2,0,L|179:80,1,129.999994049073,2|0,3:0|0:0,0:0:0:0:
497,87,118727,6,0,L|237:156,2,259.999988098145,4|0|8,1:0|0:0|1:0,0:0:0:0:
82,346,119244,6,0,B|133:376|133:376|416:356|416:356|511:377,4,400,2|2|2|8|2,1:2|1:2|1:3|1:0|1:2,0:0:0:0:
70,157,120107,6,0,P|207:95|214:122,1,200,12|0,1:0|0:0,0:0:0:0:
268,357,120451,1,2,0:3:0:0:
508,67,120624,6,0,P|371:5|356:58,1,250,12|0,1:0|0:0,0:0:0:0:
270,384,120969,1,2,0:3:0:0:
30,4,121141,6,0,P|230:16|227:239,1,450.000017166138,12|0,0:1|0:0,0:0:0:0:
48,292,121486,6,0,L|188:300,1,112.500004291535,4|0,1:0|0:0,0:0:0:0:
312,230,121831,2,0,L|176:100,1,150.000005722046,8|0,1:0|0:0,0:0:0:0:
9,26,122175,6,0,P|63:13|182:36,1,137.500001311302,2|0,0:0|0:0,0:0:0:0:
9,205,122348,2,0,L|123:122,1,137.500001311302,0|0,0:0|0:0,0:0:0:0:
338,131,122520,2,0,P|284:118|165:141,1,137.500001311302,8|0,1:0|0:0,0:0:0:0:
338,310,122693,2,0,L|224:227,1,137.500001311302,2|0,0:0|0:0,0:0:0:0:
82,332,122865,6,0,P|115:346|267:355,1,142.500001358986,0|0,0:0|0:0,0:0:0:0:
159,197,123038,2,0,L|15:285,1,142.500001358986,0|0,0:0|0:0,0:0:0:0:
424,339,123210,2,0,P|432:304|414:152,1,142.500001358986,8|0,1:0|0:0,0:0:0:0:
277,286,123383,2,0,L|389:413,1,142.500001358986,0|0,0:0|0:0,0:0:0:0:
371,0,123555,2,0,P|335:0|189:42,1,142.500001358986,0|0,0:0|0:0,0:0:0:0:
345,154,123728,2,0,L|450:22,1,142.500001358986,2|0,0:3|0:0,0:0:0:0:
173,80,123900,2,0,P|29:113|23:144,1,142.500001358986,0|0,0:0|0:0,0:0:0:0:
150,292,124072,2,0,P|294:259|300:228,1,142.500001358986,0|0,0:0|0:0,0:0:0:0:
66,192,124244,6,0,L|36:319,1,112.500004291535,4|0,0:0|0:0,0:0:0:0:
213,220,124589,2,0,L|444:217,1,225.000008583069,8|0,1:0|0:0,0:0:0:0:
327,19,124934,6,0,B|253:46|253:46|164:100|164:100|104:156|104:156|30:256,3,350.00000333786,2|2|8|2,1:2|1:3|1:0|1:2,0:0:0:0:
322,378,125624,2,0,B|387:350|387:350|449:193|449:193|380:56,3,364.999994778633,2|2|8|2,1:3|1:2|1:0|1:2,0:0:0:0:
359,222,126313,2,0,B|286:207|286:207|119:307|119:307|36:202,2,375.000008940697,2|2|8,1:2|1:3|1:0,0:0:0:0:
322,378,126831,2,0,L|163:388,1,100,2|0,0:3|0:0,0:0:0:0:
53,223,127003,5,4,0:0:0:0:
346,15,127175,1,2,0:3:0:0:
22,120,127348,5,8,1:0:0:0:
379,86,127520,1,2,0:3:0:0:
28,5,127693,5,2,0:0:0:0:
416,212,127865,1,0,0:0:0:0:
123,0,128038,5,8,1:0:0:0:
368,375,128210,1,2,0:0:0:0:
76,65,128382,5,0,0:0:0:0:
200,382,128555,1,0,0:0:0:0:
199,11,128727,5,8,1:0:0:0:
106,361,128900,1,0,0:0:0:0:
356,14,129072,5,0,0:0:0:0:
26,306,129245,1,2,1:3:0:0:
26,306,129331,1,2,1:3:0:0:
26,306,129417,2,0,L|29:204,1,100,8|0,1:0|0:0,0:0:0:0:
92,116,129589,2,0,L|156:198,1,100,2|0,1:3|0:0,0:0:0:0:
387,315,129762,6,0,P|489:233|458:174,1,200,4|2,1:0|0:3,0:0:0:0:
97,12,130107,2,0,P|-5:94|4:125,1,100,8|0,1:0|0:0,0:0:0:0:
92,116,130279,6,0,P|153:125|291:134,1,189.999994926453,2|0,1:3|0:0,0:0:0:0:
387,315,130451,2,0,L|170:313,1,192.500001835823,2|0,1:3|0:0,0:0:0:0:
97,12,130624,2,0,P|310:28|312:29,1,195.000000743866,2|0,1:3|0:0,0:0:0:0:
380,360,130796,6,0,L|-42:353,1,394.999997739792,8|2,1:0|0:3,0:0:0:0:
92,116,131141,5,8,1:0:0:0:
151,116,131227,1,2,0:3:0:0:
210,117,131313,1,2,0:3:0:0:
269,125,131400,1,2,0:3:0:0:
259,203,131486,5,8,0:0:0:0:
181,217,131572,1,2,0:3:0:0:
102,226,131658,1,8,1:0:0:0:
24,238,131744,1,2,0:3:0:0:
79,320,131831,5,2,0:3:0:0:
177,312,131917,1,2,0:3:0:0:
274,300,132003,1,0,3:0:0:0:
370,282,132089,1,0,3:0:0:0:
362,187,132175,6,0,P|310:147|269:125,1,112.500004291535,2|0,0:0|0:0,0:0:0:0:
151,116,132520,1,4,1:0:0:0:
