osu file format v14

[General]
AudioFilename: audio.mp3
AudioLeadIn: 0
PreviewTime: 64407
Countdown: 0
SampleSet: Soft
StackLeniency: 0.4
Mode: 0
LetterboxInBreaks: 0
WidescreenStoryboard: 0

[Editor]
Bookmarks: 132510
DistanceSpacing: 1.2
BeatDivisor: 4
GridSize: 32
TimelineZoom: 1.8

[Metadata]
Title:Hide Away My Heart
TitleUnicode:Hide Away My Heart
Artist:MaxNRG
ArtistUnicode:MaxNRG
Creator:Strategas
Version:Easy
Source:
Tags:dnb drum and & bass liquicity liquid cut Exote Come[Back]Home cbh
BeatmapID:1070635
BeatmapSetID:502928

[Difficulty]
HPDrainRate:2
CircleSize:2.5
OverallDifficulty:2
ApproachRate:3
SliderMultiplier:0.799999999999999
SliderTickRate:1

[Events]
//Background and Video events
0,0,"almost out of bgs fuk.jpg",0,0
//Break Periods
2,44444,48322
//Storyboard Layer 0 (Background)
//Storyboard Layer 1 (Fail)
//Storyboard Layer 2 (Pass)
//Storyboard Layer 3 (Foreground)
//Storyboard Sound Samples

[TimingPoints]
107,344.827586206897,4,2,25,70,1,0
107,-100,4,2,25,70,0,0
279,-100,4,2,25,40,0,0
11141,-100,4,2,25,70,0,0
11313,-100,4,2,25,45,0,0
11572,-100,4,2,25,5,0,0
11658,-100,4,2,25,45,0,0
11744,-100,4,2,25,5,0,0
11831,-100,4,2,25,45,0,0
11917,-100,4,2,25,5,0,0
12003,-100,4,2,25,45,0,0
12951,-100,4,2,25,5,0,0
13038,-100,4,2,25,45,0,0
13124,-100,4,2,25,5,0,0
13211,-100,4,2,25,45,0,0
13297,-100,4,2,25,5,0,0
13383,-100,4,2,25,45,0,0
14503,-100,4,2,25,5,0,0
14590,-100,4,2,25,45,0,0
14676,-100,4,2,25,5,0,0
14762,-100,4,2,25,45,0,0
15710,-100,4,2,25,5,0,0
15797,-100,4,2,25,45,0,0
15883,-100,4,2,25,15,0,0
15970,-100,4,2,25,45,0,0
16056,-100,4,2,25,15,0,0
16142,-100,4,2,25,45,0,0
16227,-100,4,2,25,15,0,0
16313,-100,4,2,25,45,0,0
17219,-100,4,2,25,20,0,0
17348,-100,4,2,25,45,0,0
17391,-100,4,2,25,20,0,0
17520,-100,4,2,25,45,0,0
18469,-100,4,2,25,5,0,0
18555,-100,4,2,25,45,0,0
18598,-100,4,2,25,5,0,0
18727,-100,4,2,25,45,0,0
18770,-100,4,2,25,5,0,0
18900,-100,4,2,25,45,0,0
19417,-100,4,2,25,35,0,0
19762,-100,4,2,25,40,0,0
20107,-100,4,2,25,45,0,0
20451,-100,4,2,25,40,0,0
21141,-100,4,2,25,35,0,0
21486,-100,4,2,25,25,0,0
21831,-100,4,2,25,15,0,0
22175,-100,4,2,25,50,0,0
33210,-100,4,2,25,70,0,0
33555,-100,4,2,25,50,0,0
33770,-100,4,2,25,10,0,0
33900,-100,4,2,25,50,0,0
33943,-100,4,2,25,10,0,0
34072,-100,4,2,25,50,0,0
36529,-100,4,2,25,10,0,0
36659,-100,4,2,25,50,0,0
36702,-100,4,2,25,10,0,0
36831,-100,4,2,25,50,0,0
39288,-100,4,2,25,10,0,0
39418,-100,4,2,25,50,0,0
39461,-100,4,2,25,10,0,0
39590,-100,4,2,25,50,0,0
41486,-100,4,2,25,25,0,0
41658,-100,4,2,25,30,0,0
41831,-100,4,2,25,35,0,0
42003,-100,4,2,25,40,0,0
42175,-100,4,2,25,45,0,0
42520,-100,4,2,25,50,0,0
44244,-100,4,2,25,70,0,0
49762,-100,4,2,25,40,0,0
55279,-100,4,2,25,55,0,0
60796,-100,4,2,25,70,0,0
64417,-100,4,2,25,30,0,0
65969,-100,4,2,25,70,0,0
66227,-100,4,2,25,5,0,0
66313,-100,4,1,25,70,0,1
69072,-100,4,1,25,70,0,1
69331,-100,4,2,25,5,0,1
69417,-100,4,1,25,70,0,1
70451,-100,4,1,25,70,0,1
71831,-100,4,1,25,70,0,1
74589,-100,4,1,25,70,0,1
74848,-100,4,2,25,5,0,1
74934,-100,4,1,25,70,0,1
80107,-100,4,1,25,70,0,1
80451,-100,4,1,25,70,0,1
81486,-100,4,1,25,70,0,1
82865,-100,4,1,25,70,0,1
85624,-100,4,1,25,70,0,1
85968,-100,4,1,25,70,0,1
88038,-100,4,2,25,70,0,0
88296,-100,4,2,25,5,0,0
88382,-100,4,2,25,70,0,0
88641,-100,4,2,25,30,0,0
88727,-100,4,2,25,70,0,0
89072,-100,4,2,25,70,0,0
89158,-100,4,2,25,30,0,0
89244,-100,4,2,25,70,0,0
89331,-100,4,2,25,30,0,0
89417,-100,4,2,25,70,0,0
89503,-100,4,2,25,30,0,0
89589,-100,4,2,25,70,0,0
89675,-100,4,2,25,30,0,0
89762,-100,4,2,25,70,0,0
89848,-100,4,2,25,30,0,0
89934,-100,4,2,25,70,0,0
90020,-100,4,2,25,30,0,0
90107,-100,4,2,25,70,0,0
90193,-100,4,2,25,30,0,0
90279,-100,4,2,25,70,0,0
90365,-100,4,2,25,30,0,0
90451,-100,4,2,25,70,0,0
90538,-100,4,2,25,30,0,0
90624,-100,4,2,25,70,0,0
90710,-100,4,2,25,30,0,0
90796,-100,4,2,25,70,0,0
90882,-100,4,2,25,30,0,0
90969,-100,4,2,25,70,0,0
91055,-100,4,2,25,30,0,0
91141,-100,4,2,25,70,0,0
91400,-100,4,2,25,30,0,0
91486,-100,4,2,25,70,0,0
91831,-100,4,2,25,70,0,0
91917,-100,4,2,25,30,0,0
92003,-100,4,2,25,70,0,0
92089,-100,4,2,25,30,0,0
92175,-100,4,2,25,70,0,0
92262,-100,4,2,25,30,0,0
92348,-100,4,2,25,70,0,0
92434,-100,4,2,25,30,0,0
92520,-100,4,2,25,70,0,0
92607,-100,4,2,25,30,0,0
92693,-100,4,2,25,70,0,0
92779,-100,4,2,25,30,0,0
92865,-100,4,2,25,70,0,0
92951,-100,4,2,25,30,0,0
93038,-100,4,2,25,70,0,0
93124,-100,4,2,25,30,0,0
93210,-100,4,2,25,70,0,0
93296,-100,4,2,25,30,0,0
93382,-100,4,2,25,70,0,0
93469,-100,4,2,25,30,0,0
93555,-100,4,2,25,70,0,0
93641,-100,4,2,25,30,0,0
93727,-100,4,2,25,70,0,0
93813,-100,4,2,25,30,0,0
93900,-100,4,2,25,70,0,0
94158,-100,4,2,25,30,0,0
94244,-100,4,2,25,70,0,0
94589,-100,4,2,25,80,0,0
94675,-100,4,2,25,30,0,0
94762,-100,4,2,25,80,0,0
94848,-100,4,2,25,30,0,0
94934,-100,4,2,25,80,0,0
95020,-100,4,2,25,30,0,0
95107,-100,4,2,25,80,0,0
95193,-100,4,2,25,30,0,0
95279,-100,4,2,25,80,0,0
95365,-100,4,2,25,30,0,0
95451,-100,4,2,25,80,0,0
95538,-100,4,2,25,30,0,0
95624,-100,4,2,25,80,0,0
95710,-100,4,2,25,30,0,0
95796,-100,4,2,25,80,0,0
95882,-100,4,2,25,30,0,0
95969,-100,4,2,25,80,0,0
96055,-100,4,2,25,30,0,0
96141,-100,4,2,25,80,0,0
96572,-100,4,2,25,30,0,0
96658,-100,4,2,25,80,0,0
96917,-100,4,2,25,30,0,0
97003,-100,4,2,25,80,0,0
97434,-100,4,2,25,30,0,0
97520,-100,4,2,25,80,0,0
97607,-100,4,2,25,30,0,0
97693,-100,4,2,25,80,0,0
97779,-100,4,2,25,30,0,0
97865,-100,4,2,25,80,0,0
97951,-100,4,2,25,30,0,0
98038,-100,4,2,25,60,0,0
98555,-100,4,2,25,70,0,0
99072,-100,4,2,25,80,0,0
99331,-100,4,2,25,30,0,0
99417,-100,4,2,25,70,0,0
99675,-100,4,2,25,30,0,0
99762,-100,4,2,25,70,0,0
100107,-100,4,2,25,70,0,0
100193,-100,4,2,25,30,0,0
100279,-100,4,2,25,70,0,0
100365,-100,4,2,25,30,0,0
100451,-100,4,2,25,70,0,0
100538,-100,4,2,25,30,0,0
100624,-100,4,2,25,70,0,0
100710,-100,4,2,25,30,0,0
100796,-100,4,2,25,70,0,0
100882,-100,4,2,25,30,0,0
100969,-100,4,2,25,70,0,0
101055,-100,4,2,25,30,0,0
101141,-100,4,2,25,70,0,0
101227,-100,4,2,25,30,0,0
101313,-100,4,2,25,70,0,0
101400,-100,4,2,25,30,0,0
101486,-100,4,2,25,70,0,0
101572,-100,4,2,25,30,0,0
101658,-100,4,2,25,70,0,0
101744,-100,4,2,25,30,0,0
101831,-100,4,2,25,70,0,0
101917,-100,4,2,25,30,0,0
102003,-100,4,2,25,70,0,0
102089,-100,4,2,25,30,0,0
102175,-100,4,2,25,70,0,0
102434,-100,4,2,25,30,0,0
102520,-100,4,2,25,70,0,0
102865,-100,4,2,25,70,0,0
102951,-100,4,2,25,30,0,0
103038,-100,4,2,25,70,0,0
103124,-100,4,2,25,30,0,0
103210,-100,4,2,25,70,0,0
103296,-100,4,2,25,30,0,0
103382,-100,4,2,25,70,0,0
103469,-100,4,2,25,30,0,0
103555,-100,4,2,25,70,0,0
103641,-100,4,2,25,30,0,0
103727,-100,4,2,25,70,0,0
103813,-100,4,2,25,30,0,0
103900,-100,4,2,25,70,0,0
103986,-100,4,2,25,30,0,0
104072,-100,4,2,25,70,0,0
104158,-100,4,2,25,30,0,0
104244,-100,4,2,25,70,0,0
104331,-100,4,2,25,30,0,0
104417,-100,4,2,25,70,0,0
104503,-100,4,2,25,30,0,0
104589,-100,4,2,25,70,0,0
104675,-100,4,2,25,30,0,0
104762,-100,4,2,25,70,0,0
104848,-100,4,2,25,30,0,0
104934,-100,4,2,25,70,0,0
105193,-100,4,2,25,30,0,0
105279,-100,4,2,25,70,0,0
105624,-100,4,2,25,80,0,0
105710,-100,4,2,25,30,0,0
105796,-100,4,2,25,80,0,0
105882,-100,4,2,25,30,0,0
105969,-100,4,2,25,80,0,0
106055,-100,4,2,25,30,0,0
106141,-100,4,2,25,80,0,0
106227,-100,4,2,25,30,0,0
106313,-100,4,2,25,80,0,0
106400,-100,4,2,25,30,0,0
106486,-100,4,2,25,80,0,0
106572,-100,4,2,25,30,0,0
106658,-100,4,2,25,80,0,0
106744,-100,4,2,25,30,0,0
106831,-100,4,2,25,80,0,0
106917,-100,4,2,25,30,0,0
107003,-100,4,2,25,80,0,0
107089,-100,4,2,25,30,0,0
107175,-100,4,2,25,80,0,0
107607,-100,4,2,25,30,0,0
107693,-100,4,2,25,70,0,0
107951,-100,4,2,25,30,0,0
108038,-100,4,2,25,70,0,0
108382,-100,4,2,25,80,0,0
108469,-100,4,2,25,30,0,0
108555,-100,4,2,25,80,0,0
108641,-100,4,2,25,30,0,0
108727,-100,4,2,25,80,0,0
108900,-100,4,2,25,70,0,0
109244,-100,4,2,25,60,0,0
110107,-100,4,2,25,70,0,0
110365,-100,4,2,25,5,0,0
110451,-100,4,2,25,70,0,0
110710,-100,4,2,25,5,0,0
110796,-100,4,2,25,70,0,0
113210,-100,4,2,25,70,0,0
113469,-100,4,2,25,5,0,0
113555,-100,4,2,25,70,0,0
113900,-100,4,2,25,80,0,0
113986,-100,4,2,25,30,0,0
114072,-100,4,2,25,80,0,0
114158,-100,4,2,25,30,0,0
114244,-100,4,2,25,80,0,0
114331,-100,4,2,25,30,0,0
114417,-100,4,2,25,80,0,0
114503,-100,4,2,25,30,0,0
114589,-100,4,2,25,80,0,0
114675,-100,4,2,25,30,0,0
114762,-100,4,2,25,80,0,0
114848,-100,4,2,25,30,0,0
114934,-100,4,2,25,80,0,0
115020,-100,4,2,25,30,0,0
115107,-100,4,2,25,80,0,0
115193,-100,4,2,25,30,0,0
115279,-100,4,2,25,80,0,0
115365,-100,4,2,25,30,0,0
115451,-100,4,2,25,80,0,0
115538,-100,4,2,25,30,0,0
115624,-100,4,2,25,80,0,0
115710,-100,4,2,25,30,0,0
115796,-100,4,2,25,80,0,0
115969,-100,4,2,25,70,0,0
116227,-100,4,2,25,5,0,0
116313,-100,4,2,25,70,0,0
116658,-100,4,2,25,70,0,0
119244,-100,4,2,25,80,0,0
119331,-100,4,2,25,30,0,0
119417,-100,4,2,25,80,0,0
119503,-100,4,2,25,30,0,0
119589,-100,4,2,25,80,0,0
119675,-100,4,2,25,30,0,0
119762,-100,4,2,25,80,0,0
119848,-100,4,2,25,30,0,0
119934,-100,4,2,25,80,0,0
120020,-100,4,2,25,30,0,0
120107,-100,4,2,25,85,0,0
120624,-100,4,2,25,90,0,0
121141,-100,4,2,25,95,0,0
121400,-100,4,2,25,30,0,0
121486,-100,4,2,25,100,0,0
121744,-100,4,2,25,5,0,0
121831,-100,4,2,25,70,0,0
124244,-100,4,2,25,70,0,0
124503,-100,4,2,25,5,0,0
124589,-100,4,2,25,70,0,0
124934,-100,4,2,25,80,0,0
125020,-100,4,2,25,30,0,0
125107,-100,4,2,25,80,0,0
125193,-100,4,2,25,30,0,0
125279,-100,4,2,25,80,0,0
125365,-100,4,2,25,30,0,0
125451,-100,4,2,25,80,0,0
125538,-100,4,2,25,30,0,0
125624,-100,4,2,25,80,0,0
125710,-100,4,2,25,30,0,0
125796,-100,4,2,25,80,0,0
125882,-100,4,2,25,30,0,0
125969,-100,4,2,25,80,0,0
126055,-100,4,2,25,30,0,0
126141,-100,4,2,25,80,0,0
126227,-100,4,2,25,30,0,0
126313,-100,4,2,25,80,0,0
126400,-100,4,2,25,30,0,0
126486,-100,4,2,25,80,0,0
126572,-100,4,2,25,30,0,0
126658,-100,4,2,25,80,0,0
126744,-100,4,2,25,30,0,0
126831,-100,4,2,25,80,0,0
130365,-100,4,2,25,30,0,0
130451,-100,4,2,25,80,0,0
130538,-100,4,2,25,30,0,0
130624,-100,4,2,25,80,0,0
130710,-100,4,2,25,30,0,0
130796,-100,4,2,25,80,0,0
132175,-100,4,2,25,70,0,0
132434,-100,4,2,25,5,0,0
132520,-100,4,2,25,90,0,0

[Colours]
Combo1 : 255,155,255
Combo2 : 91,255,91
Combo3 : 117,255,255
Combo4 : 255,117,117
Combo5 : 255,221,119

[HitObjects]
58,180,107,6,0,B|120:208|120:208|298:196,1,240,2|0,0:0|0:0,0:0:0:0:
368,138,1486,2,0,B|311:107|311:107|133:119,1,240,2|0,0:0|0:0,0:0:0:0:
40,111,2865,2,0,B|73:212|73:212|211:203,1,240,2|0,0:0|0:0,0:0:0:0:
302,210,4244,2,0,B|269:109|269:109|135:117,1,240,2|0,0:0|0:0,0:0:0:0:
39,123,5624,6,0,B|4:240|89:240|48:366,1,240,2|0,0:0|0:0,0:0:0:0:
146,350,7003,2,0,B|263:315|263:400|380:361,1,240,2|0,0:0|0:0,0:0:0:0:
445,291,8382,2,0,B|480:174|395:174|436:48,1,240,2|0,0:0|0:0,0:0:0:0:
345,16,9762,2,0,B|228:-19|228:66|102:25,1,240,2|0,0:0|0:0,0:0:0:0:
15,15,11141,5,4,1:0:0:0:
51,103,11486,2,0,B|59:170|59:170|50:268,1,160,0|0,0:0|0:0,0:0:0:0:
40,357,12520,1,2,0:0:0:0:
128,319,12865,2,0,B|195:311|195:311|293:320,1,160,0|0,0:0|0:0,0:0:0:0:
381,337,13900,5,2,0:0:0:0:
428,253,14244,2,0,P|438:176|409:91,1,160,0|0,0:0|0:0,0:0:0:0:
324,62,15279,1,2,0:0:0:0:
242,113,15624,2,0,P|165:123|80:94,1,160,0|0,0:0|0:0,0:0:0:0:
3,52,16658,5,2,0:0:0:0:
6,147,17003,2,0,L|14:317,1,160,0|0,0:0|0:0,0:0:0:0:
75,380,18038,1,2,0:0:0:0:
114,292,18382,2,0,L|106:132,1,160,0|0,0:0|0:0,0:0:0:0:
175,64,19417,6,0,P|216:54|258:62,2,79.9999999999999,2|2|2,0:3|0:3|0:3,0:0:0:0:
219,149,20451,1,2,0:3:0:0:
264,233,20796,2,0,B|304:220|304:220|345:237|345:237|393:221|393:221|439:240|439:240|499:223,1,240,0|0,3:0|3:0,0:0:0:0:
447,140,22175,5,4,1:0:0:0:
178,339,23382,2,0,B|155:252|155:252|190:168|190:168|163:73,1,280,2|2,0:0|0:0,0:0:0:0:
84,17,24934,5,0,0:0:0:0:
328,312,26313,2,0,P|337:266|305:197,2,120,2|2|2,0:0|0:0|0:0,0:0:0:0:
242,270,27693,5,2,0:0:0:0:
462,85,28727,1,2,0:0:0:0:
406,163,29072,2,0,P|402:199|412:251,2,79.9999999999999,0|0|0,0:0|0:0|0:0,0:0:0:0:
495,199,30107,1,2,0:0:0:0:
486,294,30451,5,2,0:0:0:0:
218,187,31486,1,2,0:0:0:0:
125,160,31831,2,0,P|181:97|311:161,1,240,2|0,0:0|0:0,0:0:0:0:
311,248,33210,5,4,1:0:0:0:
39,50,34417,2,0,B|51:145|51:145|15:219|15:219|25:323,1,280,2|2,0:0|0:0,0:0:0:0:
105,373,35969,5,0,0:0:0:0:
349,76,37348,2,0,B|358:155|358:155|332:229|332:229|344:321,1,240,2|2,0:0|0:0,0:0:0:0:
437,326,38727,6,0,L|427:246,1,79.9999999999999,2|0,0:0|0:0,0:0:0:0:
263,146,39762,1,2,0:0:0:0:
326,74,40107,2,0,L|409:55,2,79.9999999999999,0|0|0,0:0|0:0|0:0,0:0:0:0:
231,54,41141,1,2,0:0:0:0:
256,192,41486,12,4,44244,1:0:0:0:
113,131,49762,6,0,L|63:240,2,120,2|2|2,0:0|0:0|0:0,0:0:0:0:
207,147,51141,2,0,L|190:265,2,120,2|2|2,0:0|0:0|0:0,0:0:0:0:
303,147,52520,2,0,L|319:265,2,120,2|2|2,0:0|0:0|0:0,0:0:0:0:
396,122,53900,2,0,L|445:231,2,120,2|2|2,0:0|0:0|0:0,0:0:0:0:
354,35,55279,5,2,0:3:0:0:
259,50,55624,2,0,P|178:64|87:56,1,160,8|8,0:0|0:0,0:0:0:0:
6,40,56658,1,2,0:3:0:0:
39,129,57003,2,0,P|44:208|30:287,1,160,8|8,0:0|0:0,0:0:0:0:
13,382,58038,5,2,0:3:0:0:
103,350,58382,2,0,P|182:344|261:358,1,160,8|8,0:0|0:0,0:0:0:0:
355,380,59417,1,2,0:3:0:0:
401,296,59762,2,0,P|406:216|392:137,1,160,8|8,0:0|0:0,0:0:0:0:
313,83,60796,6,0,B|254:76|254:76|190:88,2,120,8|8|8,0:1|0:1|0:1,0:0:0:0:
392,137,62175,2,0,B|451:144|451:144|515:132,2,120,8|8|8,0:1|0:1|0:1,0:0:0:0:
305,178,63555,6,0,P|288:239|319:299,1,120,8|4,0:1|0:1,0:0:0:0:
253,189,65969,5,4,0:3:0:0:
193,114,66313,6,0,L|101:103,2,79.9999999999999,4|8|2,0:0|0:0|0:2,0:0:0:0:
288,98,67348,1,8,0:0:0:0:
347,173,67693,1,2,0:3:0:0:
392,257,68038,2,0,P|437:205|427:118,1,160,8|8,0:0|0:0,0:0:0:0:
354,58,69072,6,0,P|317:71|287:97,1,79.9999999999999,2|8,0:3|0:0,0:0:0:0:
229,174,69762,2,0,P|203:143|189:106,1,79.9999999999999,2|8,0:2|0:0,0:0:0:0:
191,10,70451,2,0,P|151:17|117:37,1,79.9999999999999,0|8,0:0|0:0,0:0:0:0:
98,131,71141,2,0,P|111:172|133:209,1,79.9999999999999,0|8,0:0|0:0,0:0:0:0:
203,265,71831,5,4,0:0:0:0:
286,217,72175,2,0,L|380:231,1,79.9999999999999,8|2,0:0|0:2,0:0:0:0:
347,323,72865,2,0,L|253:337,1,79.9999999999999,8|2,0:0|0:3,0:0:0:0:
203,265,73555,2,0,L|40:234,1,160,8|8,0:0|0:0,0:0:0:0:
1,149,74589,5,4,0:0:0:0:
94,127,74934,2,0,L|191:145,1,79.9999999999999,8|2,0:0|0:2,0:0:0:0:
256,189,75624,2,0,B|333:213|333:213|410:188,2,160,8|8|8,0:0|0:0|0:0,0:0:0:0:
171,142,77348,5,4,0:0:0:0:
252,91,77693,2,0,L|330:116,1,79.9999999999999,8|0,0:0|0:0,0:0:0:0:
417,130,78382,2,0,L|496:113,2,79.9999999999999,8|2|8,0:0|0:3|0:0,0:0:0:0:
357,206,79417,2,0,L|364:285,1,79.9999999999999,2|8,0:2|0:0,0:0:0:0:
375,381,80107,5,0,0:0:0:0:
288,339,80451,2,0,B|236:328|236:328|119:347,1,160,8|8,0:0|0:0,0:0:0:0:
42,305,81486,1,2,0:3:0:0:
123,253,81831,2,0,B|134:201|134:201|115:84,1,160,8|8,0:0|0:0,0:0:0:0:
66,13,82865,5,4,0:0:0:0:
161,8,83210,2,0,B|241:11|241:11|263:98,1,160,8|8,0:0|0:0,0:0:0:0:
227,178,84244,2,0,L|240:266,2,79.9999999999999,0|8|2,0:3|0:0|0:2,0:0:0:0:
167,102,85279,1,8,0:0:0:0:
100,171,85624,6,0,L|94:262,2,79.9999999999999,4|8|2,0:0|0:0|0:2,0:0:0:0:
67,81,86658,1,8,0:0:0:0:
158,52,87003,2,0,B|200:39|232:18|232:18|278:53|338:61|391:26,1,240,8|2,0:0|0:2,0:0:0:0:
475,16,88382,5,4,1:0:0:0:
442,106,88727,1,8,1:0:0:0:
415,198,89072,2,0,B|374:211|374:211|339:200|339:200|297:214|297:214|263:203|263:203|225:214|225:214|186:203|186:203|147:216|147:216|110:205|110:205|73:217|73:217|31:206,1,399.999999999999,2|8,0:0|1:0,0:0:0:0:
67,116,91141,5,4,0:0:0:0:
31,26,91486,1,8,1:0:0:0:
126,38,91831,2,0,B|166:27|166:27|203:39|203:39|240:28|240:28|279:41|279:41|318:30|318:30|356:41|356:41|390:30|390:30|432:44|432:44|467:33|467:33|508:46,1,399.999999999999,2|8,0:0|1:0,0:0:0:0:
469,134,93900,5,4,0:0:0:0:
481,228,94244,1,8,1:0:0:0:
453,320,94589,2,0,L|366:307,1,79.9999999999999,2|8,1:2|1:0,0:0:0:0:
292,257,95279,2,0,L|212:268,1,79.9999999999999,2|8,1:3|1:0,0:0:0:0:
145,338,95969,2,0,L|58:325,1,79.9999999999999,2|8,1:2|1:0,0:0:0:0:
6,250,96658,5,4,0:0:0:0:
62,172,97003,1,8,1:0:0:0:
126,100,97348,2,0,P|175:96|215:105,1,79.9999999999999,2|8,1:2|1:0,0:0:0:0:
268,174,98038,6,0,B|217:209|217:209|161:190,2,120,4|2|8,1:0|0:3|1:0,0:0:0:0:
350,223,99417,6,0,P|395:233|439:251,1,79.9999999999999,4|8,1:0|1:0,0:0:0:0:
408,340,100107,2,0,B|366:342|366:342|332:324|332:324|293:327|293:327|257:307|257:307|217:310|217:310|182:292|182:292|146:297|146:297|108:275|108:275|71:279|71:279|33:259,1,399.999999999999,2|8,0:0|1:0,0:0:0:0:
4,168,102175,5,4,0:0:0:0:
7,72,102520,1,8,1:0:0:0:
99,45,102865,2,0,B|140:43|140:43|173:63|173:63|212:60|212:60|247:82|247:82|287:80|287:80|322:99|322:99|358:96|358:96|395:119|395:119|432:116|432:116|469:138,1,399.999999999999,2|8,0:0|1:0,0:0:0:0:
498,229,104934,5,4,0:0:0:0:
446,310,105279,1,8,1:0:0:0:
352,290,105624,2,0,P|314:284|268:290,1,79.9999999999999,2|8,1:2|1:0,0:0:0:0:
191,339,106313,2,0,P|153:345|107:339,1,79.9999999999999,2|8,1:3|1:0,0:0:0:0:
32,285,107003,2,0,P|27:245|33:205,1,79.9999999999999,2|8,1:2|1:0,0:0:0:0:
99,136,107693,5,4,1:0:0:0:
193,118,108038,1,8,1:0:0:0:
278,160,108382,2,0,P|318:165|358:159,1,79.9999999999999,2|8,1:2|1:0,0:0:0:0:
424,90,109072,2,0,P|451:158|437:212,2,120,8|0|2,1:0|3:0|0:0,0:0:0:0:
332,62,110451,5,4,1:0:0:0:
244,101,110796,1,8,1:0:0:0:
150,77,111141,2,0,B|63:71|13:141|13:141|88:152|138:204|129:291|89:322,1,399.999999999999,2|8,0:0|1:0,0:0:0:0:
171,374,113210,5,4,0:0:0:0:
257,333,113555,1,12,1:0:0:0:
350,354,113900,2,0,L|444:345,1,79.9999999999999,2|8,0:0|1:0,0:0:0:0:
444,251,114589,2,0,L|350:242,1,79.9999999999999,2|8,0:3|1:0,0:0:0:0:
339,150,115279,2,0,L|433:141,1,79.9999999999999,2|8,0:0|1:0,0:0:0:0:
454,52,115969,5,4,0:0:0:0:
358,48,116313,1,8,1:0:0:0:
269,84,116658,2,0,B|224:142|248:180|253:220|302:239|302:239|330:326|287:378|177:358,1,399.999999999999,2|8,0:0|1:0,0:0:0:0:
94,340,118727,5,4,1:0:0:0:
153,265,119072,1,8,1:0:0:0:
96,187,119417,2,0,P|86:142|91:94,1,79.9999999999999,2|8,0:0|1:0,0:0:0:0:
178,76,120107,6,0,B|221:43|221:43|296:47,2,120,12|8|8,1:0|1:0|1:0,0:0:0:0:
253,135,121486,6,0,L|340:143,1,79.9999999999999,4|8,1:0|1:0,0:0:0:0:
355,235,122175,2,0,B|267:262|267:262|213:179|126:202|86:238|71:306|106:361,1,399.999999999999,2|8,0:0|1:0,0:0:0:0:
182,305,124244,5,4,0:0:0:0:
262,357,124589,1,8,1:0:0:0:
355,337,124934,2,0,B|442:305|442:305|453:207|453:207|396:124|396:124|286:157,1,399.999999999999,2|8,0:0|1:0,0:0:0:0:
196,149,127003,6,0,L|99:142,1,79.9999999999999,4|8,0:0|1:0,0:0:0:0:
125,46,127693,2,0,L|222:39,1,79.9999999999999,2|8,0:0|1:0,0:0:0:0:
300,40,128382,2,0,L|379:45,1,79.9999999999999,0|8,0:0|1:0,0:0:0:0:
410,137,129072,2,0,L|330:142,1,79.9999999999999,0|8,0:0|1:0,0:0:0:0:
247,192,129762,6,0,P|245:232|267:283,2,79.9999999999999,4|8|2,1:0|1:0|0:3,0:0:0:0:
250,96,130796,1,8,1:0:0:0:
256,192,131141,12,4,132520,1:0:0:0:
