osu file format v14

[General]
AudioFilename: audio.mp3
AudioLeadIn: 0
PreviewTime: 64400
Countdown: 0
SampleSet: Soft
StackLeniency: 0.2
Mode: 0
LetterboxInBreaks: 0
WidescreenStoryboard: 1

[Editor]
Bookmarks: 11124,49745,66296,110434,121469,132503
DistanceSpacing: 0.4
BeatDivisor: 4
GridSize: 4
TimelineZoom: 1.8

[Metadata]
Title:Hide Away My Heart
TitleUnicode:Hide Away My Heart
Artist:MaxNRG
ArtistUnicode:MaxNRG
Creator:Silverboxer
Version:Always
Source:
Tags:dnb drum and & bass liquicity liquid
BeatmapID:1888178
BeatmapSetID:904621

[Difficulty]
HPDrainRate:4.5
CircleSize:4.2
OverallDifficulty:9
ApproachRate:9.4
SliderMultiplier:1.4
SliderTickRate:1

[Events]
//Background and Video events
0,0,"wallhaven-683849.jpg",0,0
//Break Periods
2,44599,49205
2,64427,65412
//Storyboard Layer 0 (Background)
//Storyboard Layer 1 (Fail)
//Storyboard Layer 2 (Pass)
//Storyboard Layer 3 (Foreground)
//Storyboard Sound Samples

[TimingPoints]
90,344.827586206897,4,2,0,70,1,0
176,-100,4,2,0,5,0,0
348,-100,4,2,0,70,0,0
434,-100,4,2,0,5,0,0
779,-100,4,2,0,70,0,0
865,-100,4,2,0,5,0,0
1124,-100,4,2,0,70,0,0
1555,-100,4,2,0,5,0,0
1727,-100,4,2,0,70,0,0
1814,-100,4,2,0,5,0,0
1986,-100,4,2,0,70,0,0
2245,-100,4,2,0,5,0,0
2331,-100,4,2,0,70,0,0
2934,-100,4,2,0,5,0,0
3107,-100,4,2,0,70,0,0
3193,-100,4,2,0,5,0,0
3538,-100,4,2,0,70,0,0
3624,-100,4,2,0,5,0,0
3883,-100,4,2,0,70,0,0
4314,-100,4,2,0,5,0,0
4486,-100,4,2,0,70,0,0
4572,-100,4,2,0,5,0,0
4745,-100,4,2,0,70,0,0
5003,-100,4,2,0,5,0,0
5090,-100,4,2,0,70,0,0
5693,-100,4,2,0,5,0,0
5865,-100,4,2,0,70,0,0
5952,-100,4,2,0,5,0,0
6296,-100,4,2,0,70,0,0
6383,-100,4,2,0,5,0,0
6641,-100,4,2,0,70,0,0
7072,-100,4,2,0,5,0,0
7245,-100,4,2,0,70,0,0
7331,-100,4,2,0,5,0,0
7503,-100,4,2,0,70,0,0
7762,-100,4,2,0,5,0,0
7848,-100,4,2,0,70,0,0
8452,-100,4,2,0,5,0,0
8624,-100,4,2,0,70,0,0
8710,-100,4,2,0,5,0,0
8883,-100,4,2,0,70,0,0
9831,-100,4,2,0,5,0,0
10003,-100,4,2,0,70,0,0
10090,-100,4,2,0,5,0,0
10262,-100,4,2,0,70,0,0
10521,-100,4,2,0,5,0,0
10607,-100,4,2,0,70,0,0
11124,-50,4,2,0,70,0,0
11210,-50,4,2,0,5,0,0
11296,-50,4,2,0,70,0,0
11641,-100,4,2,0,70,0,0
12590,-100,4,2,0,5,0,0
12676,-100,4,2,0,70,0,0
13279,-100,4,2,0,5,0,0
13365,-100,4,2,0,70,0,0
13969,-100,4,2,0,5,0,0
14055,-100,4,2,0,70,0,0
15348,-100,4,2,0,5,0,0
15434,-100,4,2,0,70,0,0
16038,-100,4,2,0,5,0,0
16124,-100,4,2,0,70,0,0
16727,-100,4,2,0,5,0,0
16814,-100,4,2,0,70,0,0
18107,-100,4,2,0,5,0,0
18193,-100,4,2,0,70,0,0
18796,-100,4,2,0,5,0,0
18883,-100,4,2,0,70,0,0
19486,-100,4,2,0,5,0,0
19572,-100,4,2,0,70,0,0
20003,-100,4,2,0,5,0,0
20090,-100,4,2,0,70,0,0
20176,-100,4,2,0,5,0,0
20262,-100,4,2,0,70,0,0
20348,-100,4,2,0,5,0,0
20434,-100,4,2,0,70,0,0
20521,-100,4,2,0,5,0,0
20607,-100,4,2,0,70,0,0
20693,-100,4,2,0,5,0,0
20779,-100,4,2,0,70,0,0
30262,-66.6666666666667,4,2,0,70,0,0
30434,-100,4,2,0,70,0,0
33193,-50,4,2,0,70,0,0
33538,-100,4,2,0,70,0,0
42934,-100,4,2,0,5,0,0
43021,-100,4,2,0,70,0,0
43107,-100,4,2,0,5,0,0
43365,-100,4,2,0,70,0,0
43452,-100,4,2,0,5,0,0
43710,-100,4,2,0,70,0,0
43796,-100,4,2,0,5,0,0
44055,-100,4,2,0,70,0,0
44141,-100,4,2,0,5,0,0
44227,-25,4,2,0,70,0,0
44400,-100,4,2,0,70,0,0
55262,-66.6666666666667,4,2,0,70,0,0
56124,-33.3333333333333,4,2,0,80,0,0
56210,-33.3333333333333,4,2,0,5,0,0
56296,-33.3333333333333,4,2,0,80,0,0
56383,-33.3333333333333,4,2,0,5,0,0
56641,-66.6666666666667,4,2,0,70,0,0
57331,-33.3333333333333,4,2,0,80,0,0
57590,-33.3333333333333,4,2,0,5,0,0
57676,-33.3333333333333,4,2,0,80,0,0
57762,-33.3333333333333,4,2,0,5,0,0
58021,-66.6666666666667,4,2,0,70,0,0
58710,-33.3333333333333,4,2,0,80,0,0
58969,-33.3333333333333,4,2,0,5,0,0
59055,-33.3333333333333,4,2,0,80,0,0
59141,-33.3333333333333,4,2,0,5,0,0
59400,-66.6666666666667,4,2,0,70,0,0
60262,-33.3333333333333,4,2,0,80,0,0
60348,-33.3333333333333,4,2,0,5,0,0
60434,-33.3333333333333,4,2,0,80,0,0
60521,-33.3333333333333,4,2,0,5,0,0
60779,-66.6666666666667,4,2,1,70,0,0
65952,-33.3333333333333,4,2,0,70,0,0
66296,-33.3333333333333,4,2,1,70,0,1
68883,-133.333333333333,4,2,0,70,0,1
69055,-33.3333333333333,4,2,1,70,0,1
74400,-133.333333333333,4,2,0,70,0,1
74572,-33.3333333333333,4,2,1,70,0,1
75952,-33.3333333333333,4,2,0,70,0,0
76986,-100,4,2,0,70,0,0
77331,-33.3333333333333,4,2,1,70,0,1
82676,-133.333333333333,4,2,0,70,0,1
82848,-33.3333333333333,4,2,1,70,0,1
85434,-133.333333333333,4,2,0,70,0,1
85607,-33.3333333333333,4,2,1,70,0,1
86986,-33.3333333333333,4,2,0,70,0,0
88365,-33.3333333333333,4,2,0,70,0,1
89055,-50,4,2,0,70,0,1
89745,-40,4,2,0,70,0,1
90434,-33.3333333333333,4,2,0,70,0,1
91124,-33.3333333333333,4,2,1,70,0,1
92503,-40,4,2,0,70,0,1
93193,-50,4,2,0,70,0,1
93883,-33.3333333333333,4,2,1,70,0,1
94572,-33.3333333333333,4,2,0,70,0,1
98021,-33.3333333333333,4,2,1,70,0,0
99400,-33.3333333333333,4,2,1,70,0,1
100090,-50,4,2,0,70,0,1
100779,-40,4,2,0,70,0,1
101469,-33.3333333333333,4,2,0,70,0,1
102158,-33.3333333333333,4,2,1,70,0,1
103538,-40,4,2,0,70,0,1
104227,-50,4,2,0,70,0,1
104917,-33.3333333333333,4,2,1,70,0,1
109055,-33.3333333333333,4,2,0,70,0,0
110434,-33.3333333333333,4,2,0,70,0,1
110521,-33.3333333333333,4,2,0,70,0,0
111124,-50,4,2,0,70,0,0
112158,-40,4,2,0,70,0,0
112503,-33.3333333333333,4,2,0,70,0,0
113193,-33.3333333333333,4,2,1,70,0,0
121124,-100,4,2,1,70,0,0
121469,-33.3333333333333,4,2,1,70,0,0
122158,-50,4,2,0,70,0,0
123193,-40,4,2,0,70,0,0
123538,-33.3333333333333,4,2,0,70,0,0
124227,-33.3333333333333,4,2,1,70,0,0

[Colours]
Combo1 : 168,255,36
Combo2 : 255,223,0
Combo3 : 255,0,140
Combo4 : 135,36,255
Combo5 : 32,236,190

[HitObjects]
143,96,90,6,0,P|167:104|175:110,1,35,2|0,0:0|0:0,0:0:0:0:
152,76,348,2,0,P|176:95|185:104,1,35,2|0,0:0|0:0,0:0:0:0:
169,63,779,6,0,P|184:86|188:100,1,35,2|0,0:0|0:0,0:0:0:0:
267,18,1124,6,0,P|255:57|275:82,1,70,0|0,3:0|0:0,0:0:0:0:
347,85,1469,6,0,P|371:93|385:100,1,35,2|0,0:0|0:0,0:0:0:0:
347,99,1727,2,0,P|363:117|372:130,1,35,2|0,0:0|0:0,0:0:0:0:
308,164,1986,5,2,3:0:0:0:
308,164,2158,2,0,P|318:188|328:197,1,35,2|0,0:0|0:0,0:0:0:0:
414,207,2331,5,2,3:0:0:0:
414,207,2417,1,2,3:0:0:0:
414,207,2503,2,0,B|445:221|445:221|409:225,1,70
339,278,2848,6,0,L|296:282,1,35,2|0,0:0|0:0,0:0:0:0:
333,297,3107,2,0,L|294:294,1,35,2|0,0:0|0:0,0:0:0:0:
322,265,3538,6,0,L|288:272,1,35,2|0,0:0|0:0,0:0:0:0:
220,323,3883,6,0,B|228:381|228:381|233:371,1,70,0|0,3:0|0:0,0:0:0:0:
211,243,4227,6,0,P|204:220|202:209,1,35,2|0,0:0|0:0,0:0:0:0:
189,247,4486,2,0,P|189:217|191:202,1,35,2|0,0:0|0:0,0:0:0:0:
117,238,4745,5,2,3:0:0:0:
117,238,4917,2,0,P|131:216|137:201,1,35,2|0,0:0|0:0,0:0:0:0:
96,142,5090,5,2,3:0:0:0:
96,142,5176,1,2,3:0:0:0:
96,142,5262,2,0,B|74:121|69:96|76:71,1,70
184,24,5607,6,0,L|179:73,1,35,2|0,0:0|0:0,0:0:0:0:
191,35,5865,2,0,L|195:79,1,35,2|0,0:0|0:0,0:0:0:0:
200,43,6296,6,0,L|211:84,1,35,2|0,0:0|0:0,0:0:0:0:
222,176,6641,6,0,P|225:132|229:104,1,70,0|0,3:0|0:0,0:0:0:0:
193,181,6986,6,0,P|191:206|189:222,1,35,2|0,0:0|0:0,0:0:0:0:
212,192,7245,2,0,P|207:224|207:238,1,35,2|0,0:0|0:0,0:0:0:0:
289,166,7503,5,2,3:0:0:0:
289,166,7676,2,0,P|286:197|286:209,1,35,2|0,0:0|0:0,0:0:0:0:
362,285,7848,5,2,3:0:0:0:
362,285,7934,1,2,3:0:0:0:
362,285,8021,2,0,P|401:259|425:266,1,70
432,129,8365,6,0,L|439:86,1,35,2|0,0:0|0:0,0:0:0:0:
412,136,8624,2,0,L|397:102,1,35,2|0,0:0|0:0,0:0:0:0:
433,170,8883,5,0,0:0:0:0:
408,56,9055,1,2,0:0:0:0:
402,27,9141,1,0,0:0:0:0:
266,62,9400,6,0,B|213:68|213:68|232:77,1,70,0|0,3:0|0:0,0:0:0:0:
306,177,9745,6,0,P|312:151|314:139,1,35,2|0,0:0|0:0,0:0:0:0:
289,195,10003,2,0,P|288:165|284:157,1,35,2|0,0:0|0:0,0:0:0:0:
328,207,10262,5,2,3:0:0:0:
328,207,10434,2,0,P|339:180|341:172,1,35,2|0,0:0|0:0,0:0:0:0:
200,173,10607,5,2,3:0:0:0:
200,173,10693,1,2,3:0:0:0:
200,173,10779,2,0,P|152:182|123:178,1,70
33,115,11124,6,0,L|27:196,1,70,6|0,0:0|0:0,0:0:0:0:
58,94,11296,2,0,L|48:236,1,140,2|0,0:0|0:0,0:0:0:0:
141,310,11641,5,0,0:0:0:0:
141,310,11814,2,0,B|169:369|212:369|240:310,1,140
177,107,12503,6,0,L|181:158,1,35,2|0,0:0|0:0,0:0:0:0:
198,91,12676,2,0,L|207:168,1,70,2|0,0:0|0:0,0:0:0:0:
257,225,13021,5,0,0:0:0:0:
296,104,13193,6,0,L|300:155,1,35,2|0,0:0|0:0,0:0:0:0:
318,112,13365,2,0,L|327:189,1,70,2|0,0:0|0:0,0:0:0:0:
472,36,13883,6,0,L|468:87,1,35,2|0,0:0|0:0,0:0:0:0:
450,44,14055,2,0,L|441:121,1,70,2|0,0:0|0:0,0:0:0:0:
354,229,14400,5,0,0:0:0:0:
354,229,14572,2,0,B|394:280|436:270|450:206,1,140
357,92,15262,6,0,P|335:97|318:104,1,35,2|0,0:0|0:0,0:0:0:0:
365,67,15434,2,0,P|302:78|280:80,1,70,2|0,0:0|0:0,0:0:0:0:
224,25,15779,5,2,3:0:0:0:
120,131,15952,6,0,P|103:136|86:140,1,35,2|0,0:0|0:0,0:0:0:0:
215,132,16124,5,2,3:0:0:0:
218,148,16210,1,2,3:0:0:0:
148,154,16296,2,0,P|113:158|79:165,1,70
228,275,16641,6,0,L|236:313,1,35,2|0,0:0|0:0,0:0:0:0:
251,254,16814,2,0,L|247:323,1,70,2|0,0:0|0:0,0:0:0:0:
218,148,17158,5,0,0:0:0:0:
218,148,17331,2,0,B|258:96|300:106|316:167,1,140
455,196,18021,6,0,L|463:234,1,35,2|0,0:0|0:0,0:0:0:0:
478,175,18194,2,0,L|474:244,1,70,2|0,0:0|0:0,0:0:0:0:
450,76,18538,5,0,0:0:0:0:
365,295,18710,6,0,L|357:333,1,35,2|0,0:0|0:0,0:0:0:0:
342,274,18883,2,0,L|346:343,1,70,2|0,0:0|0:0,0:0:0:0:
272,111,19400,6,0,L|279:161,1,35,2|0,0:0|0:0,0:0:0:0:
278,94,19572,2,0,L|268:170,1,70,2|0,0:0|0:0,0:0:0:0:
172,317,19917,6,0,L|179:367,1,35,2|0,0:0|0:0,0:0:0:0:
182,296,20089,2,0,L|179:330,1,35,2|0,0:0|0:0,0:0:0:0:
156,246,20262,2,0,L|162:284,1,35
187,143,20434,2,0,L|180:189,1,35
136,28,20607,2,0,L|144:66,1,35
101,146,20779,6,0,B|55:220|160:239|159:251|-38:303|92:354|149:370|157:338|150:194|183:205|204:312|226:358|283:385|323:347|250:269|254:203|295:209|356:208|348:275|298:310|367:338,1,525
382,337,22158,5,4,0:0:0:0:
438,268,22331,1,0,0:0:0:0:
430,180,22503,1,0,0:0:0:0:
422,268,22676,1,0,0:0:0:0:
478,337,22849,1,0,0:0:0:0:
478,337,23193,5,0,0:0:0:0:
430,180,23365,6,2,B|398:191|375:170|366:202|317:207,1,105,2|0,0:1|0:0,0:1:0:0:
268,247,23710,6,0,B|260:265|260:265|275:258,1,35,2|0,0:0|0:0,0:0:0:0:
249,244,23883,2,0,B|251:263|251:263|260:250,1,35,2|0,0:0|0:0,0:0:0:0:
233,252,24055,2,0,B|244:267|244:267|246:251,1,35,2|0,0:0|0:0,0:0:0:0:
173,174,24227,6,0,L|187:142,1,35,2|0,0:0|0:0,0:0:0:0:
156,178,24400,2,0,L|158:141,1,35,2|0,0:0|0:0,0:0:0:0:
143,191,24572,2,0,L|136:153,1,35,2|0,0:0|0:0,0:0:0:0:
135,206,24745,6,2,B|140:142|70:114|159:76|122:25,1,175,2|0,0:1|0:0,0:1:0:0:
121,23,25262,5,0,0:0:0:0:
169,98,25434,1,0,0:0:0:0:
257,112,25607,1,0,0:0:0:0:
257,112,25952,5,0,0:0:0:0:
335,26,26124,5,2,3:0:0:0:
335,26,26296,2,0,L|337:48,1,17.5,2|0,3:0|0:0,0:0:0:0:
440,78,26641,5,2,3:0:0:0:
440,78,26814,2,0,B|481:100|485:133|462:168,1,105,2|0,3:0|0:0,0:0:0:0:
403,209,27158,6,0,P|400:229|403:243,1,35,2|0,3:0|0:0,0:0:0:0:
387,204,27331,2,0,P|389:231|393:243,1,35,2|0,3:0|0:0,0:0:0:0:
375,192,27503,6,2,B|358:241|361:263|396:274|427:305|391:340|334:333,1,175,2|0,0:1|0:0,0:1:0:0:
341,334,28021,5,0,0:0:0:0:
253,348,28193,1,0,0:0:0:0:
342,355,28365,1,0,0:0:0:0:
342,355,28710,6,0,L|336:311,1,35,2|0,0:0|0:0,0:0:0:0:
311,246,28883,2,0,B|298:294|334:333|320:370,1,105,2|0,0:0|0:0,0:0:0:0:
268,303,29227,2,0,B|274:255|312:224|298:184,1,105,2|0,0:0|0:0,0:0:0:0:
205,197,29572,2,0,B|209:235|245:245|261:298,1,105,2|0,0:0|0:0,0:0:0:0:
214,179,29917,6,0,L|199:144,1,35,2|0,0:0|0:0,0:0:0:0:
226,172,30090,2,0,L|228:206,1,35,2|0,0:0|0:0,0:0:0:0:
261,77,30262,6,0,B|267:50|267:50|276:76,1,52.5000020027161,2|0,0:1|0:0,0:0:0:0:
323,154,30434,5,0,0:0:0:0:
408,182,30607,1,0,0:0:0:0:
488,144,30779,1,0,0:0:0:0:
403,170,30952,1,0,0:0:0:0:
385,257,31124,1,0,0:0:0:0:
396,82,31296,5,2,0:0:0:0:
396,82,31469,1,2,0:0:0:0:
396,82,31641,1,2,0:0:0:0:
396,82,31814,6,0,P|329:93|290:94,1,105
376,120,32158,2,0,L|417:121,1,35,2|0,0:0|0:0,0:0:0:0:
278,73,32331,2,0,P|227:60|170:57,1,105,2|0,0:0|0:0,0:0:0:0:
271,99,32676,2,0,P|303:62|321:4,1,105,2|0,0:0|0:0,0:0:0:0:
271,118,33021,2,0,P|271:138|277:159,1,35,2|0,0:1|0:0,0:0:0:0:
246,226,33193,6,0,L|238:371,1,140,4|0,0:0|0:0,0:0:0:0:
198,303,33538,5,0,0:0:0:0:
286,293,33710,1,0,0:0:0:0:
366,333,33883,2,0,B|362:372|377:378|395:341,1,70
361,244,34227,5,0,0:0:0:0:
384,145,34400,6,0,B|366:186|413:199|359:226|384:260,1,105
365,157,34745,2,0,P|369:132|365:114,1,35,2|0,0:1|0:0,0:0:0:0:
287,240,34917,6,0,B|288:260|288:260|295:277,1,35,2|0,0:1|0:0,0:0:0:0:
276,238,35090,2,0,B|266:255|266:255|264:274,1,35,2|0,0:1|0:0,0:0:0:0:
218,372,35262,6,0,P|229:353|231:338,1,35,2|0,0:0|0:0,0:0:0:0:
207,365,35434,2,0,P|209:338|205:324,1,35,2|0,0:0|0:0,0:0:0:0:
193,361,35607,2,0,P|185:336|179:325,1,35,2|0,0:0|0:0,0:0:0:0:
119,272,35779,6,2,B|169:220|65:223|63:182|167:166|143:126|120:108|101:113|86:132|93:159,1,210,2|0,0:1|0:0,0:1:0:0:
192,188,36469,5,0,0:0:0:0:
192,188,36641,2,0,B|207:156|232:160|231:197,1,70
217,278,36986,5,0,0:0:0:0:
237,58,37158,5,2,3:0:0:0:
237,58,37331,2,0,L|234:84,1,17.5,2|0,3:0|0:0,0:0:0:0:
95,67,37676,5,2,3:0:0:0:
95,67,37848,2,0,B|104:107|116:124|104:173,1,105,2|0,3:0|0:0,0:0:0:0:
73,84,38193,2,0,P|76:54|84:41,1,35,2|0,3:0|0:0,0:0:0:0:
110,183,38365,2,0,P|95:199|76:202,1,35,2|0,3:0|0:0,0:0:0:0:
152,116,38538,6,2,B|202:85|228:153|256:152|291:76|350:137,1,210,2|0,0:1|0:0,0:1:0:0:
323,39,39227,5,0,0:0:0:0:
345,150,39400,2,0,B|358:185|380:187|393:160,1,70
259,192,39745,6,0,P|255:167|249:157,1,35,2|0,0:0|0:0,0:0:0:0:
190,68,39917,2,0,B|204:104|217:121|265:138,1,105,2|0,0:0|0:0,0:0:0:0:
184,112,40262,2,0,B|144:94|111:88|70:106,1,105,2|0,0:0|0:0,0:0:0:0:
263,167,40607,2,0,B|293:136|298:108|286:69,1,105,2|0,0:0|0:0,0:0:0:0:
256,181,40952,6,0,P|264:210|268:230,1,35,2|0,0:0|0:0,0:0:0:0:
273,53,41124,2,0,P|266:29|265:19,1,35,2|0,0:0|0:0,0:0:0:0:
299,283,41296,6,2,B|315:305|353:309|359:269|337:201,1,140,2|0,0:1|0:0,0:1:0:0:
379,308,41814,5,0,0:0:0:0:
379,308,41986,1,0,0:0:0:0:
276,363,42158,5,0,0:0:0:0:
270,352,42245,1,0,0:0:0:0:
248,353,42331,1,0,0:0:0:0:
235,330,42417,1,0,0:0:0:0:
216,334,42503,5,2,0:0:0:0:
203,299,42590,1,0,0:0:0:0:
171,296,42676,1,0,0:0:0:0:
151,263,42762,1,0,0:0:0:0:
128,266,42848,6,0,L|91:262,1,35,2|0,0:0|0:0,0:0:0:0:
159,243,43021,2,0,L|116:253,1,35,2|0,0:0|0:0,0:0:0:0:
92,162,43365,6,0,L|47:151,1,35,2|0,0:0|0:0,0:0:0:0:
87,131,43710,2,0,L|41:136,1,35,2|0,0:0|0:0,0:0:0:0:
95,113,44055,2,0,L|56:106,1,35,2|0,0:0|0:0,0:0:0:0:
179,141,44227,6,0,B|222:126|257:147|257:147|223:142|198:152,2,140,4|0|0,0:0|0:0|0:1,0:0:0:0:
129,96,49745,5,0,3:0:0:0:
204,113,49917,1,0,3:0:0:0:
127,109,50090,1,0,3:0:0:0:
56,139,50262,1,0,3:0:0:0:
132,126,50434,1,0,0:0:0:0:
132,126,50779,6,0,L|140:198,1,70,0|0,3:0|0:0,0:0:0:0:
239,276,51124,5,0,3:0:0:0:
226,352,51296,1,0,3:0:0:0:
211,276,51469,1,0,3:0:0:0:
235,203,51641,1,2,3:0:0:0:
254,278,51814,1,2,0:0:0:0:
254,278,51986,5,2,3:0:0:0:
264,278,52072,1,2,3:0:0:0:
274,279,52158,2,0,L|345:281,1,70
462,201,52503,5,0,3:0:0:0:
384,170,52676,1,0,3:0:0:0:
378,86,52848,1,0,3:0:0:0:
372,170,53021,1,0,3:0:0:0:
294,201,53193,2,0,B|263:209|235:202|211:215,1,70
252,223,53538,6,0,B|283:231|311:224|335:237,1,70,0|0,3:0|0:0,0:0:0:0:
242,109,53883,5,0,3:0:0:0:
148,93,54055,1,0,3:0:0:0:
58,126,54227,1,0,3:0:0:0:
143,80,54400,1,2,3:0:0:0:
237,97,54572,1,2,0:0:0:0:
155,167,54745,5,2,3:0:0:0:
145,170,54831,1,2,3:0:0:0:
135,173,54917,2,0,B|120:199|118:228|145:240,1,70
304,204,55262,6,0,B|343:176|368:176|399:199,1,105.000004005432,0|0,1:0|0:0,0:0:0:0:
357,262,55607,1,8,1:0:0:0:
304,204,56124,6,0,B|343:176|368:176|399:199,1,105.000004005432,0|0,1:0|0:0,0:0:0:0:
357,262,56296,2,0,B|318:283|282:271|262:232,1,105.000004005432,8|0,1:0|0:0,0:0:0:0:
153,176,56641,6,0,B|135:127|152:109|144:70,1,105.000004005432,0|0,1:0|0:0,0:0:0:0:
218,132,56986,1,8,1:0:0:0:
153,176,57503,6,0,B|135:127|152:109|144:70,1,105.000004005432,0|0,1:0|0:0,0:0:0:0:
218,132,57676,2,0,B|189:162|213:193|183:231,1,105.000004005432,8|0,1:0|0:0,0:0:0:0:
364,135,58021,6,0,B|373:91|358:53|325:41,1,105.000004005432,0|0,1:0|0:0,0:0:0:0:
391,110,58365,1,8,1:0:0:0:
364,135,58883,6,0,B|373:91|358:53|325:41,1,105.000004005432,0|0,1:0|0:0,0:0:0:0:
391,110,59055,2,0,B|372:142|369:185|389:213,1,105.000004005432,8|0,1:0|0:0,0:0:0:0:
242,281,59400,6,0,B|201:289|175:279|147:294|131:289,1,105.000004005432,0|0,1:0|0:0,0:0:0:0:
313,325,59745,1,8,1:0:0:0:
242,281,60262,6,0,B|201:289|175:279|147:294|131:289,1,105.000004005432,0|0,1:0|0:0,0:0:0:0:
313,325,60434,2,0,B|344:342|370:324|389:346|418:357,1,105.000004005432,8|0,1:0|0:0,0:0:0:0:
108,366,60779,6,0,B|82:295|134:309|114:210|76:232|95:138,1,210.000008010865,8|0,1:2|1:0,0:0:0:0:
193,6,61296,2,0,B|208:78|170:56|150:155|202:141|176:212,1,210.000008010865,8|0,1:2|1:0,0:0:0:0:
228,352,61814,2,0,B|230:291|239:269|254:242,1,105.000004005432,8|0,1:2|0:0,0:0:0:0:
291,101,62158,6,0,P|290:66|284:45,1,52.5000020027161,8|0,1:2|0:0,0:0:0:0:
366,263,62331,1,0,0:0:0:0:
366,263,62417,1,0,0:0:0:0:
366,263,62503,2,0,P|345:287|338:308,1,52.5000020027161,0|0,1:0|0:0,0:0:0:0:
394,136,62676,6,0,P|424:117|450:110,1,52.5000020027161,8|0,1:2|0:0,0:0:0:0:
260,229,62848,1,0,0:0:0:0:
260,229,62934,1,0,0:0:0:0:
260,229,63021,2,0,P|226:226|195:237,1,52.5000020027161,0|0,1:0|0:0,0:0:0:0:
208,59,63193,6,0,P|204:38|191:6,1,52.5000020027161,8|0,1:2|0:0,0:0:0:0:
176,80,63365,2,0,P|181:54|181:28,1,52.5000020027161
86,157,63538,5,8,1:2:0:0:
78,178,63624,1,0,0:0:0:0:
90,199,63710,1,0,0:0:0:0:
86,222,63796,1,0,0:0:0:0:
102,239,63883,5,0,1:0:0:0:
101,260,63969,1,0,0:0:0:0:
124,276,64055,1,8,1:2:0:0:
133,301,64141,2,0,B|140:336|140:336|143:318,1,52.5000020027161
5,45,65952,6,2,B|94:91|59:-11|152:-15|105:82|154:53|228:54|244:23|225:-14|188:-30|163:-16|176:19|193:60,1,315.000012016297,0|0,0:0|0:0,0:1:0:0:
200,77,66296,6,0,B|252:171|175:179|185:318|251:242|216:393,1,315.000012016297,12|0,1:2|0:0,0:0:0:0:
324,17,66641,2,0,B|292:123|363:104|382:221|264:180|307:345,1,315.000012016297,8|0,1:0|0:0,0:0:0:0:
437,74,66986,6,0,P|438:39|418:76,1,105.000004005432
452,81,67158,2,0,P|465:51|408:22,1,105.000004005432,0|0,1:0|0:0,0:0:0:0:
397,241,67331,6,0,B|408:286|386:303|414:351,1,105.000004005432,8|0,1:0|0:0,0:0:0:0:
415,253,67503,1,0,0:0:0:0:
291,114,67676,5,0,1:0:0:0:
325,320,67848,1,0,0:0:0:0:
210,151,68021,1,8,1:0:0:0:
417,158,68193,1,0,0:0:0:0:
209,169,68365,5,0,0:0:0:0:
355,30,68538,1,0,1:0:0:0:
324,235,68710,1,8,1:0:0:0:
228,63,68883,6,0,L|224:21,1,26.2500010013581
197,25,69055,6,0,B|201:68|193:107|220:147,1,105.000004005432,8|0,1:2|0:0,0:0:0:0:
161,255,69227,2,0,B|175:194|153:165|180:132,1,105.000004005432
117,55,69400,2,0,B|149:144|100:124|111:311|181:215|154:364,1,315.000012016297,8|0,1:0|0:0,0:0:0:0:
246,340,69745,6,0,B|248:286|248:286|263:338,1,105.000004005432
272,342,69917,2,0,B|260:298|280:275|268:227,1,105.000004005432,0|0,1:0|0:0,0:0:0:0:
357,84,70090,6,0,B|340:120|360:153|338:190,1,105.000004005432,8|0,1:0|0:0,0:0:0:0:
371,74,70262,1,0,0:0:0:0:
371,282,70434,5,0,1:0:0:0:
233,130,70607,1,0,0:0:0:0:
440,166,70779,1,8,1:0:0:0:
255,316,70952,1,0,0:0:0:0:
426,152,71124,5,0,0:0:0:0:
383,368,71296,1,0,1:0:0:0:
317,157,71469,1,8,1:0:0:0:
509,281,71641,1,0,0:0:0:0:
299,270,71814,6,0,B|190:224|222:343|83:346|107:237|-5:309,1,315.000012016297,8|0,1:2|0:0,0:0:0:0:
58,196,72158,2,0,B|162:263|138:154|277:157|245:276|354:230,1,315.000012016297,8|0,1:0|0:0,0:0:0:0:
317,157,72503,6,0,B|293:124|260:73|306:67|313:92,1,105.000004005432
331,146,72676,2,0,B|326:105|323:44|366:62|360:87,1,105.000004005432,0|0,1:0|0:0,0:0:0:0:
437,239,72848,6,0,B|441:275|444:336|401:318|407:301,1,105.000004005432,8|0,1:0|0:0,0:0:0:0:
453,227,73021,2,0,B|475:257|508:308|462:314|458:296,1,105.000004005432
302,260,73193,6,0,B|280:303|280:303|286:362,1,105.000004005432,0|0,1:0|0:0,0:0:0:0:
205,232,73365,2,0,B|165:258|165:258|135:311,1,105.000004005432
144,161,73538,2,0,B|87:152|87:152|35:170,1,105.000004005432,8|0,1:0|0:0,0:0:0:0:
97,72,73710,6,0,B|78:24|78:24|60:74,1,105.000004005432
36,184,73883,6,0,B|80:168|80:168|137:177,1,105.000004005432
133,325,74055,2,0,B|161:275|161:275|201:249,1,105.000004005432,0|0,1:0|0:0,0:0:0:0:
295,369,74227,2,0,B|289:312|289:312|311:269,1,105.000004005432,8|0,1:0|0:0,0:0:0:0:
436,329,74400,6,0,L|445:293,1,26.2500010013581
509,352,74572,6,0,B|433:368|401:288|312:306|321:391|206:341,1,315.000012016297,8|0,1:2|0:0,0:0:0:0:
72,263,74917,2,0,B|174:318|205:184|271:297|381:221,1,315.000012016297,8|0,1:0|0:0,0:0:0:0:
465,208,75262,6,0,P|491:188|446:183,1,105.000004005432
458,229,75434,2,0,P|508:205|504:161,1,105.000004005432,0|0,1:0|0:0,0:0:0:0:
388,86,75607,6,0,B|347:80|324:50|287:59,1,105.000004005432,8|0,1:0|0:0,0:0:0:0:
415,74,75779,1,0,1:0:0:0:
415,74,76124,5,0,1:0:0:0:
279,78,76296,2,0,B|238:84|215:114|178:105,1,105.000004005432,8|0,1:0|0:0,0:0:0:0:
299,81,76469,5,0,1:0:0:0:
299,81,76814,1,0,1:0:0:0:
160,120,76986,2,0,B|119:114|112:87|59:93,1,105,8|0,1:0|0:0,0:0:0:0:
51,55,77331,6,0,B|7:169|107:156|97:277|20:234|59:365,1,315.000012016297,12|0,1:2|0:0,0:0:0:0:
217,58,77676,2,0,B|123:151|231:147|203:275|101:225|132:347,1,315.000012016297,8|0,1:0|0:0,0:0:0:0:
238,292,78021,6,0,B|214:256|214:224|228:207|239:208|249:221|248:225,1,105.000004005432
265,298,78193,2,0,B|273:338|253:358|270:378|293:377|307:363,1,105.000004005432,0|0,1:0|0:0,0:0:0:0:
328,198,78365,6,0,B|304:159|335:135|300:106|330:79,1,105.000004005432,8|0,1:0|0:0,0:0:0:0:
355,225,78538,1,0,0:0:0:0:
396,88,78710,6,0,B|385:59|394:35|394:35|416:18|443:20,1,105.000004005432,2|0,1:0|0:0,0:0:0:0:
459,35,78883,2,0,B|470:64|461:88|461:88|439:105|412:103,1,105.000004005432,2|0,0:1|0:0,0:0:0:0:
266,113,79055,6,0,B|237:100|227:76|227:76|230:49|251:31,1,105.000004005432,10|0,1:0|0:0,0:0:0:0:
273,31,79228,2,0,B|301:43|311:67|311:67|308:94|287:112,1,105.000004005432,2|0,0:1|0:0,0:0:0:0:
311,217,79400,6,0,B|323:188|347:178|347:178|374:181|392:202,1,105.000004005432,2|0,0:1|0:0,0:0:0:0:
393,224,79573,2,0,B|380:252|356:262|356:262|329:259|311:238,1,105.000004005432,2|0,1:0|0:0,0:0:0:0:
200,276,79745,6,0,B|181:293|178:320|178:320|188:344|217:357,1,105.000004005432,10|0,1:0|0:0,0:0:0:0:
240,355,79918,2,0,B|259:338|262:311|262:311|252:287|224:275,1,105.000004005432,2|0,0:1|0:0,0:0:0:0:
188,187,80090,6,0,B|139:119|234:102|148:40|223:-30|110:-17|38:29|118:68|92:106,1,315.000012016297,8|0,1:2|0:0,0:0:0:0:
113,212,80434,2,0,B|120:316|31:248|66:357|-32:358|67:425|152:426|98:350|149:332,1,315.000012016297,8|0,1:0|0:0,0:0:0:0:
237,260,80779,6,0,B|270:218|309:232|309:232|306:252,1,105.000004005432
250,259,80952,2,0,B|299:239|326:271|326:271|314:287,1,105.000004005432,0|0,1:0|0:0,0:0:0:0:
261,260,81124,6,0,B|312:284|319:341|319:341|367:309|418:333,1,210.000008010865,8|0,1:0|0:0,0:0:0:0:
376,205,81469,5,0,1:0:0:0:
229,346,81641,1,0,0:0:0:0:
401,232,81814,1,8,1:0:0:0:
199,183,81986,1,0,0:0:0:0:
313,288,82158,5,0,0:0:0:0:
270,109,82331,2,0,B|273:85|290:74|301:85|275:162,1,105.000004005432
136,290,82503,2,0,B|113:299|95:290|99:275|178:258,1,105.000004005432
401,232,82676,6,0,L|408:275,1,26.2500010013581
439,332,82848,6,0,B|438:279|461:229|381:240|390:125|488:158|471:87|441:89|400:107|356:78,1,315.000012016297,8|0,1:2|0:0,0:0:0:0:
400,14,83193,2,0,B|307:98|339:-1|193:17|226:109|102:73,1,315.000012016297,8|0,1:0|0:0,0:0:0:0:
25,76,83538,6,0,B|70:77|96:71|122:38,1,105.000004005432
12,87,83710,2,0,B|38:118|82:121|120:106,1,105.000004005432,0|0,1:0|0:0,0:0:0:0:
91,202,83883,6,0,B|104:232|102:269|100:308,1,105.000004005432,8|0,1:0|0:0,0:0:0:0:
112,207,84055,1,0,0:0:0:0:
206,336,84227,5,0,1:0:0:0:
308,129,84400,1,0,0:0:0:0:
308,357,84572,1,8,1:0:0:0:
112,207,84745,1,0,0:0:0:0:
320,328,84917,5,0,0:0:0:0:
75,338,85090,1,0,1:0:0:0:
191,128,85262,1,8,1:0:0:0:
198,346,85434,6,0,L|199:377,1,26.2500010013581
223,357,85607,6,0,B|188:278|268:245|259:158|200:181|222:40,1,315.000012016297,8|0,1:2|0:0,0:0:0:0:
287,15,85952,2,0,B|322:94|242:127|251:214|310:191|288:332,1,315.000012016297,8|0,1:0|0:0,0:0:0:0:
339,255,86296,6,0,B|314:214|334:189|317:154,1,105.000004005432
382,79,86469,2,0,B|359:119|383:130|362:187,1,105.000004005432,0|0,1:0|0:0,0:0:0:0:
188,370,86641,6,0,B|181:333|199:303|201:260,1,105.000004005432,8|0,1:0|0:0,0:0:0:0:
115,91,86814,2,0,B|129:123|101:151|140:158|133:210,1,105.000004005432
289,323,86986,5,0,3:0:0:0:
316,325,87072,1,0,3:0:0:0:
330,341,87158,1,0,3:0:0:0:
348,350,87245,1,0,3:0:0:0:
363,349,87331,5,0,3:0:0:0:
394,333,87417,1,0,3:0:0:0:
408,305,87503,1,4,3:0:0:0:
395,275,87590,1,4,3:0:0:0:
391,246,87676,5,2,3:0:0:0:
392,235,87762,1,2,3:0:0:0:
393,224,87848,1,2,3:0:0:0:
394,213,87934,1,2,3:0:0:0:
396,203,88021,6,2,B|402:160|415:117|372:78|345:11|508:2|524:130|429:144|372:111,1,315.000012016297,0|0,0:0|0:0,0:1:0:0:
326,60,88365,6,0,B|308:17|294:5|272:3|253:4|242:12|230:35|229:59|233:85|178:113|129:29,1,210.000008010865,8|0,1:2|0:0,0:0:0:0:
154,56,88624,1,0,0:0:0:0:
142,38,88710,2,0,B|142:8|118:-4|65:1|43:30|42:94|91:125|117:157,1,210.000008010865,8|0,1:2|0:0,0:0:0:0:
88,246,89055,6,0,P|76:272|45:304,1,70
103,246,89227,2,0,P|97:294|84:326,1,70,0|0,1:0|0:0,0:0:0:0:
115,243,89400,2,0,P|124:291|120:331,1,70,8|0,1:0|0:0,0:0:0:0:
125,238,89572,2,0,P|148:274|159:322,1,70
226,193,89745,6,0,B|193:160|193:160|204:120,1,87.5,0|0,1:0|0:0,0:0:0:0:
297,192,89917,2,0,B|264:224|264:224|224:213,1,87.5
296,121,90090,2,0,B|328:153|328:153|317:193,1,87.5,8|0,1:0|0:0,0:0:0:0:
225,122,90262,2,0,B|257:89|257:89|297:100,1,87.5
355,276,90434,6,0,B|379:312|368:337|392:373,1,105.000004005432
367,169,90607,2,0,B|367:119|406:111|402:60,1,105.000004005432,0|0,1:0|0:0,0:0:0:0:
460,263,90779,2,0,B|438:307|467:336|434:375,1,105.000004005432,8|0,1:0|0:0,0:0:0:0:
466,135,90952,2,0,B|433:98|456:74|430:37,1,105.000004005432
333,288,91124,6,0,B|352:357|284:394|284:394|226:330|264:282|331:245|240:182,1,315.000012016297,8|0,1:2|0:0,0:0:0:0:
257,196,91469,2,0,B|181:124|178:260|63:274|123:154|28:189|-9:223|8:280,1,315.000012016297,8|0,1:2|0:0,0:0:0:0:
85,293,91814,6,0,P|96:352|67:383,1,105.000004005432
93,189,91986,2,0,P|68:119|82:91,1,105.000004005432,0|0,1:0|0:0,0:0:0:0:
191,271,92158,2,0,P|179:333|151:363,1,105.000004005432,8|0,1:0|0:0,0:0:0:0:
175,129,92331,2,0,P|181:68|212:37,1,105.000004005432
301,233,92503,6,0,B|325:252|362:244|367:274|398:281,1,87.5,0|0,1:0|0:0,0:0:0:0:
323,123,92676,2,0,B|304:147|312:184|282:189|275:220,1,87.5
433,145,92848,2,0,B|409:126|372:134|367:104|336:97,1,87.5,8|0,1:0|0:0,0:0:0:0:
411,255,93021,2,0,B|430:231|422:194|452:189|459:158,1,87.5
289,328,93193,6,0,B|256:340|256:340|243:372,1,70
256,303,93365,2,0,B|233:329|233:329|238:364,1,70,0|0,1:0|0:0,0:0:0:0:
212,302,93538,2,0,B|205:336|205:336|227:363,1,70,8|0,0:0|0:0,0:0:0:0:
175,316,93710,2,0,B|186:348|186:348|219:362,1,70
151,348,93883,6,0,B|148:272|130:242|148:227,1,105.000004005432,8|0,1:2|0:0,0:0:0:0:
64,147,94055,2,0,B|53:196|70:235|46:264,1,105.000004005432
68,354,94227,2,0,B|50:240|138:265|159:146|64:142|114:54,1,315.000012016297,8|0,1:2|0:0,0:0:0:0:
219,31,94572,6,0,P|203:74|221:130,1,105.000004005432,2|0,0:1|0:0,0:0:0:0:
369,14,94745,2,0,P|385:57|367:113,1,105.000004005432,2|0,1:0|0:0,0:0:0:0:
198,48,94917,2,0,P|180:96|197:145,1,105.000004005432,10|0,1:0|0:0,0:0:0:0:
390,33,95090,2,0,P|407:81|390:130,1,105.000004005432,2|0,0:1|0:0,0:0:0:0:
297,153,95262,6,0,P|297:218|334:241,1,105.000004005432,2|0,1:0|0:0,0:0:0:0:
490,176,95434,2,0,P|497:125|461:90,1,105.000004005432,2|0,0:1|0:0,0:0:0:0:
271,185,95607,6,0,P|235:220|242:270,1,105.000004005432,10|0,1:0|0:0,0:0:0:0:
252,177,95779,2,0,P|233:223|259:267,1,105.000004005432,2|0,0:1|0:0,0:0:0:0:
457,338,95952,6,0,P|464:287|428:252,1,105.000004005432,2|0,0:1|0:0,0:0:0:0:
165,265,96124,5,2,1:0:0:0:
165,265,96210,1,0,1:0:0:0:
165,265,96296,2,0,P|148:312|177:354,1,105.000004005432,10|0,1:0|0:0,0:0:0:0:
144,266,96469,2,0,P|147:316|190:343,1,105.000004005432,2|0,1:0|0:0,0:0:0:0:
342,288,96641,6,0,B|434:280|443:173|439:139|375:163|369:110|397:58|441:10,1,315.000012016297,8|0,1:2|0:0,0:0:0:0:
479,99,96986,2,0,B|366:147|379:50|243:39|329:146|160:113,1,315.000012016297,8|0,1:2|0:0,0:0:0:0:
101,69,97331,6,0,B|57:82|26:79|-3:90,1,105.000004005432,2|0,0:1|0:0,0:0:0:0:
211,134,97503,2,0,B|255:147|286:144|315:155,1,105.000004005432,2|0,1:0|0:0,0:0:0:0:
110,48,97676,2,0,B|66:61|35:58|6:69,1,105.000004005432,10|0,1:0|0:0,0:0:0:0:
224,157,97848,2,0,B|268:170|299:167|328:178,1,105.000004005432,2|0,0:1|0:0,0:0:0:0:
112,158,98021,6,2,B|121:208|83:229|51:210|15:210|-1:246|5:290|38:319|66:325|77:286|123:277|143:295|153:333,1,315.000012016297,8|0,1:2|0:0,0:1:0:0:
157,353,98365,2,0,B|174:308|167:270|191:251,1,105.000004005432,8|0,1:0|0:0,0:0:0:0:
400,158,98538,6,2,B|391:208|429:229|461:210|497:210|513:246|507:290|474:319|446:325|435:286|389:277|369:295|359:333,1,315.000012016297,8|0,1:2|0:0,0:1:0:0:
355,353,98883,2,0,B|338:308|345:270|321:251,1,105.000004005432,8|0,1:0|0:0,0:0:0:0:
299,102,99055,6,2,B|285:47|335:-7|386:-3|434:-1|456:29|481:63|486:89|471:129,1,315.000012016297,8|0,1:2|0:0,0:1:0:0:
335,207,99400,6,0,B|248:171|280:248|124:257|172:180|114:166|75:194|76:232|86:250|103:275,1,315.000012016297,12|0,1:2|0:0,0:0:0:0:
172,240,99745,2,0,B|259:204|227:281|383:290|335:213|393:199|432:227|431:265|421:283|404:308,1,315.000012016297,8|0,1:2|0:0,0:0:0:0:
340,341,100090,6,0,P|307:359|288:385,1,70
317,330,100262,2,0,P|282:336|245:353,1,70,0|0,1:0|0:0,0:0:0:0:
309,308,100434,2,0,P|265:301|232:307,1,70,8|0,1:0|0:0,0:0:0:0:
310,285,100607,2,0,P|269:266|242:265,1,70
327,157,100779,6,0,B|369:147|369:147|415:151,1,87.5,0|0,1:0|0:0,0:0:0:0:
302,82,100952,2,0,B|312:124|312:124|308:170,1,87.5
377,57,101124,2,0,B|335:67|335:67|289:63,1,87.5,8|0,1:0|0:0,0:0:0:0:
402,132,101296,2,0,B|392:90|392:90|396:44,1,87.5
191,28,101469,6,0,B|178:10|178:10|162:52|195:102,1,105.000004005432
198,238,101641,2,0,B|205:258|205:258|232:222|214:165,1,105.000004005432,0|0,1:0|0:0,0:0:0:0:
157,41,101814,2,0,B|148:20|148:20|123:58|140:100,1,105.000004005432,8|0,1:0|0:0,0:0:0:0:
178,250,101986,2,0,B|192:267|192:267|205:224|177:188,1,105.000004005432
61,20,102158,6,0,B|30:143|88:88|100:277|33:191|87:363,1,315.000012016297,8|0,1:2|0:0,0:0:0:0:
157,41,102503,2,0,B|154:167|198:101|252:282|168:213|259:369,1,315.000012016297,8|0,1:2|0:0,0:0:0:0:
295,206,102848,6,0,B|270:166|318:154|270:144|294:101,1,105.000004005432
363,268,103021,2,0,B|388:308|340:320|388:330|364:373,1,105.000004005432,0|0,1:0|0:0,0:0:0:0:
309,200,103193,2,0,B|274:167|317:143|268:146|280:98,1,105.000004005432,8|0,1:0|0:0,0:0:0:0:
378,267,103365,2,0,B|389:311|340:308|383:332|349:364,1,105.000004005432
401,167,103538,6,0,P|406:120|394:77,1,87.5,0|0,1:0|0:0,0:0:0:0:
477,181,103710,2,0,P|430:176|387:188,1,87.5
491,105,103883,2,0,P|486:152|498:195,1,87.5,8|0,1:0|0:0,0:0:0:0:
415,91,104055,2,0,P|462:96|505:84,1,87.5
319,14,104227,6,0,P|304:46|303:89,1,70,0|0,1:0|0:0,0:0:0:0:
273,29,104400,2,0,P|280:76|300:108,1,70
237,62,104572,2,0,P|257:98|286:115,1,70,8|0,1:0|0:0,0:0:0:0:
222,99,104745,2,0,P|255:127|290:131,1,70
157,160,104917,6,0,B|185:199|176:230|195:286|202:300|160:317|118:300|97:319|49:302|55:295|47:259|53:229,1,315.000012016297,8|0,1:2|0:0,0:0:0:0:
217,229,105262,2,0,B|189:268|198:299|179:355|172:369|214:386|256:369|277:388|325:371|319:364|327:328|321:298,1,315.000012016297,8|0,1:2|0:0,0:0:0:0:
306,212,105607,6,0,P|283:165|293:116,1,105.000004005432,2|0,0:1|0:0,0:0:0:0:
442,224,105779,2,0,P|465:178|455:128,1,105.000004005432,2|0,1:0|0:0,0:0:0:0:
295,224,105952,2,0,P|284:173|307:127,1,105.000004005432,10|0,1:0|0:0,0:0:0:0:
456,236,106124,2,0,P|466:186|444:140,1,105.000004005432,2|0,0:1|0:0,0:0:0:0:
200,109,106296,6,0,P|185:67|193:3,1,105.000004005432,2|0,1:0|0:0,0:0:0:0:
371,0,106469,2,0,P|386:42|378:106,1,105.000004005432,2|0,0:1|0:0,0:0:0:0:
135,194,106641,6,0,P|143:145|182:100,1,105.000004005432,10|0,1:0|0:0,0:0:0:0:
157,212,106814,2,0,P|152:162|178:109,1,105.000004005432,2|0,0:1|0:0,0:0:0:0:
295,224,106986,6,0,P|316:271|312:322,1,105.000004005432,2|0,0:1|0:0,0:0:0:0:
132,370,107158,5,2,1:0:0:0:
132,370,107245,1,0,1:0:0:0:
132,370,107331,2,0,P|103:328|98:276,1,105.000004005432,10|0,1:0|0:0,0:0:0:0:
104,366,107503,2,0,P|87:318|96:267,1,105.000004005432,2|0,1:0|0:0,0:0:0:0:
80,357,107676,6,0,B|16:226|130:311|106:97|16:217|59:42,1,315.000012016297,8|0,1:2|0:0,0:0:0:0:
217,82,108021,2,0,B|136:227|254:134|222:347|134:235|162:378,1,315.000012016297,8|0,1:2|0:0,0:0:0:0:
255,374,108365,6,0,P|286:320|276:282,1,105.000004005432,2|0,0:1|0:0,0:0:0:0:
286,115,108538,2,0,P|277:165|306:207,1,105.000004005432,2|0,1:0|0:0,0:0:0:0:
370,351,108710,1,10,1:0:0:0:
371,357,108883,1,2,0:1:0:0:
372,361,109055,5,2,3:1:0:0:
380,343,109141,1,0,3:0:0:0:
401,339,109227,1,0,3:0:0:0:
405,305,109314,1,0,3:0:0:0:
417,292,109400,5,2,3:1:0:0:
404,249,109486,1,0,0:0:0:0:
383,242,109572,1,2,1:1:0:0:
378,207,109658,1,0,1:0:0:0:
358,191,109745,5,0,1:0:0:0:
342,162,109831,1,0,3:0:0:0:
339,133,109917,1,2,3:1:0:0:
349,102,110003,1,0,3:0:0:0:
366,80,110090,6,2,B|376:37|424:17|462:69|436:115|360:146|346:70|310:33|252:42|208:80,1,315.000012016297,0|0,0:0|0:0,1:0:0:0:
158,18,110434,6,0,B|171:179|230:88|297:250|186:199|253:350,1,315.000012016297,12|0,1:2|0:0,0:0:0:0:
206,375,110779,2,0,B|257:265|146:315|213:153|272:245|286:83,1,315.000012016297,8|0,1:2|0:0,0:0:0:0:
369,208,111124,6,0,P|382:242|409:267,1,70
374,184,111296,2,0,P|396:155|405:119,1,70,0|0,1:0|0:0,0:0:0:0:
350,191,111469,2,0,P|314:185|278:196,1,70,8|0,1:0|0:0,0:0:0:0:
178,242,111641,6,0,B|153:269|153:269|120:277,1,70
190,245,111814,2,0,B|179:209|179:209|188:177,1,70,0|0,1:0|0:0,0:0:0:0:
181,253,111986,2,0,B|216:261|216:261|240:285,1,70
56,153,112158,6,0,P|48:108|48:64,1,87.5,8|0,1:0|0:0,0:0:0:0:
40,165,112331,2,0,P|18:107|16:74,1,87.5
20,277,112503,6,0,B|36:323|7:334|38:347|29:384,1,105.000004005432
132,212,112676,2,0,B|116:258|145:269|114:282|123:319,1,105.000004005432,0|0,1:0|0:0,0:0:0:0:
243,267,112848,2,0,B|259:313|230:324|261:337|252:374,1,105.000004005432,8|0,1:0|0:0,0:0:0:0:
355,202,113021,2,0,B|339:248|368:259|337:272|346:309,1,105.000004005432
457,274,113193,6,0,B|460:304|486:326|505:315|528:277|511:233|470:213|441:160|431:99|445:69|471:57,1,315.000012016297,8|0,1:2|0:0,0:0:0:0:
389,22,113538,2,0,B|421:72|426:136|396:188|367:207|314:203|288:143|257:158|227:184|216:199,1,315.000012016297,8|0,1:2|0:0,0:0:0:0:
166,124,113883,6,0,P|148:73|158:22,1,105.000004005432,2|0,0:1|0:0,0:0:0:0:
270,18,114055,2,0,P|288:69|278:120,1,105.000004005432,2|0,1:0|0:0,0:0:0:0:
158,137,114227,2,0,P|127:92|123:40,1,105.000004005432,10|0,1:0|0:0,0:0:0:0:
278,5,114399,2,0,P|308:49|312:101,1,105.000004005432,2|0,0:1|0:0,0:0:0:0:
242,193,114572,6,0,P|198:220|177:268,1,105.000004005432,2|0,1:0|0:0,0:0:0:0:
272,318,114745,2,0,P|271:267|241:225,1,105.000004005432,2|0,0:1|0:0,0:0:0:0:
150,282,114917,2,0,P|195:307|246:302,1,105.000004005432,10|0,1:0|0:0,0:0:0:0:
363,194,115090,6,0,P|345:143|355:92,1,105.000004005432,2|0,0:1|0:0,0:0:0:0:
467,88,115262,2,0,P|485:139|475:190,1,105.000004005432,2|0,0:1|0:0,0:0:0:0:
355,207,115434,2,0,P|324:162|320:110,1,105.000004005432,2|0,1:0|0:0,0:0:0:0:
475,75,115606,2,0,P|505:119|509:171,1,105.000004005432,10|0,1:0|0:1,0:0:0:0:
441,304,115779,5,0,1:0:0:0:
441,304,115952,6,0,B|331:288|382:356|211:364|282:303|188:275|148:294|137:333,1,315.000012016297,8|0,1:2|0:0,0:0:0:0:
38,202,116296,2,0,B|158:211|89:278|280:307|240:174|348:237,1,315.000012016297,8|0,1:2|0:0,0:0:0:0:
290,169,116641,6,0,P|256:182|187:163,1,105.000004005432,2|0,0:1|0:0,0:0:0:0:
261,57,116814,2,0,P|289:79|307:149,1,105.000004005432,0|0,1:0|0:0,0:0:0:0:
178,138,116986,2,0,P|183:102|234:51,1,105.000004005432,8|0,1:0|0:0,0:0:0:0:
394,45,117158,6,0,P|423:23|495:24,1,105.000004005432,2|0,0:1|0:0,0:0:0:0:
450,145,117331,2,0,P|416:130|381:67,1,105.000004005432,0|0,1:0|0:0,0:0:0:0:
510,45,117503,2,0,P|513:81|477:142,1,105.000004005432
325,283,117676,6,0,P|347:329|392:354,1,105.000004005432,10|0,1:1|0:0,0:0:0:0:
433,231,117849,2,0,P|381:227|336:253,1,105.000004005432
424,349,118021,2,0,P|452:306|452:254,1,105.000004005432
242,231,118193,5,2,1:0:0:0:
242,231,118279,1,0,1:0:0:0:
242,231,118365,2,0,B|196:253|196:253|245:274,1,105.000004005432,0|0,1:0|0:0,0:0:0:0:
78,232,118538,2,0,B|124:254|124:254|75:275,1,105.000004005432,0|0,1:0|0:0,0:0:0:0:
155,339,118710,6,0,B|184:217|114:167|173:169|136:147|136:98|217:117|238:65,1,315.000012016297,8|0,1:2|0:0,0:0:0:0:
280,4,119055,2,0,P|271:85|281:125,1,105.000004005432,8|0,1:2|0:0,0:0:0:0:
388,180,119227,6,0,B|444:174|444:174|494:150,1,105.000004005432
477,184,119400,6,0,B|431:200|431:200|374:200,1,105.000004005432
385,220,119572,6,0,B|432:228|432:228|488:220,1,105.000004005432,0|0,1:0|0:0,0:0:0:0:
481,247,119745,6,0,B|433:255|433:255|377:247,1,105.000004005432,8|0,1:0|0:0,0:0:0:0:
375,272,119917,6,0,B|420:288|420:288|477:288,1,105.000004005432
184,331,120090,6,2,B|137:358|69:373|11:349|-8:290|-22:235|-4:197|24:182|63:189|102:201|103:256|61:288,1,420.000016021729,8|8,1:2|1:0,0:1:0:0:
328,331,120607,2,2,B|375:358|443:373|501:349|520:290|534:235|516:197|488:182|449:189|410:201|409:256|451:288,1,420.000016021729,8|8,1:2|1:0,0:1:0:0:
183,176,121124,6,2,B|140:170|117:181|79:176,1,105,8|0,1:2|0:0,0:1:0:0:
46,69,121469,6,0,B|151:9|132:126|267:116|237:42|351:76,1,315.000012016297,12|0,1:2|0:0,0:0:0:0:
209,6,121814,2,0,B|307:66|297:-12|430:12|381:120|499:90,1,315.000012016297,8|0,1:2|0:0,0:0:0:0:
375,166,122158,6,0,B|344:181|344:181|326:212,1,70
252,218,122331,2,0,B|280:237|280:237|316:237,1,70,0|0,1:0|0:0,0:0:0:0:
359,298,122503,2,0,B|361:263|361:263|343:232,1,70,8|0,1:0|0:0,0:0:0:0:
255,126,122676,6,0,B|233:151|210:124|216:159|174:148,1,70
161,248,122848,2,0,B|150:216|185:210|151:197|182:166,1,70,0|0,1:0|0:0,0:0:0:0:
102,105,123021,2,0,B|134:111|122:144|150:122|161:164,1,70
29,237,123193,6,0,P|47:287|51:331,1,87.5,8|0,1:0|0:0,0:0:0:0:
50,247,123365,2,0,P|62:294|58:336,1,87.5
178,346,123538,6,0,B|252:350|252:350|278:372,1,105.000004005432
381,314,123710,2,0,B|307:318|307:318|281:340,1,105.000004005432,0|0,1:0|0:0,0:0:0:0:
195,272,123883,2,0,B|269:276|269:276|295:298,1,105.000004005432,8|0,1:0|0:0,0:0:0:0:
398,240,124055,2,0,B|324:244|324:244|298:266,1,105.000004005432
207,151,124227,6,0,B|300:113|258:190|417:203|379:112|521:149,1,315.000012016297,8|0,1:2|0:0,0:0:0:0:
396,116,124572,2,0,B|299:117|346:31|206:20|195:142|80:59,1,315.000012016297,8|0,1:2|0:0,0:0:0:0:
52,148,124917,6,0,P|43:199|61:248,1,105.000004005432,2|0,0:1|0:0,0:0:0:0:
216,250,125090,2,0,P|224:198|207:151,1,105.000004005432,2|0,1:0|0:0,0:0:0:0:
46,129,125261,2,0,P|24:176|28:227,1,105.000004005432,10|0,1:0|0:0,0:0:0:0:
221,269,125434,2,0,P|242:221|238:170,1,105.000004005432,2|0,0:1|0:0,0:0:0:0:
308,76,125606,6,0,P|329:29|374:2,1,105.000004005432,2|0,1:0|0:0,0:0:0:0:
378,110,125779,2,0,P|327:115|282:91,1,105.000004005432,2|0,0:1|0:0,0:0:0:0:
372,33,125951,2,0,P|402:75|404:126,1,105.000004005432,10|0,1:0|0:0,0:0:0:0:
327,244,126124,6,0,P|318:295|335:343,1,105.000004005432,2|0,0:1|0:0,0:0:0:0:
490,346,126297,2,0,P|498:294|481:247,1,105.000004005432,2|0,0:1|0:0,0:0:0:0:
320,225,126468,2,0,P|298:272|302:323,1,105.000004005432,2|0,1:0|0:0,0:0:0:0:
495,365,126641,2,0,P|516:317|512:266,1,105.000004005432,10|0,1:0|0:0,0:0:0:0:
406,207,126814,5,0,1:0:0:0:
406,207,126986,6,0,B|373:214|326:197|274:240,1,105.000004005432,8|0,1:2|0:0,0:0:0:0:
204,171,127158,2,0,B|250:188|282:174|316:189,1,105.000004005432
381,113,127331,2,0,B|415:99|431:78|420:50|390:38|355:45|316:70|263:72|236:43|175:47|148:75,1,315.000012016297,8|0,1:2|0:0,0:0:0:0:
73,180,127676,6,0,B|57:228|57:228|24:273,1,105.000004005432,2|0,1:1|0:0,0:0:0:0:
157,266,127848,2,0,B|123:228|123:228|100:177,1,105.000004005432,0|0,1:0|0:0,0:0:0:0:
40,295,128021,2,0,B|89:284|89:284|145:290,1,105.000004005432,8|0,1:0|0:0,0:0:0:0:
281,217,128193,6,0,B|330:238|330:238|381:243,1,105.000004005432,2|0,1:1|0:0,0:0:0:0:
288,338,128366,2,0,B|281:283|281:283|260:237,1,105.000004005432,0|0,1:0|0:0,0:0:0:0:
388,270,128538,2,0,B|344:302|344:302|315:343,1,105.000004005432
190,127,128710,6,0,B|203:74|203:74|200:23,1,105.000004005432,10|0,1:1|0:0,0:0:0:0:
307,98,128883,2,0,B|254:112|254:112|212:140,1,105.000004005432,0|0,1:0|0:0,0:0:0:0:
226,11,129055,2,0,B|264:48|264:48|310:71,1,105.000004005432,0|0,1:0|0:0,0:0:0:0:
101,64,129227,5,2,1:0:0:0:
101,64,129314,1,0,1:0:0:0:
101,64,129400,2,0,P|97:125|74:169,1,105.000004005432,8|0,1:0|0:0,0:0:0:0:
170,328,129572,2,0,P|166:267|143:223,1,105.000004005432,0|0,1:0|0:0,0:0:0:0:
6,220,129745,6,0,B|103:148|117:272|218:227|149:108|233:142|241:140|267:146|271:190,1,315.000012016297,8|0,1:2|0:0,0:0:0:0:
264,216,130090,2,0,B|249:259|264:291|317:288,1,105.000004005432,8|0,1:2|0:0,0:0:0:0:
418,273,130262,6,0,P|444:252|515:252,1,105.000004005432,2|0,1:0|0:0,0:0:0:0:
412,288,130434,2,0,P|445:282|506:318,1,105.000004005432,2|0,1:0|0:0,0:0:0:0:
399,297,130607,2,0,P|430:309|465:370,1,105.000004005432,2|0,1:0|0:0,0:0:0:0:
382,377,130779,5,8,1:2:0:0:
230,333,130952,1,0,1:0:0:0:
78,293,131124,5,2,1:0:0:0:
58,286,131210,1,0,1:0:0:0:
58,265,131296,1,2,1:0:0:0:
78,259,131383,1,0,1:0:0:0:
90,276,131469,5,0,1:0:0:0:
106,314,131555,1,0,1:0:0:0:
148,309,131642,1,2,1:0:0:0:
156,268,131728,1,0,1:0:0:0:
120,247,131814,5,0,1:0:0:0:
70,230,131900,1,0,1:0:0:0:
70,178,131986,1,8,1:3:0:0:
120,162,132072,1,8,1:3:0:0:
150,204,132158,6,0,B|179:234|236:239|299:226|302:115|373:159|392:204|390:249|374:272|299:309|381:376,1,420.000016021729,8|4,1:3|0:0,0:0:0:0:
