osu file format v14

[General]
AudioFilename: audio.mp3
AudioLeadIn: 0
PreviewTime: -1
Countdown: 1
SampleSet: None
StackLeniency: 0.2
Mode: 0
LetterboxInBreaks: 0
WidescreenStoryboard: 1

[Editor]
Bookmarks: 11141,22175,33210,44244,55279,60796,66313,88382,99417,110451,121486,132520
DistanceSpacing: 0.6
BeatDivisor: 4
GridSize: 4
TimelineZoom: 2

[Metadata]
Title:Hide Away My Heart
TitleUnicode:Hide Away My Heart
Artist:MaxNRG
ArtistUnicode:MaxNRG
Creator:Megatron is bad
Version:2 men homosexually doting on another man
Source:
Tags:
BeatmapID:1243211
BeatmapSetID:572687

[Difficulty]
HPDrainRate:1
CircleSize:4
OverallDifficulty:5
ApproachRate:9.4
SliderMultiplier:2
SliderTickRate:1

[Events]
//Background and Video events
0,0,"bg.jpg",0,0
//Break Periods
2,44443,49221
//Storyboard Layer 0 (Background)
//Storyboard Layer 1 (Fail)
//Storyboard Layer 2 (Pass)
//Storyboard Layer 3 (Foreground)
//Storyboard Sound Samples

[TimingPoints]
107,344.827586206897,4,2,0,64,1,0
11141,-50,4,2,0,60,0,0
11658,-100,4,2,0,60,0,0
12520,-50,4,2,0,60,0,0
13038,-100,4,2,0,60,0,0
13900,-50,4,2,0,60,0,0
14417,-100,4,2,0,60,0,0
15279,-50,4,2,0,60,0,0
15796,-100,4,2,0,60,0,0
16658,-50,4,2,0,60,0,0
17175,-100,4,2,0,60,0,0
18038,-50,4,2,0,60,0,0
18555,-100,4,2,0,60,0,0
19417,-50,4,2,0,60,0,0
19934,-100,4,2,0,60,0,0
20796,1379.31034482759,4,2,0,64,1,0
20796,-50,4,2,0,5,0,0
22002,-66.6666666666667,4,2,0,5,0,0
22175,344.827586206897,4,2,0,64,1,0
41485,-200,4,2,0,64,0,0
41657,-166.666666666667,4,2,0,64,0,0
41830,-142.857142857143,4,2,0,64,0,0
42002,-125,4,2,0,64,0,0
42175,-111.111111111111,4,2,0,64,0,0
42347,-100,4,2,0,64,0,0
42519,-90.9090909090909,4,2,0,64,0,0
42692,-83.3333333333333,4,2,0,64,0,0
42864,-83.3333333333333,4,2,0,64,0,0
49761,1379.31034482759,4,2,0,64,1,0
49761,-30,4,2,0,30,0,0
50795,-45,4,2,0,30,0,0
51140,-30,4,2,0,30,0,0
52174,-45,4,2,0,30,0,0
52519,-30,4,2,0,30,0,0
53554,-45,4,2,0,30,0,0
53898,-30,4,2,0,30,0,0
54588,-45,4,2,0,30,0,0
55278,344.827586206897,4,2,0,64,1,0
64071,-149.253731343284,4,2,0,64,0,0
65967,-200,4,2,0,64,0,0
66312,-50,4,2,0,64,0,0
66657,-66.6666666666667,4,2,0,64,0,0
67002,-133.333333333333,4,2,0,64,0,0
67519,-80,4,2,0,64,0,0
68037,-55.5555555555556,4,2,0,64,0,0
68381,-62.5,4,2,0,64,0,0
68726,-55.5555555555556,4,2,0,64,0,0
69071,-50,4,2,0,64,0,0
69416,689.655172413793,4,2,0,64,1,0
69416,-100,4,2,0,64,0,0
69588,-50,4,2,0,64,0,0
69760,344.827586206897,4,2,0,64,1,0
70104,-100,4,2,0,64,0,0
70449,-57.1428571428571,4,2,0,64,0,0
70450,-66.6666666666667,4,2,0,64,0,0
70880,-80,4,2,0,64,0,0
71656,-55.5555555555556,4,2,0,64,0,0
71830,-50,4,2,0,64,0,0
72173,-83.3333333333333,4,2,0,64,0,0
72519,-80,4,2,0,64,0,0
72863,-62.5,4,2,0,64,0,0
73208,-80,4,2,0,64,0,0
73553,-66.6666666666667,4,2,0,64,0,0
74242,-55.5555555555556,4,2,0,64,0,0
74588,-66.6666666666667,4,2,0,64,0,0
75622,-55.5555555555556,4,2,0,64,0,0
75794,-83.3333333333333,4,2,0,64,0,0
77348,172.413793103448,4,2,0,64,1,0
77348,-66.6666666666667,4,2,0,64,0,0
78037,-50,4,2,0,60,0,0
78727,86.2068965517241,4,2,0,64,1,0
78727,-30,4,2,0,64,0,0
78748,-30,4,2,0,5,0,0
78813,57.4712643678161,4,2,0,64,1,0
78813,-30,4,2,0,64,0,0
78841,-30,4,2,0,5,0,0
78899,43.1034482758621,4,2,0,64,1,0
78899,-30,4,2,0,64,0,0
78920,-30,4,2,0,5,0,0
79071,172.413793103448,4,2,0,64,1,0
79415,-50,4,2,0,60,0,0
80105,172.413793103448,4,2,0,64,1,0
80105,-66.6666666666667,4,2,0,5,0,0
80794,-50,4,2,0,60,0,0
82863,-66.6666666666667,4,2,0,60,0,0
83553,-50,4,2,0,60,0,0
84242,86.2068965517241,4,2,0,64,1,0
84242,-30,4,2,0,64,0,0
84263,-30,4,2,0,5,0,0
84328,57.4712643678161,4,2,0,64,1,0
84328,-30,4,2,0,64,0,0
84342,-30,4,2,0,5,0,0
84414,43.1034482758621,4,2,0,64,1,0
84414,-30,4,2,0,64,0,0
84435,-30,4,2,0,5,0,0
84500,172.413793103448,4,2,0,64,1,0
84931,-50,4,2,0,60,0,0
85620,172.413793103448,4,2,0,64,1,0
85620,-66.6666666666667,4,2,0,60,0,0
86309,-50,4,2,0,60,0,0
88033,-200,4,2,0,64,0,0

[HitObjects]
78,204,11141,6,0,B|37:162|-14:211|-5:313|90:241|118:350,2,200
78,204,11658,2,0,B|104:152|168:182|191:282|78:243|84:355,1,200
413,112,12520,6,0,B|453:70|505:119|496:221|400:149|372:258,2,200
413,112,13038,2,0,B|386:60|322:90|299:190|412:151|406:263,1,200
90,29,13900,6,0,B|49:-12|-2:36|6:138|102:66|130:175,2,200
90,29,14417,2,0,B|116:-22|180:7|203:107|90:68|96:180,1,200
434,254,15279,6,0,B|474:212|526:261|517:363|421:291|393:400,2,200
434,254,15796,2,0,B|407:202|343:232|320:332|433:293|427:405,1,200
86,267,16658,6,0,B|83:228|-12:258|-13:160|52:113|102:172,2,200
86,267,17175,6,0,B|89:228|184:258|185:160|120:113|70:172,1,200
230,256,18038,6,0,B|227:217|132:247|131:149|196:102|246:161,2,200
230,256,18555,6,0,B|233:217|328:247|329:149|264:102|214:161,1,200
398,245,19417,6,0,B|395:206|300:236|299:138|364:91|414:150,2,200
398,245,19934,6,0,B|401:206|496:236|497:138|432:91|382:150,1,200
256,192,20796,12,0,22002,0:0:0:0:
202,223,20796,6,0,B|188:226|146:181|190:119|245:137|245:137|286:107|341:124|365:225|264:279,1,350
283,265,22175,6,0,L|161:261,1,100
30,181,22519,2,0,L|129:184,1,100
337,144,22864,2,0,L|215:140,1,100
84,60,23209,1,0,0:0:0:0:
84,60,23381,6,0,B|207:95|165:20|299:56,1,200
237,140,23554,1,0,0:0:0:0:
278,51,23726,1,0,0:0:0:0:
424,182,23899,2,0,L|399:301,1,100
337,144,24243,2,0,B|359:95|416:88|416:88|359:94|329:160,1,200
416,89,24416,1,0,0:0:0:0:
337,144,24588,1,0,0:0:0:0:
507,216,24761,1,0,0:0:0:0:
462,15,24933,6,0,P|403:4|355:26,1,100
270,75,25278,2,0,P|222:89|174:77,1,100
52,25,25623,2,0,L|68:139,1,100
167,248,25968,2,0,L|151:362,1,100
153,347,26140,1,0,0:0:0:0:
96,209,26312,6,0,P|147:169|248:252,1,200
194,89,26485,1,0,0:0:0:0:
246,233,26657,1,0,0:0:0:0:
375,129,26830,2,0,B|422:170|557:126|413:69|366:137,1,200
335,302,27002,1,0,0:0:0:0:
375,129,27175,1,0,0:0:0:0:
434,246,27347,1,0,0:0:0:0:
288,157,27519,2,0,P|291:94|336:44,1,100
310,63,27692,6,0,L|192:66,1,100
288,157,28036,2,0,L|170:160,1,100
322,247,28381,2,0,L|204:250,1,100
300,341,28726,1,0,0:0:0:0:
300,341,28899,6,0,B|200:340|200:340|299:340,1,200
116,340,29071,1,0,0:0:0:0:
300,341,29243,6,0,P|386:320|414:214,1,200
322,247,29416,1,0,0:0:0:0:
416,221,29588,6,0,P|369:125|418:22,1,200
492,122,29761,1,0,0:0:0:0:
397,41,29933,1,0,0:0:0:0:
277,135,30106,2,0,P|219:141|145:119,1,100
56,52,30450,6,0,P|39:106|59:180,1,100
166,229,30795,2,0,P|183:175|163:101,1,100
43,148,31140,2,0,P|26:202|46:276,1,100
30,244,31312,1,0,0:0:0:0:
136,333,31485,2,0,B|250:300|222:365|356:331,1,200
294,250,31657,1,0,0:0:0:0:
332,336,31830,6,0,P|383:278|340:167,1,200
474,265,32002,1,0,0:0:0:0:
346,171,32175,1,0,0:0:0:0:
197,228,32347,2,0,B|184:205|167:189|167:189|184:172|189:143|189:143|198:171|218:186|218:186|204:204|186:251,1,200
181,66,32519,1,0,0:0:0:0:
197,228,32692,1,0,0:0:0:0:
255,28,32864,2,0,P|198:-16|99:68,1,200
273,115,33037,1,0,0:0:0:0:
101,44,33209,6,0,L|70:175,1,100
189,143,33554,2,0,L|157:273,1,100
314,118,33899,2,0,L|282:248,1,100
407,198,34243,1,0,0:0:0:0:
407,198,34416,2,0,B|384:296|384:296|410:187,1,200
290,215,34588,1,0,0:0:0:0:
407,198,34761,1,0,0:0:0:0:
244,289,34933,6,0,B|200:261|206:202|206:202|197:262|264:303,1,200
255,138,35106,1,0,0:0:0:0:
244,289,35278,1,0,0:0:0:0:
119,210,35450,1,0,0:0:0:0:
209,60,35623,2,0,B|320:27|307:116|418:84,1,200
373,0,35795,1,0,0:0:0:0:
400,88,35968,6,0,L|387:206,1,100
255,138,36312,2,0,L|268:256,1,100
389,187,36657,2,0,L|376:305,1,100
265,237,37002,2,0,B|276:337|276:337|169:312,1,200
378,286,37175,1,0,0:0:0:0:
179,314,37347,6,0,P|142:240|202:132,1,200
39,213,37519,1,0,0:0:0:0:
188,140,37692,1,0,0:0:0:0:
265,237,37864,6,0,B|243:230|226:229|226:229|291:206|301:113|257:80,1,200
378,178,38037,1,0,0:0:0:0:
271,95,38209,1,0,0:0:0:0:
445,126,38381,2,0,B|477:168|452:221|452:221|477:169|445:126,1,200
452,221,38554,1,0,0:0:0:0:
445,126,38726,6,0,L|461:21,1,100
336,70,39071,2,0,L|320:168,1,100
215,106,39416,2,0,L|231:1,1,100
106,50,39761,1,0,0:0:0:0:
132,173,39933,6,0,B|160:219|219:214|219:214|160:219|120:156,1,200
304,161,40106,1,0,0:0:0:0:
132,173,40278,6,0,B|156:260|101:301|101:301|67:283|57:253,1,200
211,301,40450,1,0,0:0:0:0:
59,260,40623,6,0,P|60:136|124:78,1,200
220,214,40795,1,0,0:0:0:0:
108,85,40968,6,0,B|98:30|98:30|161:98|241:71,1,200
220,214,41140,1,0,0:0:0:0:
227,74,41312,1,0,0:0:0:0:
339,159,41485,6,0,L|333:201,1,25
409,195,41657,2,0,L|402:237,1,29.9999990844727
479,233,41830,2,0,L|472:279,1,34.9999989318848
344,119,42002,6,0,L|336:170,1,40
415,150,42175,2,0,L|406:206,1,44.999998626709
486,183,42347,2,0,L|477:245,1,50
351,64,42519,6,0,L|341:132,1,55.0000016784668
423,90,42692,2,0,L|412:165,1,59.9999981689454
494,123,42864,6,0,L|483:198,7,59.9999981689454
423,90,43554,6,0,L|430:41,15,29.9999990844727
348,62,44243,5,0,0:0:0:0:
84,297,49761,6,0,B|84:241|84:241|84:297|84:297|84:217,1,166.666666666667
174,259,50278,6,0,B|174:203|174:203|174:259|174:259|174:179,1,166.666666666667
264,242,50795,6,0,L|262:297,1,55.5555555555556
84,242,51140,6,0,B|84:186|84:186|84:242|84:242|84:162,1,166.666666666667
174,204,51657,6,0,B|174:148|174:148|174:204|174:204|174:124,1,166.666666666667
264,187,52174,6,0,L|262:242,1,55.5555555555556
84,187,52519,6,0,B|84:131|84:131|84:187|84:187|84:107,1,166.666666666667
174,149,53036,6,0,B|174:93|174:93|174:149|174:149|174:69,1,166.666666666667
264,132,53554,6,0,L|262:187,1,55.5555555555556
85,131,53898,6,0,B|85:75|85:75|85:131|85:131|85:51,1,166.666666666667
175,93,54416,6,0,B|175:37|175:37|175:93|175:93|175:13,1,166.666666666667
265,76,54933,6,0,L|263:131,1,55.5555555555556
18,25,55278,5,0,0:0:0:0:
83,197,55622,1,0,0:0:0:0:
103,37,56140,5,0,0:0:0:0:
0,189,56312,1,0,0:0:0:0:
103,37,56657,5,0,0:0:0:0:
174,226,57002,1,0,0:0:0:0:
196,50,57519,5,0,0:0:0:0:
83,217,57691,1,0,0:0:0:0:
196,50,58036,5,0,0:0:0:0:
273,256,58381,1,0,0:0:0:0:
297,64,58899,5,0,0:0:0:0:
174,246,59071,1,0,0:0:0:0:
297,64,59416,5,0,0:0:0:0:
381,287,59760,1,0,0:0:0:0:
407,79,60278,5,0,0:0:0:0:
273,277,60450,1,0,0:0:0:0:
276,71,60795,5,0,0:0:0:0:
381,287,60968,1,0,0:0:0:0:
381,287,61140,1,0,0:0:0:0:
168,61,61312,5,0,0:0:0:0:
273,277,61485,1,0,0:0:0:0:
273,277,61657,1,0,0:0:0:0:
33,259,61829,5,0,0:0:0:0:
168,61,62002,1,0,0:0:0:0:
150,317,62174,5,0,0:0:0:0:
150,317,62260,1,0,0:0:0:0:
150,317,62346,1,0,0:0:0:0:
260,152,62519,1,0,0:0:0:0:
263,376,62691,5,0,0:0:0:0:
263,376,62777,1,0,0:0:0:0:
263,376,62863,1,0,0:0:0:0:
351,244,63036,1,0,0:0:0:0:
363,88,63209,5,0,0:0:0:0:
363,88,63295,1,0,0:0:0:0:
363,88,63381,1,0,0:0:0:0:
224,259,63554,5,0,0:0:0:0:
224,259,63640,1,0,0:0:0:0:
224,259,63726,1,0,0:0:0:0:
424,299,63899,1,0,0:0:0:0:
363,88,64071,6,0,B|353:43|246:-32|174:130|239:184|318:148|328:255|328:255|376:153|466:242|517:153|501:34|393:38|351:102,1,703.499966722871
344,181,65967,6,0,L|325:268,1,75
165,140,66312,6,0,B|242:157|277:254|235:340|171:348|171:348|118:316|115:270|115:270|130:248|127:253,1,400
10,380,66484,1,0,0:0:0:0:
127,253,66657,6,0,B|229:258|229:258|293:325|293:325|401:332,1,300.000011444092
398,331,67002,6,0,L|393:148,1,150.000005722046
169,348,67175,1,0,0:0:0:0:
393,181,67346,6,0,L|479:187,1,75.0000028610231
173,66,67519,6,0,B|281:5|281:5|396:74,1,250
389,69,67691,6,0,B|280:133|280:133|172:72,1,250
173,66,67864,6,0,L|178:147,1,62.5
389,69,68036,5,0,0:0:0:0:
284,325,68209,1,0,0:0:0:0:
96,107,68381,6,0,B|25:34|25:34|39:270,1,320
216,180,68553,1,0,0:0:0:0:
37,251,68726,2,0,B|88:251|131:206|131:206|149:241|199:270,1,179.999994506836
180,258,68898,1,0,0:0:0:0:
96,107,69071,6,0,B|25:34|25:34|236:-1|236:-1|201:29|196:82,1,400
347,147,69244,6,0,P|256:153|196:70,1,200
197,72,69416,6,0,L|201:294,1,200
37,251,69589,2,0,L|115:241,1,50
396,346,69761,1,0,0:0:0:0:
297,69,69933,1,0,0:0:0:0:
200,272,70277,2,0,B|301:268|301:268|200:272,1,200
454,263,70278,1,0,0:0:0:0:
200,272,70449,6,0,B|110:273|74:170|74:170|80:269|18:331,1,350.00000333786
202,147,70623,2,0,P|217:174|186:173,1,75.0000028610231
18,330,70795,1,0,0:0:0:0:
283,123,70880,2,0,P|291:186|285:215,1,62.5
132,360,71139,5,0,0:0:0:0:
120,55,71311,1,0,0:0:0:0:
377,270,71484,2,0,L|288:276,1,62.5
19,167,71656,2,0,B|57:233|57:233|14:338,1,179.999994506836
17,329,71828,6,0,B|32:272|94:238|151:248|151:248|198:321|286:309|320:270,1,359.999989013672
190,134,72002,1,0,0:0:0:0:
315,275,72173,2,0,B|253:257|196:291|186:350|186:350|226:317|276:320,1,239.999992675781
249,321,72518,6,0,L|256:174,1,119.999996337891
254,201,72691,1,0,0:0:0:0:
455,358,72863,2,0,P|389:338|501:312,1,320
426,123,73036,1,0,0:0:0:0:
500,290,73208,6,0,B|352:323|417:241|258:266,1,250
307,381,73381,1,0,0:0:0:0:
259,266,73553,2,0,L|256:188,1,75.0000028610231
253,25,73725,1,0,0:0:0:0:
141,251,73897,5,0,0:0:0:0:
426,123,74070,1,0,0:0:0:0:
153,104,74242,2,0,B|111:55|46:95|72:133|72:133|119:187|175:120|218:83|310:121,1,359.999989013672
342,21,74416,2,0,L|245:25,1,89.9999972534181
288,113,74587,6,0,B|311:352|311:352|273:292|213:278,1,359.999989013672
433,213,74761,1,0,0:0:0:0:
219,279,74932,2,0,B|389:268|389:268,1,150.000005722046
506,365,75278,5,0,0:0:0:0:
203,283,75449,1,0,0:0:0:0:
442,119,75622,2,0,L|439:309,1,179.999994506836
439,298,75794,2,0,L|440:215,1,59.9999981689454
442,119,75967,6,0,B|436:57|380:26|335:31|308:73|308:73|317:106|352:118,1,239.999992675781
512,228,76140,1,0,0:0:0:0:
339,112,76312,1,0,0:0:0:0:
259,339,76485,2,0,P|316:260|442:304,1,239.999992675781
438,297,76829,5,0,0:0:0:0:
339,112,77002,2,0,L|334:243,1,119.999996337891
160,248,77348,6,0,B|120:236|63:185|119:95|187:140|187:140|263:112|300:177|272:271|189:230|181:320,1,450.000017166138
160,248,77692,6,0,B|120:236|63:185|119:95|187:140|187:140|263:112|300:177|272:271|189:230|181:320,1,450.000017166138
366,327,78037,6,0,B|387:300|406:253|372:244|352:276|352:276|302:254|298:301|389:341,1,200
474,240,78210,6,0,B|452:213|433:166|467:157|487:189|487:189|537:167|541:214|450:254,1,200
328,171,78382,6,0,B|349:144|368:97|334:88|314:120|314:120|264:98|260:145|351:185,1,200
436,84,78555,6,0,B|414:57|395:10|429:1|449:33|449:33|499:11|503:58|412:98,1,200
170,51,78727,6,0,B|105:2|70:120|144:103|176:136|176:136|194:101|285:113|227:-23|169:41|170:58,1,333.333333333333
170,51,78813,2,0,B|72:-22|19:154|130:129|179:178|179:178|206:126|342:144|255:-60|168:36|170:61,1,500
170,51,78899,2,0,B|44:-43|-22:183|119:151|181:214|181:214|216:147|391:170|279:-91|168:31|170:64,1,666.666666666667
180,215,79071,6,0,L|78:226,1,100
0,98,79243,2,0,L|102:109,1,100
364,222,79415,6,0,B|343:195|324:148|358:139|378:171|378:171|428:149|432:196|341:236,1,200
285,375,79588,6,0,B|264:348|245:301|279:292|299:324|299:324|349:302|353:349|262:389,1,200
180,215,79760,6,0,B|159:188|140:141|174:132|194:164|194:164|244:142|248:189|157:229,1,200
101,368,79933,6,0,B|80:341|61:294|95:285|115:317|115:317|165:295|169:342|78:382,1,200
80,130,80105,6,0,B|102:122|218:79|128:-24|66:17|66:17|0:-12|-71:80|70:162,1,450.000017166138
80,130,80449,6,0,B|102:122|218:79|128:-24|66:17|66:17|0:-12|-71:80|70:162,1,450.000017166138
410,211,80794,6,0,B|434:176|496:186|505:289|393:346,1,200
426,326,80967,2,0,B|344:296|322:209|380:178|418:217,1,200
306,44,81139,6,0,B|281:9|219:19|210:122|322:179,1,200
290,159,81312,2,0,B|371:129|393:42|335:11|297:50,1,200
168,280,81484,6,0,B|153:184|30:269|-27:151|21:76|86:64|128:94|128:94|130:89|130:89|126:95|126:95|132:87|132:87|128:92|128:92|128:92|128:92|132:91|132:91|128:91|128:91|132:88|132:88|133:91|133:91|135:86|135:86|130:92|130:92|136:87|136:87|132:92|132:92|136:88|136:88|132:92|132:92|137:83|137:83|133:93|133:93|138:84|138:84|130:91|130:91|138:83|132:92|132:92|138:86|138:86|130:93|130:93|138:86|138:86|130:93|130:93|138:86|138:86|138:84|138:84|130:93|130:93|138:86|138:86|130:93|130:93|139:85|139:85|130:92|130:92|137:86|137:86|131:91|131:91|139:86|139:86|130:92|130:92|138:87|138:87|132:91|132:91|139:85|139:85|129:92|129:92|139:84|139:84|129:93|129:93|137:85|137:85|132:94|132:94|139:86|139:86|133:93|133:93|139:86|139:86|133:92|133:92|144:80|144:80|131:92|131:92|138:87|138:87|136:90|136:90|138:83|138:83|141:83|141:83|152:65|188:77|206:44|299:103|236:203|177:211|154:226,1,1000
168,280,82001,6,0,B|293:255|257:320|372:296|372:296|449:280|515:196|447:127|387:150|387:150|304:79|195:247|452:357,1,800
416,340,82518,6,0,B|403:368|361:388|361:388|357:415|357:415|354:386|354:386|321:355|314:331,1,200
314,330,82691,2,0,B|294:292|345:264|369:286|369:286|394:273|430:290|446:321|388:389,1,200
168,280,82863,6,0,B|145:273|26:238|109:129|174:166|174:166|237:132|315:219|180:311,1,450.000017166138
168,280,83208,6,0,B|145:273|26:238|109:129|174:166|174:166|237:132|315:219|180:311,1,450.000017166138
361,286,83553,6,0,B|340:259|321:212|355:203|375:235|375:235|425:213|429:260|338:300,1,200
327,129,83725,6,0,B|306:102|287:55|321:46|341:78|341:78|391:56|395:103|304:143,1,200
198,60,83898,6,0,B|219:33|238:-14|204:-23|184:9|184:9|134:-13|130:34|221:74,1,200
45,111,84070,6,0,B|66:84|85:37|51:28|31:60|31:60|-19:38|-23:85|68:125,1,200
187,194,84242,6,0,B|122:145|87:263|161:246|193:279|193:279|211:244|302:256|244:120|186:184|187:201,1,333.333333333333
187,194,84328,2,0,B|89:121|36:297|147:272|196:321|196:321|223:269|359:287|272:83|185:179|187:204,1,500
187,194,84414,2,0,B|61:100|-5:326|136:294|198:357|198:357|233:290|408:313|296:52|185:174|187:207,1,666.666666666667
300,102,84586,6,0,P|337:130|369:181,1,100
429,291,84758,2,0,L|453:159,1,100
431,44,84931,6,0,B|392:7|379:51|431:91|431:91|488:42|460:6|416:49,1,200
300,102,85103,6,0,B|261:65|248:109|300:149|300:149|357:100|329:64|285:107,1,200
171,28,85275,6,0,B|132:-9|119:35|171:75|171:75|228:26|200:-10|156:33,1,200
40,86,85448,6,0,B|1:49|-12:93|40:133|40:133|97:84|69:48|25:91,1,200
193,286,85620,6,0,B|230:268|280:210|212:128|151:182|151:182|72:165|44:235|85:324|161:272|182:360,1,450.000017166138
193,286,85964,6,0,B|230:268|280:210|212:128|151:182|151:182|72:165|44:235|85:324|161:272|182:360,1,450.000017166138,0|0,0:0|0:0,0:0:0:0:
365,294,86309,6,0,B|326:257|313:301|365:341|365:341|422:292|394:256|350:299,1,200
477,203,86482,6,0,B|438:166|425:210|477:250|477:250|534:201|506:165|462:208,1,200
326,136,86654,6,0,B|287:99|274:143|326:183|326:183|383:134|355:98|311:141,1,200
438,45,86827,6,0,B|399:8|386:52|438:92|438:92|495:43|467:7|423:50,1,200
132,178,86999,1,0,0:0:0:0:
99,155,87085,1,0,0:0:0:0:
76,122,87172,1,0,0:0:0:0:
73,83,87258,1,0,0:0:0:0:
91,48,87344,1,0,0:0:0:0:
126,32,87430,1,0,0:0:0:0:
168,42,87516,5,0,0:0:0:0:
225,35,87602,1,0,0:0:0:0:
263,78,87688,1,0,0:0:0:0:
255,136,87774,1,0,0:0:0:0:
213,177,87860,1,0,0:0:0:0:
163,211,87947,1,0,0:0:0:0:
123,255,88033,6,0,B|103:299|114:347|114:347|125:298|183:284,1,175
