osu file format v14

[General]
AudioFilename: audio.mp3
AudioLeadIn: 0
PreviewTime: 64417
Countdown: 0
SampleSet: Normal
StackLeniency: 0.7
Mode: 1
LetterboxInBreaks: 0
WidescreenStoryboard: 1

[Editor]
DistanceSpacing: 1
BeatDivisor: 4
GridSize: 4
TimelineZoom: 1.899999

[Metadata]
Title:Hide Away My Heart
TitleUnicode:Hide Away My Heart
Artist:MaxNRG
ArtistUnicode:MaxNRG
Creator:Chromoxx
Version:Muzukashii
Source:
Tags:midnaait dnb drum and & bass liquicity liquid cut
BeatmapID:1489990
BeatmapSetID:693120

[Difficulty]
HPDrainRate:6
CircleSize:5
OverallDifficulty:5
ApproachRate:5
SliderMultiplier:1.4
SliderTickRate:1

[Events]
//Background and Video events
0,0,"almost out of bgs fuk.jpg",0,0
//Break Periods
//Storyboard Layer 0 (Background)
//Storyboard Layer 1 (Fail)
//Storyboard Layer 2 (Pass)
//Storyboard Layer 3 (Foreground)
//Storyboard Sound Samples

[TimingPoints]
107,344.827586206897,4,1,0,70,1,0
66313,-100,4,1,0,70,0,1
87003,-100,4,1,0,70,0,0
88382,-100,4,1,0,70,0,1
132520,-100,4,1,0,70,0,0

[HitObjects]
268,200,107,5,8,0:0:0:0:
212,280,796,1,8,0:0:0:0:
248,244,1486,1,0,0:0:0:0:
248,244,2175,1,0,0:0:0:0:
248,244,2865,1,8,0:0:0:0:
248,244,3555,1,8,0:0:0:0:
248,244,4244,1,0,0:0:0:0:
248,244,4934,1,0,0:0:0:0:
248,244,5624,1,8,0:0:0:0:
236,220,6313,1,0,0:0:0:0:
236,220,7003,1,8,0:0:0:0:
236,220,7693,1,8,0:0:0:0:
236,220,8382,1,0,0:0:0:0:
236,220,9072,1,8,0:0:0:0:
236,220,9762,1,0,0:0:0:0:
236,220,10451,1,0,0:0:0:0:
236,220,11141,1,8,0:0:0:0:
236,220,11658,1,0,0:0:0:0:
236,220,11831,1,8,0:0:0:0:
252,232,12520,1,8,0:0:0:0:
364,228,13038,1,8,0:0:0:0:
364,228,13210,1,8,0:0:0:0:
364,228,13900,1,0,0:0:0:0:
352,228,14417,1,0,0:0:0:0:
352,228,14589,1,8,0:0:0:0:
352,228,15279,1,0,0:0:0:0:
272,240,15796,1,0,0:0:0:0:
272,240,15969,1,0,0:0:0:0:
272,240,16658,1,8,0:0:0:0:
272,240,17175,1,0,0:0:0:0:
272,240,17348,1,8,0:0:0:0:
272,240,18038,1,8,0:0:0:0:
248,232,18555,1,8,0:0:0:0:
248,232,18727,1,8,0:0:0:0:
248,232,19417,1,0,0:0:0:0:
248,232,19934,1,0,0:0:0:0:
248,232,20107,1,8,0:0:0:0:
392,280,20451,1,0,0:0:0:0:
52,200,20796,2,0,L|112:192,14,35
348,240,22175,1,4,0:0:0:0:
200,176,22520,1,0,0:0:0:0:
200,176,22865,1,8,0:0:0:0:
200,176,23382,1,8,0:0:0:0:
200,176,23727,1,8,0:0:0:0:
308,252,23900,1,8,0:0:0:0:
240,200,24244,1,0,0:0:0:0:
240,200,24934,1,8,0:0:0:0:
344,192,25279,1,0,0:0:0:0:
344,192,25624,1,8,0:0:0:0:
336,184,26141,1,0,0:0:0:0:
336,184,26313,1,0,0:0:0:0:
248,244,26658,1,8,0:0:0:0:
296,188,26831,1,8,0:0:0:0:
264,248,27175,1,0,0:0:0:0:
264,248,27348,1,8,0:0:0:0:
260,248,27693,1,0,0:0:0:0:
220,228,28382,1,8,0:0:0:0:
204,232,28727,1,0,0:0:0:0:
88,208,28900,1,8,0:0:0:0:
176,248,29244,1,0,0:0:0:0:
176,248,29589,1,8,0:0:0:0:
176,248,29934,1,0,0:0:0:0:
176,248,30107,1,8,0:0:0:0:
344,200,30279,1,8,0:0:0:0:
112,200,30451,1,0,0:0:0:0:
328,264,31141,1,8,0:0:0:0:
324,160,31313,1,0,0:0:0:0:
324,160,31486,1,8,0:0:0:0:
240,224,31658,1,8,0:0:0:0:
240,224,31831,1,0,0:0:0:0:
240,224,32175,1,8,0:0:0:0:
240,224,32348,1,0,0:0:0:0:
228,224,32693,1,0,0:0:0:0:
228,224,33038,1,8,0:0:0:0:
228,224,33210,1,0,0:0:0:0:
248,220,33727,1,0,0:0:0:0:
248,220,33900,1,8,0:0:0:0:
252,196,34589,1,0,0:0:0:0:
256,200,35107,1,8,0:0:0:0:
256,200,35279,1,8,0:0:0:0:
224,184,35969,1,0,0:0:0:0:
248,196,36486,1,0,0:0:0:0:
248,196,36658,1,8,0:0:0:0:
200,248,37348,1,0,0:0:0:0:
200,248,37865,1,8,0:0:0:0:
228,240,38038,1,0,0:0:0:0:
300,192,38382,1,0,0:0:0:0:
292,192,38727,1,8,0:0:0:0:
288,192,39244,1,0,0:0:0:0:
192,192,39417,1,8,0:0:0:0:
192,192,40107,1,0,0:0:0:0:
248,184,40624,1,8,0:0:0:0:
248,184,40796,1,8,0:0:0:0:
240,196,41486,1,0,0:0:0:0:
240,196,41658,1,0,0:0:0:0:
240,196,41831,1,0,0:0:0:0:
240,196,42003,1,0,0:0:0:0:
120,160,42175,2,0,L|168:160,6,35
256,192,42865,12,0,43900,0:0:0:0:
360,216,44244,5,8,0:0:0:0:
360,216,44503,1,8,0:0:0:0:
360,216,44934,1,8,0:0:0:0:
332,168,45624,1,0,0:0:0:0:
324,176,45882,1,0,0:0:0:0:
364,260,46313,1,0,0:0:0:0:
348,272,47003,1,8,0:0:0:0:
348,272,47262,1,8,0:0:0:0:
200,136,47693,1,8,0:0:0:0:
264,224,48382,1,0,0:0:0:0:
264,224,48641,1,0,0:0:0:0:
288,224,49072,1,0,0:0:0:0:
296,200,49762,1,8,0:0:0:0:
296,200,49934,1,0,0:0:0:0:
296,200,50107,1,0,0:0:0:0:
296,204,50279,1,8,0:0:0:0:
180,204,50796,1,0,0:0:0:0:
244,164,51141,1,8,0:0:0:0:
244,164,51313,1,8,0:0:0:0:
204,148,51486,1,0,0:0:0:0:
204,148,51658,1,8,0:0:0:0:
204,148,52175,1,0,0:0:0:0:
248,168,52520,1,8,0:0:0:0:
248,168,52693,1,0,0:0:0:0:
264,120,52865,1,0,0:0:0:0:
264,120,53038,1,8,0:0:0:0:
312,224,53555,1,0,0:0:0:0:
312,224,53900,1,8,0:0:0:0:
312,224,54072,1,8,0:0:0:0:
164,224,54244,1,0,0:0:0:0:
164,224,54417,1,8,0:0:0:0:
164,224,54934,1,0,0:0:0:0:
164,224,55279,1,8,0:0:0:0:
164,224,55624,1,8,0:0:0:0:
184,224,56141,1,0,0:0:0:0:
184,224,56313,1,8,0:0:0:0:
184,224,56658,1,0,0:0:0:0:
216,264,57003,1,0,0:0:0:0:
384,208,57520,1,8,0:0:0:0:
384,208,57693,1,8,0:0:0:0:
384,208,58038,1,0,0:0:0:0:
384,208,58382,1,8,0:0:0:0:
384,208,58900,1,0,0:0:0:0:
384,216,59072,1,0,0:0:0:0:
264,168,59417,1,8,0:0:0:0:
264,168,59762,1,0,0:0:0:0:
272,164,60279,1,8,0:0:0:0:
272,164,60451,1,0,0:0:0:0:
296,156,60796,1,4,0:0:0:0:
316,208,61141,1,0,0:0:0:0:
316,208,61313,1,8,0:0:0:0:
288,228,61658,1,0,0:0:0:0:
288,228,61831,1,8,0:0:0:0:
296,216,62175,1,0,0:0:0:0:
292,216,62348,1,8,0:0:0:0:
292,216,62434,1,8,0:0:0:0:
292,216,62520,1,8,0:0:0:0:
292,200,62693,1,0,0:0:0:0:
292,200,62865,1,8,0:0:0:0:
284,164,62951,1,8,0:0:0:0:
284,164,63038,1,8,0:0:0:0:
284,164,63210,1,0,0:0:0:0:
260,272,63555,1,8,0:0:0:0:
244,256,63641,1,8,0:0:0:0:
240,252,63727,1,8,0:0:0:0:
180,188,63900,1,0,0:0:0:0:
180,192,64072,1,8,0:0:0:0:
396,232,65969,1,8,0:0:0:0:
256,248,66313,1,4,0:0:0:0:
256,248,66658,1,4,0:0:0:0:
276,228,67003,1,8,0:0:0:0:
276,228,67175,1,8,0:0:0:0:
216,216,67348,1,0,0:0:0:0:
216,216,67520,1,8,0:0:0:0:
184,120,67865,1,0,0:0:0:0:
192,112,68038,1,8,0:0:0:0:
188,128,68210,1,0,0:0:0:0:
192,132,68382,1,8,0:0:0:0:
192,132,68555,1,8,0:0:0:0:
192,132,68727,1,0,0:0:0:0:
192,132,68900,1,0,0:0:0:0:
388,132,69072,1,12,0:0:0:0:
388,132,69417,1,12,0:0:0:0:
256,192,69762,1,0,0:0:0:0:
332,300,69934,1,0,0:0:0:0:
332,300,70107,1,8,0:0:0:0:
332,300,70279,1,0,0:0:0:0:
332,300,70451,1,8,0:0:0:0:
200,256,70796,1,0,0:0:0:0:
200,256,70969,1,8,0:0:0:0:
200,256,71313,1,0,0:0:0:0:
200,256,71486,1,8,0:0:0:0:
200,256,71658,1,8,0:0:0:0:
208,264,71831,1,4,0:0:0:0:
208,264,72175,1,4,0:0:0:0:
240,172,72520,1,8,0:0:0:0:
240,172,72693,1,0,0:0:0:0:
240,172,72865,1,0,0:0:0:0:
240,172,73038,1,8,0:0:0:0:
240,172,73382,1,8,0:0:0:0:
228,168,73555,1,0,0:0:0:0:
228,168,73727,1,8,0:0:0:0:
172,148,74072,1,0,0:0:0:0:
172,148,74244,1,8,0:0:0:0:
176,160,74417,1,0,0:0:0:0:
176,156,74589,1,12,0:0:0:0:
184,152,74934,1,12,0:0:0:0:
304,208,75279,1,0,0:0:0:0:
304,208,75451,1,0,0:0:0:0:
304,208,75624,1,8,0:0:0:0:
304,208,75796,1,0,0:0:0:0:
368,160,76141,1,0,0:0:0:0:
368,160,76313,1,8,0:0:0:0:
368,160,76486,1,0,0:0:0:0:
312,176,76831,1,0,0:0:0:0:
312,176,77003,1,8,0:0:0:0:
256,208,77348,1,4,0:0:0:0:
256,208,77693,1,4,0:0:0:0:
256,212,78038,1,8,0:0:0:0:
256,212,78210,1,8,0:0:0:0:
256,212,78382,1,0,0:0:0:0:
256,212,78555,1,8,0:0:0:0:
176,192,78900,1,0,0:0:0:0:
176,192,79072,1,8,0:0:0:0:
176,192,79244,1,0,0:0:0:0:
176,192,79417,1,8,0:0:0:0:
112,188,79589,1,8,0:0:0:0:
112,184,79762,1,0,0:0:0:0:
192,172,79934,1,0,0:0:0:0:
184,168,80107,1,12,0:0:0:0:
184,168,80451,1,12,0:0:0:0:
248,152,80796,1,0,0:0:0:0:
224,120,80969,1,0,0:0:0:0:
224,120,81141,1,8,0:0:0:0:
224,120,81313,1,0,0:0:0:0:
224,120,81486,1,8,0:0:0:0:
248,144,81831,1,0,0:0:0:0:
248,144,82003,1,8,0:0:0:0:
344,216,82348,1,0,0:0:0:0:
344,216,82520,1,8,0:0:0:0:
344,216,82693,1,8,0:0:0:0:
328,200,82865,1,4,0:0:0:0:
328,200,83210,1,4,0:0:0:0:
328,200,83555,1,8,0:0:0:0:
328,200,83727,1,0,0:0:0:0:
328,200,83900,1,0,0:0:0:0:
328,200,84072,1,8,0:0:0:0:
328,200,84417,1,8,0:0:0:0:
328,200,84589,1,0,0:0:0:0:
328,200,84762,1,8,0:0:0:0:
244,216,85107,1,0,0:0:0:0:
244,216,85279,1,8,0:0:0:0:
244,216,85451,1,0,0:0:0:0:
200,200,85624,1,12,0:0:0:0:
200,200,85969,1,12,0:0:0:0:
296,184,86313,1,0,0:0:0:0:
296,184,86486,1,0,0:0:0:0:
296,184,86658,1,8,0:0:0:0:
296,184,86831,1,0,0:0:0:0:
48,192,87003,2,0,L|88:196,12,35
324,236,88382,1,4,0:0:0:0:
324,236,88727,1,4,0:0:0:0:
376,156,89072,1,8,0:0:0:0:
376,156,89244,1,8,0:0:0:0:
376,156,89417,1,8,0:0:0:0:
376,156,89589,1,0,0:0:0:0:
376,156,89762,1,8,0:0:0:0:
200,232,89934,1,0,0:0:0:0:
200,232,90107,1,8,0:0:0:0:
200,232,90279,1,8,0:0:0:0:
200,232,90451,1,0,0:0:0:0:
200,232,90624,1,0,0:0:0:0:
200,212,90796,1,8,0:0:0:0:
200,212,90969,1,0,0:0:0:0:
220,216,91141,1,12,0:0:0:0:
220,216,91486,1,4,0:0:0:0:
328,216,91831,1,8,0:0:0:0:
324,208,92003,1,8,0:0:0:0:
320,208,92175,1,0,0:0:0:0:
320,208,92348,1,0,0:0:0:0:
312,208,92520,1,8,0:0:0:0:
312,208,92693,1,0,0:0:0:0:
304,208,92865,1,0,0:0:0:0:
296,200,93038,1,8,0:0:0:0:
296,200,93210,1,8,0:0:0:0:
296,200,93382,1,0,0:0:0:0:
296,200,93555,1,8,0:0:0:0:
296,200,93727,1,8,0:0:0:0:
280,192,93900,1,4,0:0:0:0:
280,192,94244,1,4,0:0:0:0:
280,192,94589,1,8,0:0:0:0:
280,192,94762,1,8,0:0:0:0:
280,192,94934,1,8,0:0:0:0:
280,192,95107,1,8,0:0:0:0:
280,192,95279,1,0,0:0:0:0:
280,192,95451,1,8,0:0:0:0:
160,192,95624,1,0,0:0:0:0:
140,184,95796,1,0,0:0:0:0:
148,220,95969,1,8,0:0:0:0:
232,192,96141,1,0,0:0:0:0:
208,184,96227,1,0,0:0:0:0:
232,192,96313,1,0,0:0:0:0:
208,184,96486,1,0,0:0:0:0:
244,172,96658,1,12,0:0:0:0:
244,172,97003,1,4,0:0:0:0:
288,168,97348,1,8,0:0:0:0:
288,168,97520,1,8,0:0:0:0:
288,168,97693,1,8,0:0:0:0:
288,168,97865,1,8,0:0:0:0:
296,132,98038,1,4,0:0:0:0:
328,244,98555,1,4,0:0:0:0:
160,128,99072,1,12,0:0:0:0:
324,236,99417,1,4,0:0:0:0:
324,236,99762,1,4,0:0:0:0:
376,156,100107,1,8,0:0:0:0:
376,156,100279,1,8,0:0:0:0:
376,156,100452,1,8,0:0:0:0:
376,156,100624,1,0,0:0:0:0:
376,156,100797,1,8,0:0:0:0:
200,232,100969,1,0,0:0:0:0:
200,232,101142,1,8,0:0:0:0:
200,232,101314,1,8,0:0:0:0:
200,232,101486,1,0,0:0:0:0:
200,232,101659,1,0,0:0:0:0:
200,212,101831,1,8,0:0:0:0:
200,212,102004,1,0,0:0:0:0:
220,216,102176,1,12,0:0:0:0:
220,216,102521,1,4,0:0:0:0:
328,216,102866,1,8,0:0:0:0:
324,208,103038,1,8,0:0:0:0:
320,208,103210,1,0,0:0:0:0:
320,208,103383,1,0,0:0:0:0:
312,208,103555,1,8,0:0:0:0:
312,208,103728,1,0,0:0:0:0:
304,208,103900,1,0,0:0:0:0:
296,200,104073,1,8,0:0:0:0:
296,200,104245,1,8,0:0:0:0:
296,200,104417,1,0,0:0:0:0:
296,200,104590,1,8,0:0:0:0:
296,200,104762,1,8,0:0:0:0:
280,192,104935,1,4,0:0:0:0:
280,192,105279,1,4,0:0:0:0:
280,192,105624,1,8,0:0:0:0:
280,192,105797,1,8,0:0:0:0:
280,192,105969,1,8,0:0:0:0:
280,192,106142,1,8,0:0:0:0:
280,192,106314,1,0,0:0:0:0:
280,192,106486,1,8,0:0:0:0:
160,192,106659,1,0,0:0:0:0:
140,184,106831,1,0,0:0:0:0:
148,220,107004,1,8,0:0:0:0:
232,192,107176,1,0,0:0:0:0:
208,184,107262,1,0,0:0:0:0:
232,192,107348,1,0,0:0:0:0:
208,184,107521,1,0,0:0:0:0:
244,172,107693,1,12,0:0:0:0:
244,172,108038,1,4,0:0:0:0:
288,168,108383,1,8,0:0:0:0:
288,168,108555,1,8,0:0:0:0:
288,168,108728,1,8,0:0:0:0:
288,168,108900,1,8,0:0:0:0:
64,176,109072,2,0,L|108:168,8,35
316,216,110452,1,4,0:0:0:0:
316,216,110797,1,4,0:0:0:0:
400,304,111141,1,0,0:0:0:0:
400,304,111313,1,8,0:0:0:0:
400,304,111486,1,8,0:0:0:0:
148,204,111658,1,0,0:0:0:0:
148,204,111831,1,8,0:0:0:0:
148,204,112003,1,8,0:0:0:0:
272,176,112175,1,0,0:0:0:0:
272,176,112348,1,8,0:0:0:0:
272,176,112520,1,8,0:0:0:0:
208,280,112693,1,0,0:0:0:0:
208,280,112865,1,8,0:0:0:0:
208,280,113038,1,0,0:0:0:0:
208,196,113210,1,12,0:0:0:0:
244,208,113555,1,4,0:0:0:0:
372,184,113900,1,8,0:0:0:0:
372,184,114072,1,8,0:0:0:0:
372,184,114244,1,8,0:0:0:0:
372,184,114417,1,8,0:0:0:0:
360,184,114589,1,0,0:0:0:0:
360,184,114762,1,8,0:0:0:0:
156,260,114934,1,0,0:0:0:0:
156,260,115107,1,0,0:0:0:0:
236,220,115279,1,8,0:0:0:0:
236,220,115451,1,8,0:0:0:0:
236,220,115624,1,8,0:0:0:0:
248,216,115969,1,4,0:0:0:0:
248,216,116313,1,4,0:0:0:0:
344,248,116658,1,0,0:0:0:0:
344,248,116831,1,8,0:0:0:0:
344,248,117003,1,8,0:0:0:0:
344,248,117175,1,0,0:0:0:0:
200,244,117348,1,8,0:0:0:0:
344,248,117520,1,8,0:0:0:0:
252,316,117693,1,0,0:0:0:0:
252,316,117865,1,8,0:0:0:0:
252,316,118038,1,8,0:0:0:0:
160,252,118210,1,0,0:0:0:0:
160,252,118296,1,0,0:0:0:0:
136,240,118382,1,0,0:0:0:0:
136,240,118555,1,0,0:0:0:0:
164,224,118727,1,12,0:0:0:0:
164,224,119072,1,4,0:0:0:0:
280,212,119417,1,8,0:0:0:0:
280,212,119589,1,8,0:0:0:0:
280,212,119762,1,8,0:0:0:0:
280,212,119934,1,8,0:0:0:0:
332,208,120107,1,4,0:0:0:0:
332,208,120624,1,4,0:0:0:0:
332,208,121141,1,12,0:0:0:0:
332,208,121486,1,4,0:0:0:0:
332,208,121831,1,4,0:0:0:0:
272,248,122175,1,0,0:0:0:0:
272,248,122348,1,8,0:0:0:0:
272,248,122520,1,8,0:0:0:0:
272,248,122693,1,0,0:0:0:0:
272,248,122865,1,8,0:0:0:0:
272,248,123038,1,8,0:0:0:0:
248,240,123210,1,0,0:0:0:0:
248,240,123382,1,8,0:0:0:0:
248,240,123555,1,8,0:0:0:0:
264,140,123727,1,0,0:0:0:0:
264,140,123900,1,8,0:0:0:0:
264,140,124072,1,0,0:0:0:0:
264,140,124244,1,12,0:0:0:0:
264,140,124589,1,4,0:0:0:0:
372,256,124934,1,8,0:0:0:0:
372,256,125107,1,8,0:0:0:0:
372,256,125279,1,8,0:0:0:0:
372,256,125451,1,8,0:0:0:0:
372,256,125624,1,0,0:0:0:0:
372,256,125796,1,8,0:0:0:0:
288,300,125969,1,0,0:0:0:0:
372,256,126141,1,0,0:0:0:0:
356,184,126313,1,8,0:0:0:0:
356,184,126486,1,8,0:0:0:0:
356,184,126658,1,8,0:0:0:0:
300,200,127003,1,4,0:0:0:0:
296,208,127348,1,4,0:0:0:0:
236,268,127693,1,0,0:0:0:0:
236,268,127865,1,8,0:0:0:0:
236,268,128038,1,8,0:0:0:0:
212,252,128210,1,0,0:0:0:0:
144,232,128382,1,8,0:0:0:0:
212,252,128555,1,8,0:0:0:0:
156,228,128727,1,0,0:0:0:0:
156,228,128900,1,8,0:0:0:0:
156,228,129072,1,8,0:0:0:0:
272,200,129244,1,0,0:0:0:0:
232,188,129331,1,0,0:0:0:0:
272,200,129417,1,0,0:0:0:0:
232,188,129589,1,0,0:0:0:0:
224,184,129762,1,12,0:0:0:0:
268,240,130107,1,4,0:0:0:0:
280,256,130451,1,8,0:0:0:0:
280,256,130624,1,8,0:0:0:0:
280,256,130796,1,8,0:0:0:0:
84,192,131141,2,0,L|124:192,12,35
256,200,132520,1,4,0:0:0:0:
