osu file format v14

[General]
AudioFilename: audio.mp3
AudioLeadIn: 0
PreviewTime: 64417
Countdown: 0
SampleSet: Normal
StackLeniency: 0.7
Mode: 1
LetterboxInBreaks: 0
WidescreenStoryboard: 0

[Editor]
DistanceSpacing: 1
BeatDivisor: 4
GridSize: 4
TimelineZoom: 1.899999

[Metadata]
Title:Hide Away My Heart
TitleUnicode:Hide Away My Heart
Artist:MaxNRG
ArtistUnicode:MaxNRG
Creator:Chromoxx
Version:Mid's Oni
Source:
Tags:midnaait dnb drum and & bass liquicity liquid cut
BeatmapID:1470229
BeatmapSetID:693120

[Difficulty]
HPDrainRate:6
CircleSize:5
OverallDifficulty:6
ApproachRate:5
SliderMultiplier:1.4
SliderTickRate:1

[Events]
//Background and Video events
0,0,"almost out of bgs fuk.jpg",0,0
//Break Periods
//Storyboard Layer 0 (Background)
//Storyboard Layer 1 (Fail)
//Storyboard Layer 2 (Pass)
//Storyboard Layer 3 (Foreground)
//Storyboard Sound Samples

[TimingPoints]
107,344.827586206897,4,1,0,70,1,0
66313,-100,4,1,0,70,0,1
87003,-100,4,1,0,70,0,0
88382,-100,4,1,0,70,0,1
132520,-100,4,1,0,70,0,0

[HitObjects]
120,104,107,5,8,0:0:0:0:
120,104,365,1,8,0:0:0:0:
119,104,624,1,0,0:0:0:0:
119,104,796,1,8,0:0:0:0:
118,103,1486,1,8,0:0:0:0:
118,105,1744,1,8,0:0:0:0:
116,104,2003,1,0,0:0:0:0:
116,104,2175,1,8,0:0:0:0:
119,103,2348,1,0,0:0:0:0:
118,102,2434,1,0,0:0:0:0:
117,103,2520,1,0,0:0:0:0:
117,105,2865,1,8,0:0:0:0:
120,103,3124,1,8,0:0:0:0:
117,103,3382,1,0,0:0:0:0:
117,103,3555,1,8,0:0:0:0:
118,104,4244,1,8,0:0:0:0:
120,106,4503,1,8,0:0:0:0:
120,103,4762,1,0,0:0:0:0:
118,104,4934,1,8,0:0:0:0:
118,103,5107,1,0,0:0:0:0:
117,103,5193,1,0,0:0:0:0:
116,106,5279,1,0,0:0:0:0:
120,104,5624,1,8,0:0:0:0:
120,104,5882,1,8,0:0:0:0:
119,104,6141,1,0,0:0:0:0:
119,104,6313,1,8,0:0:0:0:
118,103,7003,1,8,0:0:0:0:
118,105,7262,1,8,0:0:0:0:
116,104,7520,1,0,0:0:0:0:
116,104,7693,1,8,0:0:0:0:
119,103,7865,1,0,0:0:0:0:
118,102,7951,1,0,0:0:0:0:
117,103,8038,1,0,0:0:0:0:
117,105,8382,1,8,0:0:0:0:
120,103,8641,1,8,0:0:0:0:
117,103,8900,1,0,0:0:0:0:
117,103,9072,1,8,0:0:0:0:
118,104,9762,1,8,0:0:0:0:
120,106,10020,1,8,0:0:0:0:
120,103,10279,1,0,0:0:0:0:
118,104,10451,1,8,0:0:0:0:
118,103,10624,1,0,0:0:0:0:
117,103,10710,1,0,0:0:0:0:
116,106,10796,1,0,0:0:0:0:
116,106,11141,1,12,0:0:0:0:
120,106,11313,1,0,0:0:0:0:
120,106,11400,1,8,0:0:0:0:
117,105,11658,1,8,0:0:0:0:
117,105,11831,1,8,0:0:0:0:
119,104,12520,1,8,0:0:0:0:
117,105,12693,1,0,0:0:0:0:
117,105,12779,1,8,0:0:0:0:
119,105,13038,1,0,0:0:0:0:
119,105,13210,1,8,0:0:0:0:
118,102,13382,1,8,0:0:0:0:
117,105,13555,1,0,0:0:0:0:
119,103,13900,1,8,0:0:0:0:
118,104,14072,1,0,0:0:0:0:
118,104,14158,1,8,0:0:0:0:
120,105,14417,1,0,0:0:0:0:
120,105,14589,1,8,0:0:0:0:
119,104,15279,1,8,0:0:0:0:
117,105,15451,1,0,0:0:0:0:
117,105,15538,1,8,0:0:0:0:
119,105,15796,1,0,0:0:0:0:
119,105,15969,1,0,0:0:0:0:
118,102,16141,1,8,0:0:0:0:
117,105,16313,1,0,0:0:0:0:
119,103,16658,1,8,0:0:0:0:
118,104,16831,1,0,0:0:0:0:
118,104,16917,1,8,0:0:0:0:
120,105,17175,1,0,0:0:0:0:
120,105,17348,1,8,0:0:0:0:
119,104,18038,1,8,0:0:0:0:
117,105,18210,1,0,0:0:0:0:
117,105,18296,1,8,0:0:0:0:
119,105,18555,1,0,0:0:0:0:
119,105,18727,1,8,0:0:0:0:
118,102,18900,1,8,0:0:0:0:
117,105,19072,1,0,0:0:0:0:
117,103,19417,1,8,0:0:0:0:
118,103,19589,1,0,0:0:0:0:
117,103,19675,1,8,0:0:0:0:
117,103,19934,1,0,0:0:0:0:
117,103,20107,1,8,0:0:0:0:
117,103,20279,1,8,0:0:0:0:
117,103,20451,1,0,0:0:0:0:
120,103,20624,1,8,0:0:0:0:
119,106,20796,1,8,0:0:0:0:
119,106,20969,1,0,0:0:0:0:
118,105,21055,1,8,0:0:0:0:
118,105,21141,1,0,0:0:0:0:
118,105,21313,1,8,0:0:0:0:
118,105,21400,1,8,0:0:0:0:
118,105,21486,1,0,0:0:0:0:
118,105,21572,1,0,0:0:0:0:
118,105,21658,1,8,0:0:0:0:
118,105,21831,1,0,0:0:0:0:
119,106,22003,1,8,0:0:0:0:
117,104,22175,1,4,0:0:0:0:
119,103,22520,1,8,0:0:0:0:
119,103,22693,1,0,0:0:0:0:
119,103,22865,1,0,0:0:0:0:
117,104,23210,1,0,0:0:0:0:
117,104,23382,1,8,0:0:0:0:
117,104,23727,1,8,0:0:0:0:
116,103,23900,1,8,0:0:0:0:
117,103,24244,1,8,0:0:0:0:
117,103,24417,1,8,0:0:0:0:
118,103,24589,1,0,0:0:0:0:
118,103,24762,1,8,0:0:0:0:
118,103,24934,1,0,0:0:0:0:
120,103,25279,1,8,0:0:0:0:
120,103,25451,1,8,0:0:0:0:
117,103,25624,1,0,0:0:0:0:
117,103,25969,1,8,0:0:0:0:
117,103,26141,1,0,0:0:0:0:
117,103,26313,1,8,0:0:0:0:
118,104,26658,1,0,0:0:0:0:
118,104,26831,1,8,0:0:0:0:
116,104,27175,1,0,0:0:0:0:
116,104,27348,1,8,0:0:0:0:
116,104,27520,1,8,0:0:0:0:
116,105,27693,1,0,0:0:0:0:
118,105,28038,1,8,0:0:0:0:
118,104,28210,1,0,0:0:0:0:
118,104,28382,1,0,0:0:0:0:
117,103,28727,1,8,0:0:0:0:
118,104,28900,1,8,0:0:0:0:
118,104,29244,1,8,0:0:0:0:
118,104,29417,1,0,0:0:0:0:
118,104,29589,1,8,0:0:0:0:
117,105,29934,1,8,0:0:0:0:
117,105,30107,1,8,0:0:0:0:
117,105,30279,1,8,0:0:0:0:
117,105,30451,1,0,0:0:0:0:
118,103,30796,1,8,0:0:0:0:
118,103,30969,1,8,0:0:0:0:
118,103,31141,1,0,0:0:0:0:
118,104,31313,1,0,0:0:0:0:
116,104,31486,1,8,0:0:0:0:
118,104,31658,1,8,0:0:0:0:
120,104,31831,1,0,0:0:0:0:
117,103,32175,1,8,0:0:0:0:
117,103,32348,1,0,0:0:0:0:
118,103,32693,1,0,0:0:0:0:
117,105,33038,1,8,0:0:0:0:
118,105,33210,1,4,0:0:0:0:
118,102,33555,1,8,0:0:0:0:
121,104,33727,1,0,0:0:0:0:
121,105,33900,1,8,0:0:0:0:
118,103,34244,1,0,0:0:0:0:
118,103,34417,1,8,0:0:0:0:
117,103,34762,1,8,0:0:0:0:
117,104,34934,1,0,0:0:0:0:
116,105,35279,1,8,0:0:0:0:
118,103,35451,1,0,0:0:0:0:
118,104,35624,1,8,0:0:0:0:
118,104,35796,1,8,0:0:0:0:
118,104,35969,1,0,0:0:0:0:
118,104,36313,1,8,0:0:0:0:
119,104,36486,1,8,0:0:0:0:
119,104,36658,1,0,0:0:0:0:
118,104,37003,1,0,0:0:0:0:
118,104,37175,1,0,0:0:0:0:
118,104,37348,1,8,0:0:0:0:
117,103,37693,1,8,0:0:0:0:
118,103,37865,1,8,0:0:0:0:
118,103,38210,1,8,0:0:0:0:
118,103,38382,1,8,0:0:0:0:
118,104,38555,1,8,0:0:0:0:
118,104,38727,1,0,0:0:0:0:
118,104,39072,1,8,0:0:0:0:
118,105,39244,1,0,0:0:0:0:
118,105,39417,1,8,0:0:0:0:
117,103,39762,1,8,0:0:0:0:
117,103,39934,1,8,0:0:0:0:
116,104,40279,1,8,0:0:0:0:
117,103,40451,1,0,0:0:0:0:
120,103,40624,1,8,0:0:0:0:
117,103,40969,1,0,0:0:0:0:
117,103,41141,1,8,0:0:0:0:
117,103,41313,1,8,0:0:0:0:
117,104,41486,1,0,0:0:0:0:
117,104,41831,1,8,0:0:0:0:
118,104,42003,1,0,0:0:0:0:
119,104,42175,1,0,0:0:0:0:
118,104,42262,1,0,0:0:0:0:
118,104,42348,1,8,0:0:0:0:
118,103,42434,1,8,0:0:0:0:
118,103,42520,1,0,0:0:0:0:
117,104,42607,1,0,0:0:0:0:
117,104,42693,1,8,0:0:0:0:
117,104,42779,1,8,0:0:0:0:
117,103,42865,1,0,0:0:0:0:
117,103,43210,1,8,0:0:0:0:
117,103,43382,1,0,0:0:0:0:
117,103,43727,1,0,0:0:0:0:
117,103,44072,1,8,0:0:0:0:
117,103,44244,1,4,0:0:0:0:
118,102,44503,1,0,0:0:0:0:
117,103,44762,1,0,0:0:0:0:
117,103,44934,1,8,0:0:0:0:
117,103,45279,1,0,0:0:0:0:
117,104,45624,1,8,0:0:0:0:
117,104,45882,1,8,0:0:0:0:
117,104,46141,1,0,0:0:0:0:
117,104,46313,1,8,0:0:0:0:
117,104,46486,1,0,0:0:0:0:
119,103,46572,1,0,0:0:0:0:
119,103,46658,1,0,0:0:0:0:
117,103,47003,1,0,0:0:0:0:
117,104,47262,1,0,0:0:0:0:
117,103,47520,1,0,0:0:0:0:
117,103,47693,1,8,0:0:0:0:
117,103,48038,1,0,0:0:0:0:
117,104,48382,1,8,0:0:0:0:
117,104,48641,1,8,0:0:0:0:
117,104,48900,1,0,0:0:0:0:
117,104,49072,1,8,0:0:0:0:
117,104,49244,1,0,0:0:0:0:
119,103,49331,1,0,0:0:0:0:
119,103,49417,1,0,0:0:0:0:
119,105,49762,1,0,0:0:0:0:
117,105,50020,1,0,0:0:0:0:
118,102,50279,1,0,0:0:0:0:
118,102,50451,1,8,0:0:0:0:
117,103,50796,1,0,0:0:0:0:
117,103,51141,1,8,0:0:0:0:
118,105,51400,1,8,0:0:0:0:
119,105,51658,1,0,0:0:0:0:
120,104,51831,1,8,0:0:0:0:
120,104,52003,1,0,0:0:0:0:
120,104,52089,1,0,0:0:0:0:
120,104,52175,1,0,0:0:0:0:
119,105,52520,1,0,0:0:0:0:
117,105,52779,1,0,0:0:0:0:
118,102,53038,1,0,0:0:0:0:
118,102,53210,1,8,0:0:0:0:
117,103,53555,1,0,0:0:0:0:
117,103,53900,1,8,0:0:0:0:
118,105,54158,1,8,0:0:0:0:
119,105,54417,1,0,0:0:0:0:
120,104,54589,1,8,0:0:0:0:
120,104,54762,1,0,0:0:0:0:
120,104,54848,1,0,0:0:0:0:
120,104,54934,1,0,0:0:0:0:
120,104,55279,1,0,0:0:0:0:
117,103,55624,1,8,0:0:0:0:
117,104,56141,1,0,0:0:0:0:
117,104,56313,1,8,0:0:0:0:
118,103,56658,1,0,0:0:0:0:
118,103,57003,1,8,0:0:0:0:
118,104,57520,1,0,0:0:0:0:
118,104,57693,1,8,0:0:0:0:
118,104,58038,1,0,0:0:0:0:
118,104,58382,1,8,0:0:0:0:
118,104,58900,1,0,0:0:0:0:
118,104,59072,1,8,0:0:0:0:
117,104,59417,1,8,0:0:0:0:
117,104,59762,1,8,0:0:0:0:
117,105,60279,1,0,0:0:0:0:
117,105,60451,1,8,0:0:0:0:
118,105,60796,1,12,0:0:0:0:
118,105,61141,1,0,0:0:0:0:
119,105,61313,1,12,0:0:0:0:
119,105,61658,1,0,0:0:0:0:
119,105,61831,1,12,0:0:0:0:
119,104,62175,1,12,0:0:0:0:
118,104,62348,1,0,0:0:0:0:
118,104,62434,1,0,0:0:0:0:
118,105,62520,1,0,0:0:0:0:
117,105,62693,1,12,0:0:0:0:
117,105,62865,1,0,0:0:0:0:
117,105,62951,1,0,0:0:0:0:
117,105,63038,1,0,0:0:0:0:
119,104,63210,1,12,0:0:0:0:
118,104,63382,1,0,0:0:0:0:
119,104,63555,1,12,0:0:0:0:
117,103,63727,1,0,0:0:0:0:
117,103,63813,1,0,0:0:0:0:
117,103,63900,1,0,0:0:0:0:
117,103,63986,1,0,0:0:0:0:
117,103,64072,1,8,0:0:0:0:
118,105,65969,1,12,0:0:0:0:
117,102,66313,1,4,0:0:0:0:
116,103,66658,1,4,0:0:0:0:
117,103,67003,1,0,0:0:0:0:
116,103,67175,1,0,0:0:0:0:
117,103,67348,1,8,0:0:0:0:
117,103,67520,1,8,0:0:0:0:
117,103,67693,1,0,0:0:0:0:
117,103,67779,1,8,0:0:0:0:
117,103,67865,1,0,0:0:0:0:
117,103,68038,1,8,0:0:0:0:
118,104,68210,1,8,0:0:0:0:
118,104,68296,1,8,0:0:0:0:
118,103,68382,1,0,0:0:0:0:
118,104,68555,1,0,0:0:0:0:
118,104,68641,1,0,0:0:0:0:
117,104,68727,1,8,0:0:0:0:
116,104,68813,1,8,0:0:0:0:
116,104,68900,1,0,0:0:0:0:
120,104,69072,1,12,0:0:0:0:
120,104,69417,1,12,0:0:0:0:
118,104,69762,1,0,0:0:0:0:
118,103,69934,1,0,0:0:0:0:
117,103,70107,1,8,0:0:0:0:
119,104,70279,1,0,0:0:0:0:
117,103,70365,1,0,0:0:0:0:
117,103,70451,1,8,0:0:0:0:
116,104,70538,1,8,0:0:0:0:
116,104,70624,1,0,0:0:0:0:
116,104,70796,1,8,0:0:0:0:
117,104,70969,1,0,0:0:0:0:
117,104,71055,1,8,0:0:0:0:
117,104,71141,1,0,0:0:0:0:
117,104,71313,1,0,0:0:0:0:
117,104,71400,1,0,0:0:0:0:
117,104,71486,1,8,0:0:0:0:
117,104,71572,1,0,0:0:0:0:
117,104,71658,1,8,0:0:0:0:
117,104,71831,1,4,0:0:0:0:
117,104,72175,1,4,0:0:0:0:
119,103,72520,1,0,0:0:0:0:
117,103,72693,1,0,0:0:0:0:
117,103,72865,1,8,0:0:0:0:
118,103,72951,1,8,0:0:0:0:
118,103,73038,1,8,0:0:0:0:
117,104,73210,1,0,0:0:0:0:
118,103,73382,1,0,0:0:0:0:
119,103,73469,1,0,0:0:0:0:
120,103,73555,1,8,0:0:0:0:
119,104,73727,1,0,0:0:0:0:
118,104,73900,1,8,0:0:0:0:
118,105,74072,1,0,0:0:0:0:
118,105,74158,1,0,0:0:0:0:
118,105,74244,1,8,0:0:0:0:
118,105,74331,1,8,0:0:0:0:
118,105,74417,1,0,0:0:0:0:
118,105,74589,1,12,0:0:0:0:
118,105,74934,1,12,0:0:0:0:
118,103,75279,1,0,0:0:0:0:
117,103,75451,1,0,0:0:0:0:
117,103,75624,1,8,0:0:0:0:
118,103,75796,1,4,0:0:0:0:
118,103,76141,1,8,0:0:0:0:
118,103,76313,1,8,0:0:0:0:
118,103,76486,1,4,0:0:0:0:
118,103,76831,1,0,0:0:0:0:
118,103,77003,1,12,0:0:0:0:
118,103,77348,1,4,0:0:0:0:
118,103,77693,1,4,0:0:0:0:
117,103,78038,1,0,0:0:0:0:
120,104,78124,1,0,0:0:0:0:
116,103,78210,1,0,0:0:0:0:
117,103,78382,1,8,0:0:0:0:
117,103,78555,1,8,0:0:0:0:
117,103,78641,1,8,0:0:0:0:
117,103,78727,1,0,0:0:0:0:
117,103,78813,1,8,0:0:0:0:
117,103,78900,1,0,0:0:0:0:
117,103,79072,1,8,0:0:0:0:
118,104,79244,1,0,0:0:0:0:
118,104,79331,1,0,0:0:0:0:
118,103,79417,1,8,0:0:0:0:
120,103,79503,1,0,0:0:0:0:
118,104,79589,1,8,0:0:0:0:
118,104,79675,1,8,0:0:0:0:
117,104,79762,1,0,0:0:0:0:
116,104,79934,1,0,0:0:0:0:
120,104,80107,1,12,0:0:0:0:
120,104,80451,1,12,0:0:0:0:
118,104,80796,1,0,0:0:0:0:
119,103,80882,1,8,0:0:0:0:
118,103,80969,1,0,0:0:0:0:
117,103,81141,1,8,0:0:0:0:
119,104,81313,1,0,0:0:0:0:
117,103,81486,1,8,0:0:0:0:
116,104,81572,1,8,0:0:0:0:
116,104,81658,1,0,0:0:0:0:
116,104,81831,1,8,0:0:0:0:
117,104,82003,1,0,0:0:0:0:
117,104,82089,1,8,0:0:0:0:
117,104,82175,1,0,0:0:0:0:
117,104,82348,1,8,0:0:0:0:
117,104,82434,1,0,0:0:0:0:
117,104,82520,1,8,0:0:0:0:
172,132,82607,1,0,0:0:0:0:
172,132,82693,1,8,0:0:0:0:
172,132,82865,1,4,0:0:0:0:
172,132,83210,1,4,0:0:0:0:
172,131,83555,1,0,0:0:0:0:
172,131,83641,1,0,0:0:0:0:
172,131,83727,1,0,0:0:0:0:
172,131,83900,1,8,0:0:0:0:
172,131,84072,1,8,0:0:0:0:
172,131,84158,1,8,0:0:0:0:
172,131,84244,1,0,0:0:0:0:
172,131,84417,1,0,0:0:0:0:
172,131,84589,1,8,0:0:0:0:
172,131,84762,1,0,0:0:0:0:
119,103,84848,1,0,0:0:0:0:
118,104,84934,1,8,0:0:0:0:
119,105,85020,1,8,0:0:0:0:
118,105,85107,1,0,0:0:0:0:
118,105,85193,1,0,0:0:0:0:
118,105,85279,1,8,0:0:0:0:
117,106,85451,1,0,0:0:0:0:
118,105,85624,1,12,0:0:0:0:
118,105,85969,1,12,0:0:0:0:
118,103,86313,1,8,0:0:0:0:
118,104,86400,1,8,0:0:0:0:
118,104,86486,1,0,0:0:0:0:
120,104,86658,1,8,0:0:0:0:
119,103,86831,1,0,0:0:0:0:
121,104,87003,1,8,0:0:0:0:
121,104,87089,1,8,0:0:0:0:
120,104,87175,1,0,0:0:0:0:
118,105,87262,1,0,0:0:0:0:
118,105,87348,1,0,0:0:0:0:
118,105,87434,1,0,0:0:0:0:
118,105,87520,1,8,0:0:0:0:
118,105,87607,1,8,0:0:0:0:
118,105,87693,1,8,0:0:0:0:
118,105,87779,1,8,0:0:0:0:
118,104,87865,1,0,0:0:0:0:
118,104,87951,1,0,0:0:0:0:
118,106,88038,1,8,0:0:0:0:
118,104,88382,1,4,0:0:0:0:
118,104,88727,1,4,0:0:0:0:
119,105,89072,1,8,0:0:0:0:
119,105,89244,1,0,0:0:0:0:
120,103,89417,1,8,0:0:0:0:
118,103,89589,1,8,0:0:0:0:
117,103,89675,1,8,0:0:0:0:
118,103,89762,1,0,0:0:0:0:
117,103,89934,1,0,0:0:0:0:
117,103,90107,1,8,0:0:0:0:
117,103,90279,1,8,0:0:0:0:
120,105,90451,1,0,0:0:0:0:
119,103,90624,1,0,0:0:0:0:
117,103,90710,1,0,0:0:0:0:
119,103,90796,1,8,0:0:0:0:
118,104,90969,1,0,0:0:0:0:
118,105,91141,1,12,0:0:0:0:
118,105,91486,1,4,0:0:0:0:
119,105,91831,1,8,0:0:0:0:
119,105,92003,1,8,0:0:0:0:
120,103,92175,1,8,0:0:0:0:
118,103,92348,1,0,0:0:0:0:
117,103,92434,1,0,0:0:0:0:
119,105,92520,1,8,0:0:0:0:
119,105,92693,1,0,0:0:0:0:
120,105,92865,1,8,0:0:0:0:
120,105,93038,1,8,0:0:0:0:
117,103,93124,1,8,0:0:0:0:
120,103,93210,1,0,0:0:0:0:
118,104,93382,1,0,0:0:0:0:
118,104,93555,1,8,0:0:0:0:
118,104,93727,1,8,0:0:0:0:
117,104,93900,1,4,0:0:0:0:
117,104,94244,1,4,0:0:0:0:
119,105,94589,1,8,0:0:0:0:
119,105,94762,1,8,0:0:0:0:
119,105,94934,1,8,0:0:0:0:
119,105,95107,1,8,0:0:0:0:
119,103,95279,1,0,0:0:0:0:
120,104,95451,1,8,0:0:0:0:
120,104,95624,1,8,0:0:0:0:
118,102,95796,1,0,0:0:0:0:
118,105,95969,1,8,0:0:0:0:
117,103,96055,1,8,0:0:0:0:
117,105,96141,1,0,0:0:0:0:
117,105,96227,1,0,0:0:0:0:
117,105,96313,1,8,0:0:0:0:
117,103,96486,1,0,0:0:0:0:
119,103,96658,1,12,0:0:0:0:
119,103,97003,1,4,0:0:0:0:
116,105,97348,1,8,0:0:0:0:
118,105,97520,1,8,0:0:0:0:
118,105,97693,1,8,0:0:0:0:
118,105,97865,1,8,0:0:0:0:
119,104,98038,1,0,0:0:0:0:
119,104,98124,1,0,0:0:0:0:
119,104,98210,1,0,0:0:0:0:
119,104,98296,1,0,0:0:0:0:
118,102,98382,1,8,0:0:0:0:
118,105,98555,1,0,0:0:0:0:
117,103,98641,1,0,0:0:0:0:
118,105,98727,1,8,0:0:0:0:
118,105,98813,1,8,0:0:0:0:
118,105,98900,1,8,0:0:0:0:
117,104,99072,1,0,0:0:0:0:
119,103,99158,1,8,0:0:0:0:
119,103,99244,1,8,0:0:0:0:
120,103,99417,1,4,0:0:0:0:
118,104,99762,1,4,0:0:0:0:
119,106,100107,1,8,0:0:0:0:
119,106,100279,1,0,0:0:0:0:
119,106,100451,1,8,0:0:0:0:
119,106,100624,1,8,0:0:0:0:
128,104,100710,1,8,0:0:0:0:
119,102,100796,1,0,0:0:0:0:
119,102,100969,1,8,0:0:0:0:
118,105,101141,1,8,0:0:0:0:
118,105,101313,1,8,0:0:0:0:
119,103,101486,1,0,0:0:0:0:
118,103,101658,1,0,0:0:0:0:
112,104,101744,1,0,0:0:0:0:
117,103,101831,1,8,0:0:0:0:
117,103,102003,1,0,0:0:0:0:
119,104,102175,1,12,0:0:0:0:
119,104,102520,1,4,0:0:0:0:
118,104,102865,1,8,0:0:0:0:
118,104,103038,1,0,0:0:0:0:
118,104,103210,1,8,0:0:0:0:
118,104,103382,1,8,0:0:0:0:
119,104,103469,1,8,0:0:0:0:
119,103,103555,1,0,0:0:0:0:
119,103,103727,1,0,0:0:0:0:
118,103,103900,1,8,0:0:0:0:
118,106,104072,1,0,0:0:0:0:
132,96,104158,1,0,0:0:0:0:
119,103,104244,1,8,0:0:0:0:
118,104,104417,1,0,0:0:0:0:
121,104,104589,1,8,0:0:0:0:
121,104,104762,1,8,0:0:0:0:
120,104,104934,1,4,0:0:0:0:
120,104,105279,1,4,0:0:0:0:
119,103,105624,1,8,0:0:0:0:
118,105,105796,1,8,0:0:0:0:
118,105,105969,1,8,0:0:0:0:
118,105,106141,1,8,0:0:0:0:
118,105,106313,1,0,0:0:0:0:
119,104,106486,1,8,0:0:0:0:
119,104,106658,1,0,0:0:0:0:
119,104,106831,1,0,0:0:0:0:
119,104,107003,1,8,0:0:0:0:
120,96,107089,1,8,0:0:0:0:
121,103,107175,1,0,0:0:0:0:
117,103,107262,1,0,0:0:0:0:
117,103,107348,1,8,0:0:0:0:
117,103,107520,1,0,0:0:0:0:
117,105,107693,1,12,0:0:0:0:
117,105,108038,1,4,0:0:0:0:
120,105,108382,1,8,0:0:0:0:
120,105,108555,1,0,0:0:0:0:
120,105,108727,1,8,0:0:0:0:
120,105,108900,1,0,0:0:0:0:
118,103,109072,1,8,0:0:0:0:
118,104,109158,1,8,0:0:0:0:
118,104,109244,1,8,0:0:0:0:
117,104,109331,1,8,0:0:0:0:
117,104,109417,1,0,0:0:0:0:
117,104,109589,1,8,0:0:0:0:
118,103,109675,1,8,0:0:0:0:
117,104,109762,1,0,0:0:0:0:
119,103,109848,1,0,0:0:0:0:
119,103,109934,1,8,0:0:0:0:
119,103,110107,1,8,0:0:0:0:
119,103,110451,1,4,0:0:0:0:
119,103,110796,1,4,0:0:0:0:
117,104,111141,1,0,0:0:0:0:
117,104,111227,1,0,0:0:0:0:
117,104,111313,1,0,0:0:0:0:
117,104,111486,1,8,0:0:0:0:
117,104,111658,1,8,0:0:0:0:
117,104,111744,1,8,0:0:0:0:
117,105,111831,1,0,0:0:0:0:
117,104,111917,1,0,0:0:0:0:
117,104,112003,1,0,0:0:0:0:
117,104,112175,1,8,0:0:0:0:
118,104,112348,1,0,0:0:0:0:
118,104,112434,1,0,0:0:0:0:
118,104,112520,1,8,0:0:0:0:
118,104,112693,1,8,0:0:0:0:
118,104,112779,1,0,0:0:0:0:
118,104,112865,1,8,0:0:0:0:
118,104,112951,1,8,0:0:0:0:
118,104,113038,1,0,0:0:0:0:
118,104,113210,1,12,0:0:0:0:
118,104,113555,1,4,0:0:0:0:
121,104,113900,1,8,0:0:0:0:
121,104,114072,1,0,0:0:0:0:
121,104,114244,1,8,0:0:0:0:
121,104,114417,1,8,0:0:0:0:
116,96,114503,1,8,0:0:0:0:
121,104,114589,1,0,0:0:0:0:
121,104,114762,1,8,0:0:0:0:
121,104,114934,1,0,0:0:0:0:
124,92,115020,1,8,0:0:0:0:
121,104,115107,1,0,0:0:0:0:
140,112,115193,1,0,0:0:0:0:
117,103,115279,1,8,0:0:0:0:
118,104,115451,1,8,0:0:0:0:
118,104,115624,1,8,0:0:0:0:
119,105,115969,1,4,0:0:0:0:
119,105,116313,1,4,0:0:0:0:
119,105,116658,1,0,0:0:0:0:
119,105,116831,1,8,0:0:0:0:
119,105,116917,1,8,0:0:0:0:
119,105,117003,1,8,0:0:0:0:
120,103,117175,1,8,0:0:0:0:
119,103,117262,1,8,0:0:0:0:
118,103,117348,1,0,0:0:0:0:
118,104,117434,1,8,0:0:0:0:
118,104,117520,1,8,0:0:0:0:
117,104,117693,1,8,0:0:0:0:
117,104,117865,1,0,0:0:0:0:
117,104,117951,1,8,0:0:0:0:
117,104,118038,1,8,0:0:0:0:
117,104,118210,1,0,0:0:0:0:
117,104,118296,1,0,0:0:0:0:
117,103,118382,1,8,0:0:0:0:
117,103,118469,1,8,0:0:0:0:
117,103,118555,1,8,0:0:0:0:
117,104,118727,1,12,0:0:0:0:
117,104,119072,1,4,0:0:0:0:
118,105,119244,1,8,0:0:0:0:
118,105,119417,1,8,0:0:0:0:
117,105,119589,1,0,0:0:0:0:
119,103,119762,1,8,0:0:0:0:
118,105,119934,1,8,0:0:0:0:
120,104,120107,1,4,0:0:0:0:
119,104,120451,1,8,0:0:0:0:
120,104,120624,1,4,0:0:0:0:
119,104,120969,1,0,0:0:0:0:
120,104,121141,1,12,0:0:0:0:
119,104,121486,1,4,0:0:0:0:
119,104,121831,1,4,0:0:0:0:
117,104,122175,1,0,0:0:0:0:
120,96,122262,1,0,0:0:0:0:
117,104,122348,1,0,0:0:0:0:
117,104,122434,1,0,0:0:0:0:
117,104,122520,1,8,0:0:0:0:
117,104,122693,1,8,0:0:0:0:
117,105,122865,1,0,0:0:0:0:
117,104,122951,1,8,0:0:0:0:
117,104,123038,1,0,0:0:0:0:
117,104,123210,1,8,0:0:0:0:
117,104,123296,1,8,0:0:0:0:
118,104,123382,1,0,0:0:0:0:
118,104,123469,1,0,0:0:0:0:
118,104,123555,1,8,0:0:0:0:
118,104,123727,1,8,0:0:0:0:
118,104,123813,1,0,0:0:0:0:
118,104,123900,1,8,0:0:0:0:
118,104,123986,1,8,0:0:0:0:
118,104,124072,1,0,0:0:0:0:
118,104,124244,1,12,0:0:0:0:
118,104,124589,1,4,0:0:0:0:
121,104,124934,1,8,0:0:0:0:
121,104,125107,1,0,0:0:0:0:
121,104,125279,1,8,0:0:0:0:
121,104,125451,1,8,0:0:0:0:
128,100,125538,1,8,0:0:0:0:
121,104,125624,1,0,0:0:0:0:
121,104,125796,1,8,0:0:0:0:
121,104,125969,1,0,0:0:0:0:
121,104,126141,1,0,0:0:0:0:
136,104,126227,1,0,0:0:0:0:
117,103,126313,1,8,0:0:0:0:
132,96,126400,1,8,0:0:0:0:
118,104,126486,1,0,0:0:0:0:
132,96,126572,1,0,0:0:0:0:
118,104,126658,1,8,0:0:0:0:
119,105,127003,1,4,0:0:0:0:
119,105,127348,1,4,0:0:0:0:
119,105,127693,1,8,0:0:0:0:
119,105,127779,1,8,0:0:0:0:
119,105,127865,1,0,0:0:0:0:
119,105,127951,1,0,0:0:0:0:
119,105,128038,1,8,0:0:0:0:
120,103,128210,1,8,0:0:0:0:
118,104,128296,1,8,0:0:0:0:
118,103,128382,1,0,0:0:0:0:
118,104,128555,1,8,0:0:0:0:
117,104,128727,1,8,0:0:0:0:
117,104,128813,1,0,0:0:0:0:
117,104,128900,1,8,0:0:0:0:
117,104,128986,1,8,0:0:0:0:
117,104,129072,1,0,0:0:0:0:
117,104,129244,1,0,0:0:0:0:
117,104,129331,1,0,0:0:0:0:
117,103,129417,1,8,0:0:0:0:
117,103,129503,1,0,0:0:0:0:
117,103,129589,1,8,0:0:0:0:
117,104,129762,1,12,0:0:0:0:
119,103,130107,1,4,0:0:0:0:
119,103,130279,1,8,0:0:0:0:
120,105,130451,1,8,0:0:0:0:
120,105,130624,1,0,0:0:0:0:
120,105,130796,1,8,0:0:0:0:
120,105,130969,1,0,0:0:0:0:
121,105,131141,1,8,0:0:0:0:
124,84,131227,1,0,0:0:0:0:
119,106,131313,1,8,0:0:0:0:
121,105,131400,1,8,0:0:0:0:
121,105,131486,1,0,0:0:0:0:
132,96,131658,1,0,0:0:0:0:
132,96,131744,1,8,0:0:0:0:
119,106,131831,1,0,0:0:0:0:
117,105,131917,1,8,0:0:0:0:
117,103,132003,1,0,0:0:0:0:
120,96,132089,1,0,0:0:0:0:
117,103,132175,1,8,0:0:0:0:
119,104,132520,1,4,0:0:0:0:
