osu file format v14

[General]
AudioFilename: audio.mp3
AudioLeadIn: 0
PreviewTime: 64417
Countdown: 0
SampleSet: Normal
StackLeniency: 0.7
Mode: 1
LetterboxInBreaks: 0
WidescreenStoryboard: 0

[Editor]
Bookmarks: 65969
DistanceSpacing: 1
BeatDivisor: 4
GridSize: 4
TimelineZoom: 1.8

[Metadata]
Title:Hide Away My Heart
TitleUnicode:Hide Away My Heart
Artist:MaxNRG
ArtistUnicode:MaxNRG
Creator:Chromoxx
Version:Refuge
Source:
Tags:midnaait dnb drum and & bass liquicity liquid cut
BeatmapID:1466616
BeatmapSetID:693120

[Difficulty]
HPDrainRate:6
CircleSize:5
OverallDifficulty:7
ApproachRate:5
SliderMultiplier:1.4
SliderTickRate:1

[Events]
//Background and Video events
0,0,"almost out of bgs fuk.jpg",0,0
//Break Periods
//Storyboard Layer 0 (Background)
//Storyboard Layer 1 (Fail)
//Storyboard Layer 2 (Pass)
//Storyboard Layer 3 (Foreground)
//Storyboard Sound Samples

[TimingPoints]
107,344.827586206897,4,1,0,70,1,0
19331,-100,4,1,0,68,0,0
19503,-100,4,1,0,64,0,0
19675,-100,4,1,0,60,0,0
19848,-100,4,1,0,56,0,0
20020,-100,4,1,0,52,0,0
20365,-100,4,1,0,48,0,0
20538,-100,4,1,0,44,0,0
20710,-100,4,1,0,40,0,0
22089,-100,4,1,0,70,0,0
65969,-100,4,1,0,70,0,0
66313,-50,4,1,0,70,0,1
66831,-100,4,1,0,70,0,1
69072,-50,4,1,0,70,0,1
69589,-100,4,1,0,70,0,1
71831,-50,4,1,0,70,0,1
72348,-100,4,1,0,70,0,1
74589,-50,4,1,0,70,0,1
75107,-100,4,1,0,70,0,1
77345,-50,4,1,0,70,0,1
77865,-100,4,1,0,70,0,1
80107,-50,4,1,0,70,0,1
80624,-100,4,1,0,70,0,1
82865,-50,4,1,0,70,0,1
83382,-100,4,1,0,70,0,1
85624,-50,4,1,0,70,0,1
86141,-100,4,1,0,70,0,1
87003,-100,4,1,0,70,0,0
88382,-50,4,1,0,70,0,1
89072,-100,4,1,0,70,0,1
91141,-50,4,1,0,70,0,1
91831,-100,4,1,0,70,0,1
93900,-50,4,1,0,70,0,1
94589,-100,4,1,0,70,0,1
96658,-50,4,1,0,70,0,1
97348,-100,4,1,0,70,0,1
99417,-50,4,1,0,70,0,1
100107,-100,4,1,0,70,0,1
102175,-50,4,1,0,70,0,1
102865,-100,4,1,0,70,0,1
104934,-50,4,1,0,70,0,1
105624,-100,4,1,0,70,0,1
107693,-50,4,1,0,70,0,1
108382,-100,4,1,0,70,0,1
110451,-50,4,1,0,70,0,1
111141,-100,4,1,0,70,0,1
113210,-50,4,1,0,70,0,1
113900,-100,4,1,0,70,0,1
115969,-50,4,1,0,70,0,1
116658,-100,4,1,0,70,0,1
118727,-50,4,1,0,70,0,1
119244,-100,4,1,0,70,0,1
120107,-50,4,1,0,70,0,1
120451,-100,4,1,0,70,0,1
120624,-57.1428571428571,4,1,0,70,0,1
120969,-100,4,1,0,70,0,1
121141,-66.6666666666667,4,1,0,70,0,1
121486,-50,4,1,0,70,0,1
122175,-100,4,1,0,70,0,1
124244,-50,4,1,0,70,0,1
124934,-100,4,1,0,70,0,1
127003,-50,4,1,0,70,0,1
127175,-100,4,1,0,70,0,1
127348,-50,4,1,0,70,0,1
127520,-100,4,1,0,70,0,1
129762,-50,4,1,0,70,0,1
129934,-100,4,1,0,70,0,1
130107,-50,4,1,0,70,0,1
130279,-100,4,1,0,70,0,1
132520,-50,4,1,0,70,0,0

[HitObjects]
333,225,107,5,8,0:0:0:0:
339,194,336,1,0,0:0:0:0:
339,194,365,1,8,0:0:0:0:
275,210,624,1,0,0:0:0:0:
275,210,796,1,8,0:0:0:0:
305,205,1141,1,0,0:0:0:0:
223,257,1486,1,8,0:0:0:0:
137,273,1716,1,8,0:0:0:0:
261,119,1744,1,8,0:0:0:0:
97,203,2003,1,0,0:0:0:0:
136,195,2175,1,8,0:0:0:0:
325,272,2348,1,0,0:0:0:0:
236,311,2434,1,0,0:0:0:0:
169,276,2520,1,0,0:0:0:0:
155,110,2865,1,8,0:0:0:0:
355,256,3095,1,0,0:0:0:0:
355,256,3124,1,8,0:0:0:0:
193,248,3382,1,0,0:0:0:0:
193,248,3555,1,8,0:0:0:0:
193,248,3900,1,0,0:0:0:0:
251,174,4244,1,8,0:0:0:0:
250,193,4474,1,8,0:0:0:0:
335,95,4503,1,8,0:0:0:0:
376,282,4762,1,0,0:0:0:0:
237,192,4934,1,8,0:0:0:0:
218,252,5107,1,0,0:0:0:0:
196,240,5193,1,0,0:0:0:0:
132,89,5279,1,0,0:0:0:0:
333,225,5624,5,8,0:0:0:0:
339,194,5854,1,0,0:0:0:0:
339,194,5882,1,8,0:0:0:0:
275,210,6141,1,0,0:0:0:0:
275,210,6313,1,8,0:0:0:0:
305,205,6658,1,0,0:0:0:0:
223,257,7003,1,8,0:0:0:0:
137,273,7233,1,8,0:0:0:0:
261,119,7262,1,8,0:0:0:0:
97,203,7520,1,0,0:0:0:0:
136,195,7693,1,8,0:0:0:0:
325,272,7865,1,0,0:0:0:0:
236,311,7951,1,0,0:0:0:0:
169,276,8038,1,0,0:0:0:0:
155,110,8382,1,8,0:0:0:0:
355,256,8612,1,0,0:0:0:0:
355,256,8641,1,8,0:0:0:0:
193,248,8900,1,0,0:0:0:0:
193,248,9072,1,8,0:0:0:0:
193,248,9417,1,0,0:0:0:0:
251,174,9762,1,8,0:0:0:0:
250,193,9992,1,8,0:0:0:0:
335,95,10020,1,8,0:0:0:0:
376,282,10279,1,0,0:0:0:0:
237,192,10451,1,8,0:0:0:0:
218,252,10624,1,0,0:0:0:0:
196,240,10710,1,0,0:0:0:0:
132,89,10796,1,0,0:0:0:0:
127,87,11141,1,12,0:0:0:0:
343,37,11313,1,0,0:0:0:0:
343,37,11400,1,8,0:0:0:0:
174,151,11658,1,0,0:0:0:0:
185,150,11687,1,0,0:0:0:0:
190,150,11830,1,8,0:0:0:0:
190,150,11859,1,8,0:0:0:0:
282,214,12175,1,0,0:0:0:0:
282,214,12520,1,8,0:0:0:0:
161,131,12693,1,8,0:0:0:0:
161,131,12779,1,8,0:0:0:0:
313,131,13038,1,0,0:0:0:0:
313,131,13066,1,0,0:0:0:0:
313,131,13210,1,8,0:0:0:0:
313,131,13239,1,8,0:0:0:0:
245,293,13382,1,8,0:0:0:0:
257,260,13411,1,8,0:0:0:0:
171,145,13555,1,0,0:0:0:0:
275,245,13900,1,8,0:0:0:0:
265,209,14072,1,0,0:0:0:0:
238,189,14158,1,8,0:0:0:0:
376,126,14417,1,0,0:0:0:0:
376,126,14446,1,0,0:0:0:0:
376,126,14589,1,8,0:0:0:0:
376,126,14618,1,8,0:0:0:0:
160,110,14934,1,0,0:0:0:0:
282,214,15279,1,8,0:0:0:0:
161,131,15451,1,8,0:0:0:0:
161,131,15538,1,8,0:0:0:0:
313,131,15796,1,0,0:0:0:0:
313,131,15825,1,0,0:0:0:0:
313,131,15969,1,8,0:0:0:0:
313,131,15997,1,8,0:0:0:0:
245,293,16141,1,8,0:0:0:0:
257,260,16170,1,8,0:0:0:0:
171,145,16313,1,0,0:0:0:0:
275,245,16658,1,8,0:0:0:0:
265,209,16831,1,0,0:0:0:0:
238,189,16917,1,8,0:0:0:0:
376,126,17175,1,0,0:0:0:0:
376,126,17204,1,0,0:0:0:0:
376,126,17348,1,8,0:0:0:0:
376,126,17377,1,8,0:0:0:0:
160,110,17693,1,0,0:0:0:0:
282,214,18038,1,8,0:0:0:0:
161,131,18210,1,8,0:0:0:0:
161,131,18296,1,8,0:0:0:0:
313,131,18555,1,0,0:0:0:0:
313,131,18584,1,0,0:0:0:0:
313,131,18727,1,8,0:0:0:0:
313,131,18756,1,8,0:0:0:0:
245,293,18900,1,8,0:0:0:0:
257,260,18928,1,8,0:0:0:0:
171,145,19072,1,0,0:0:0:0:
191,253,19417,1,8,0:0:0:0:
191,253,19589,1,8,0:0:0:0:
191,253,19762,1,8,0:0:0:0:
191,253,19934,1,8,0:0:0:0:
191,253,20107,1,8,0:0:0:0:
191,253,20279,1,8,0:0:0:0:
191,253,20451,1,8,0:0:0:0:
346,236,20624,1,8,0:0:0:0:
309,79,20796,1,8,0:0:0:0:
309,79,20839,1,0,0:0:0:0:
309,79,20882,1,0,0:0:0:0:
309,79,20925,1,8,0:0:0:0:
309,79,20969,1,8,0:0:0:0:
309,79,21012,1,0,0:0:0:0:
309,79,21055,1,0,0:0:0:0:
309,79,21098,1,8,0:0:0:0:
309,79,21141,1,8,0:0:0:0:
309,79,21184,1,0,0:0:0:0:
309,79,21227,1,0,0:0:0:0:
309,79,21270,1,8,0:0:0:0:
309,79,21313,1,8,0:0:0:0:
309,79,21357,1,0,0:0:0:0:
309,79,21400,1,0,0:0:0:0:
309,79,21443,1,8,0:0:0:0:
309,79,21486,1,8,0:0:0:0:
309,79,21529,1,0,0:0:0:0:
309,79,21572,1,0,0:0:0:0:
309,79,21615,1,8,0:0:0:0:
309,79,21658,1,8,0:0:0:0:
309,79,21701,1,0,0:0:0:0:
309,79,21744,1,0,0:0:0:0:
309,79,21788,1,8,0:0:0:0:
309,79,21831,1,8,0:0:0:0:
309,79,21874,1,0,0:0:0:0:
309,79,21917,1,0,0:0:0:0:
309,79,21960,1,8,0:0:0:0:
309,79,22003,1,8,0:0:0:0:
200,202,22175,1,4,0:0:0:0:
302,276,22520,1,8,0:0:0:0:
302,276,22693,1,0,0:0:0:0:
302,276,22865,1,0,0:0:0:0:
156,208,23210,1,8,0:0:0:0:
156,208,23382,1,0,0:0:0:0:
289,132,23555,1,0,0:0:0:0:
156,208,23727,1,8,0:0:0:0:
95,254,23900,1,8,0:0:0:0:
219,269,24072,1,0,0:0:0:0:
153,265,24244,1,8,0:0:0:0:
153,265,24417,1,8,0:0:0:0:
254,229,24589,1,0,0:0:0:0:
254,229,24762,1,8,0:0:0:0:
254,229,24934,1,0,0:0:0:0:
354,229,25279,1,8,0:0:0:0:
354,229,25451,1,8,0:0:0:0:
188,254,25624,1,0,0:0:0:0:
188,254,25969,1,8,0:0:0:0:
188,254,26141,1,0,0:0:0:0:
188,254,26313,1,8,0:0:0:0:
107,181,26486,1,0,0:0:0:0:
225,224,26658,1,0,0:0:0:0:
225,224,26831,1,8,0:0:0:0:
113,170,27003,1,0,0:0:0:0:
113,165,27175,1,8,0:0:0:0:
113,165,27348,1,8,0:0:0:0:
112,164,27520,1,0,0:0:0:0:
126,156,27693,1,8,0:0:0:0:
206,151,28038,1,8,0:0:0:0:
242,221,28210,1,0,0:0:0:0:
242,221,28382,1,8,0:0:0:0:
169,279,28727,1,8,0:0:0:0:
243,213,28900,1,8,0:0:0:0:
244,209,29072,1,0,0:0:0:0:
244,209,29244,1,8,0:0:0:0:
243,213,29417,1,0,0:0:0:0:
232,203,29589,1,8,0:0:0:0:
232,203,29762,1,0,0:0:0:0:
197,142,29934,1,8,0:0:0:0:
197,142,30107,1,8,0:0:0:0:
166,155,30279,1,0,0:0:0:0:
166,155,30451,1,8,0:0:0:0:
262,256,30796,1,0,0:0:0:0:
262,256,30969,1,8,0:0:0:0:
262,256,31141,1,8,0:0:0:0:
242,225,31313,1,0,0:0:0:0:
116,202,31486,1,8,0:0:0:0:
233,196,31658,1,8,0:0:0:0:
351,165,31831,1,0,0:0:0:0:
171,227,32175,1,8,0:0:0:0:
171,227,32348,1,0,0:0:0:0:
224,268,32693,1,0,0:0:0:0:
224,268,32865,1,8,0:0:0:0:
165,127,33038,1,8,0:0:0:0:
250,141,33210,1,4,0:0:0:0:
238,309,33555,1,8,0:0:0:0:
404,168,33727,1,0,0:0:0:0:
404,168,33756,1,0,0:0:0:0:
405,149,33900,1,8,0:0:0:0:
404,146,33928,1,8,0:0:0:0:
210,275,34244,1,8,0:0:0:0:
210,275,34417,1,8,0:0:0:0:
151,185,34589,1,0,0:0:0:0:
203,274,34762,1,8,0:0:0:0:
149,164,34934,1,0,0:0:0:0:
322,199,35107,1,8,0:0:0:0:
322,199,35135,1,8,0:0:0:0:
88,104,35279,1,8,0:0:0:0:
124,97,35308,1,8,0:0:0:0:
254,252,35451,1,0,0:0:0:0:
216,181,35624,1,8,0:0:0:0:
216,181,35796,1,8,0:0:0:0:
216,181,35969,1,0,0:0:0:0:
216,181,36313,1,8,0:0:0:0:
312,204,36486,1,0,0:0:0:0:
312,204,36515,1,0,0:0:0:0:
312,204,36658,1,8,0:0:0:0:
312,204,36687,1,8,0:0:0:0:
206,174,37003,1,0,0:0:0:0:
206,174,37175,1,0,0:0:0:0:
206,173,37348,1,8,0:0:0:0:
167,226,37520,1,0,0:0:0:0:
161,230,37693,1,8,0:0:0:0:
251,242,37865,1,0,0:0:0:0:
251,242,37894,1,0,0:0:0:0:
251,242,38038,1,0,0:0:0:0:
251,242,38066,1,0,0:0:0:0:
227,251,38210,1,8,0:0:0:0:
227,251,38382,1,8,0:0:0:0:
248,218,38555,1,0,0:0:0:0:
247,218,38727,1,8,0:0:0:0:
233,209,39072,1,8,0:0:0:0:
219,150,39244,1,0,0:0:0:0:
219,150,39273,1,0,0:0:0:0:
219,150,39417,1,8,0:0:0:0:
219,150,39446,1,8,0:0:0:0:
157,258,39762,1,0,0:0:0:0:
162,248,39934,1,8,0:0:0:0:
162,248,40107,1,0,0:0:0:0:
115,218,40279,1,8,0:0:0:0:
141,226,40451,1,0,0:0:0:0:
364,241,40624,1,8,0:0:0:0:
364,241,40652,1,8,0:0:0:0:
364,241,40796,1,8,0:0:0:0:
364,241,40825,1,8,0:0:0:0:
179,242,40969,1,0,0:0:0:0:
179,242,41141,1,8,0:0:0:0:
179,242,41313,1,8,0:0:0:0:
193,216,41486,1,0,0:0:0:0:
193,216,41658,1,0,0:0:0:0:
193,216,41831,1,0,0:0:0:0:
267,211,42003,1,0,0:0:0:0:
284,215,42175,1,0,0:0:0:0:
224,169,42233,1,0,0:0:0:0:
224,169,42290,1,0,0:0:0:0:
224,169,42348,1,8,0:0:0:0:
225,243,42434,1,8,0:0:0:0:
264,281,42520,1,0,0:0:0:0:
200,173,42607,1,8,0:0:0:0:
200,173,42693,1,8,0:0:0:0:
201,173,42779,1,8,0:0:0:0:
256,192,42865,12,0,44072,0:0:0:0:
198,267,44244,5,12,0:0:0:0:
222,296,44474,1,0,0:0:0:0:
148,183,44503,1,8,0:0:0:0:
155,253,44762,1,0,0:0:0:0:
155,253,44934,1,8,0:0:0:0:
158,246,45279,1,0,0:0:0:0:
176,196,45624,1,8,0:0:0:0:
176,196,45854,1,8,0:0:0:0:
170,196,45882,1,8,0:0:0:0:
191,200,46141,1,0,0:0:0:0:
190,200,46313,1,8,0:0:0:0:
191,201,46486,1,0,0:0:0:0:
281,231,46572,1,0,0:0:0:0:
281,231,46658,1,0,0:0:0:0:
198,267,47003,5,8,0:0:0:0:
222,296,47233,1,0,0:0:0:0:
148,183,47262,1,8,0:0:0:0:
155,253,47520,1,0,0:0:0:0:
155,253,47693,1,8,0:0:0:0:
158,246,48038,1,0,0:0:0:0:
176,196,48382,1,8,0:0:0:0:
176,196,48612,1,8,0:0:0:0:
170,196,48641,1,8,0:0:0:0:
191,200,48900,1,0,0:0:0:0:
190,200,49072,1,8,0:0:0:0:
191,201,49244,1,0,0:0:0:0:
281,231,49331,1,0,0:0:0:0:
281,231,49417,1,0,0:0:0:0:
299,138,49762,1,8,0:0:0:0:
153,129,49992,1,0,0:0:0:0:
158,127,50020,1,8,0:0:0:0:
212,292,50279,1,0,0:0:0:0:
212,292,50451,1,8,0:0:0:0:
175,251,50624,1,0,0:0:0:0:
175,251,50796,1,0,0:0:0:0:
175,251,50969,1,0,0:0:0:0:
141,234,51141,1,8,0:0:0:0:
276,197,51371,1,8,0:0:0:0:
219,148,51400,1,8,0:0:0:0:
312,145,51658,1,0,0:0:0:0:
380,164,51831,1,8,0:0:0:0:
380,164,52003,1,0,0:0:0:0:
380,164,52089,1,0,0:0:0:0:
380,164,52175,1,0,0:0:0:0:
380,164,52348,1,0,0:0:0:0:
299,138,52520,1,8,0:0:0:0:
153,129,52750,1,0,0:0:0:0:
158,127,52779,1,8,0:0:0:0:
212,292,53038,1,0,0:0:0:0:
212,292,53210,1,8,0:0:0:0:
175,251,53382,1,0,0:0:0:0:
175,251,53555,1,0,0:0:0:0:
175,251,53727,1,0,0:0:0:0:
141,234,53900,1,8,0:0:0:0:
276,197,54129,1,8,0:0:0:0:
219,148,54158,1,8,0:0:0:0:
312,145,54417,1,0,0:0:0:0:
380,164,54589,1,8,0:0:0:0:
380,164,54762,1,0,0:0:0:0:
380,164,54848,1,0,0:0:0:0:
380,164,54934,1,0,0:0:0:0:
380,164,55107,1,0,0:0:0:0:
380,164,55279,1,8,0:0:0:0:
172,266,55624,1,8,0:0:0:0:
190,217,56141,1,0,0:0:0:0:
190,217,56313,1,8,0:0:0:0:
248,246,56658,1,0,0:0:0:0:
248,246,57003,1,8,0:0:0:0:
261,208,57520,1,0,0:0:0:0:
261,208,57693,1,8,0:0:0:0:
261,208,58038,1,8,0:0:0:0:
261,208,58382,1,8,0:0:0:0:
261,208,58900,1,0,0:0:0:0:
210,185,59072,1,8,0:0:0:0:
202,168,59417,1,0,0:0:0:0:
202,168,59762,1,8,0:0:0:0:
195,161,60279,1,0,0:0:0:0:
195,161,60451,1,8,0:0:0:0:
250,132,60796,1,12,0:0:0:0:
250,132,60969,1,0,0:0:0:0:
250,132,61141,1,0,0:0:0:0:
286,123,61313,1,12,0:0:0:0:
282,114,61486,1,0,0:0:0:0:
282,114,61658,1,0,0:0:0:0:
297,115,61831,1,12,0:0:0:0:
278,116,62003,1,0,0:0:0:0:
291,181,62175,1,8,0:0:0:0:
272,184,62262,1,8,0:0:0:0:
252,178,62348,1,0,0:0:0:0:
233,173,62434,1,8,0:0:0:0:
211,157,62520,1,0,0:0:0:0:
202,150,62693,1,8,0:0:0:0:
201,150,62779,1,0,0:0:0:0:
187,126,62865,1,0,0:0:0:0:
193,126,62951,1,8,0:0:0:0:
193,127,63038,1,0,0:0:0:0:
288,208,63210,1,8,0:0:0:0:
262,176,63296,1,8,0:0:0:0:
256,173,63382,1,0,0:0:0:0:
276,167,63555,1,8,0:0:0:0:
195,184,63641,1,0,0:0:0:0:
169,242,63727,1,0,0:0:0:0:
181,231,63813,1,0,0:0:0:0:
153,236,63900,1,0,0:0:0:0:
153,236,63986,1,0,0:0:0:0:
153,236,64072,1,8,0:0:0:0:
205,135,65969,1,12,0:0:0:0:
159,336,66313,1,4,0:0:0:0:
138,259,66658,1,4,0:0:0:0:
270,277,66831,1,8,0:0:0:0:
175,250,66917,1,8,0:0:0:0:
174,227,67003,1,0,0:0:0:0:
134,252,67175,1,0,0:0:0:0:
187,237,67348,1,8,0:0:0:0:
183,257,67520,1,0,0:0:0:0:
176,254,67607,1,0,0:0:0:0:
183,257,67693,1,0,0:0:0:0:
176,254,67779,1,0,0:0:0:0:
177,254,67865,1,8,0:0:0:0:
188,251,68038,1,0,0:0:0:0:
251,174,68210,1,0,0:0:0:0:
246,164,68296,1,0,0:0:0:0:
256,266,68382,1,8,0:0:0:0:
238,225,68555,1,8,0:0:0:0:
221,216,68641,1,8,0:0:0:0:
198,185,68727,1,0,0:0:0:0:
108,183,68813,1,8,0:0:0:0:
108,183,68900,1,0,0:0:0:0:
108,183,68986,1,0,0:0:0:0:
356,209,69072,1,12,0:0:0:0:
356,209,69417,1,12,0:0:0:0:
243,244,69589,1,0,0:0:0:0:
248,221,69675,1,0,0:0:0:0:
244,216,69762,1,8,0:0:0:0:
238,248,69934,1,8,0:0:0:0:
184,256,70107,1,0,0:0:0:0:
198,226,70193,1,0,0:0:0:0:
313,214,70279,1,0,0:0:0:0:
198,226,70451,1,8,0:0:0:0:
125,206,70538,1,0,0:0:0:0:
118,207,70624,1,0,0:0:0:0:
118,207,70796,1,0,0:0:0:0:
149,202,70969,1,8,0:0:0:0:
149,202,71055,1,8,0:0:0:0:
142,198,71141,1,0,0:0:0:0:
142,198,71313,1,8,0:0:0:0:
167,190,71400,1,0,0:0:0:0:
166,190,71486,1,8,0:0:0:0:
167,190,71572,1,8,0:0:0:0:
163,189,71658,1,0,0:0:0:0:
161,188,71744,1,8,0:0:0:0:
160,187,71831,1,4,0:0:0:0:
160,187,72175,1,4,0:0:0:0:
237,244,72348,1,8,0:0:0:0:
281,259,72434,1,8,0:0:0:0:
281,259,72520,1,0,0:0:0:0:
184,263,72693,1,0,0:0:0:0:
189,261,72865,1,8,0:0:0:0:
233,235,73038,1,0,0:0:0:0:
232,232,73124,1,8,0:0:0:0:
173,223,73210,1,8,0:0:0:0:
226,228,73382,1,0,0:0:0:0:
387,244,73555,1,8,0:0:0:0:
294,226,73641,1,8,0:0:0:0:
284,219,73727,1,0,0:0:0:0:
225,206,73900,1,8,0:0:0:0:
209,160,74072,1,0,0:0:0:0:
209,160,74158,1,0,0:0:0:0:
209,160,74244,1,8,0:0:0:0:
209,160,74331,1,8,0:0:0:0:
209,160,74417,1,0,0:0:0:0:
209,160,74503,1,0,0:0:0:0:
209,160,74589,1,12,0:0:0:0:
209,160,74934,1,12,0:0:0:0:
187,304,75107,1,0,0:0:0:0:
203,287,75193,1,0,0:0:0:0:
210,284,75279,1,8,0:0:0:0:
165,258,75451,1,0,0:0:0:0:
170,258,75624,1,8,0:0:0:0:
234,233,75796,1,4,0:0:0:0:
234,233,76141,1,0,0:0:0:0:
234,233,76313,1,8,0:0:0:0:
234,233,76486,1,4,0:0:0:0:
249,232,76831,1,0,0:0:0:0:
258,241,76917,1,0,0:0:0:0:
249,232,77003,1,8,0:0:0:0:
250,232,77348,1,4,0:0:0:0:
249,232,77693,1,4,0:0:0:0:
270,277,77865,1,8,0:0:0:0:
175,250,77951,1,8,0:0:0:0:
174,227,78038,1,0,0:0:0:0:
372,213,78124,1,0,0:0:0:0:
134,252,78210,1,0,0:0:0:0:
187,237,78382,1,8,0:0:0:0:
183,257,78555,1,0,0:0:0:0:
176,254,78641,1,0,0:0:0:0:
183,257,78727,1,0,0:0:0:0:
176,254,78813,1,0,0:0:0:0:
177,254,78900,1,8,0:0:0:0:
188,251,79072,1,0,0:0:0:0:
251,174,79244,1,0,0:0:0:0:
246,164,79331,1,0,0:0:0:0:
256,266,79417,1,8,0:0:0:0:
364,249,79503,1,0,0:0:0:0:
238,225,79589,1,8,0:0:0:0:
221,216,79675,1,8,0:0:0:0:
198,185,79762,1,0,0:0:0:0:
108,183,79848,1,8,0:0:0:0:
108,183,79934,1,0,0:0:0:0:
108,183,80020,1,0,0:0:0:0:
356,209,80107,1,12,0:0:0:0:
356,209,80451,1,12,0:0:0:0:
243,244,80624,1,0,0:0:0:0:
248,221,80710,1,0,0:0:0:0:
244,216,80796,1,8,0:0:0:0:
323,282,80882,1,8,0:0:0:0:
238,248,80969,1,8,0:0:0:0:
184,256,81141,1,0,0:0:0:0:
198,226,81227,1,0,0:0:0:0:
313,214,81313,1,0,0:0:0:0:
198,226,81486,1,8,0:0:0:0:
125,206,81572,1,0,0:0:0:0:
118,207,81658,1,0,0:0:0:0:
118,207,81831,1,0,0:0:0:0:
149,202,82003,1,8,0:0:0:0:
149,202,82089,1,8,0:0:0:0:
142,198,82175,1,0,0:0:0:0:
260,267,82262,1,0,0:0:0:0:
142,198,82348,1,8,0:0:0:0:
167,190,82434,1,0,0:0:0:0:
166,190,82520,1,8,0:0:0:0:
167,190,82607,1,8,0:0:0:0:
163,189,82693,1,0,0:0:0:0:
161,188,82779,1,8,0:0:0:0:
160,187,82865,1,4,0:0:0:0:
160,187,83210,1,4,0:0:0:0:
237,244,83382,1,8,0:0:0:0:
281,259,83469,1,8,0:0:0:0:
281,259,83555,1,0,0:0:0:0:
273,282,83641,1,0,0:0:0:0:
184,263,83727,1,0,0:0:0:0:
189,261,83900,1,8,0:0:0:0:
233,235,84072,1,0,0:0:0:0:
232,232,84158,1,8,0:0:0:0:
173,223,84244,1,8,0:0:0:0:
226,228,84417,1,0,0:0:0:0:
387,244,84589,1,8,0:0:0:0:
294,226,84675,1,8,0:0:0:0:
284,219,84762,1,0,0:0:0:0:
225,206,84934,1,8,0:0:0:0:
303,110,85020,1,0,0:0:0:0:
209,160,85107,1,8,0:0:0:0:
209,160,85193,1,8,0:0:0:0:
209,160,85279,1,0,0:0:0:0:
209,160,85365,1,8,0:0:0:0:
159,56,85451,1,0,0:0:0:0:
209,160,85538,1,0,0:0:0:0:
209,160,85624,1,12,0:0:0:0:
209,160,85969,1,12,0:0:0:0:
187,304,86141,1,0,0:0:0:0:
203,287,86227,1,0,0:0:0:0:
210,284,86313,1,8,0:0:0:0:
248,190,86400,1,8,0:0:0:0:
232,185,86486,1,0,0:0:0:0:
340,206,86658,1,8,0:0:0:0:
289,245,86831,1,0,0:0:0:0:
447,209,87003,1,8,0:0:0:0:
438,205,87089,1,8,0:0:0:0:
341,172,87175,1,8,0:0:0:0:
209,131,87262,1,8,0:0:0:0:
209,131,87348,1,0,0:0:0:0:
209,131,87434,1,0,0:0:0:0:
209,131,87520,1,8,0:0:0:0:
255,112,87563,1,0,0:0:0:0:
255,112,87607,1,8,0:0:0:0:
260,111,87650,1,0,0:0:0:0:
264,110,87693,1,8,0:0:0:0:
265,110,87736,1,0,0:0:0:0:
265,110,87779,1,8,0:0:0:0:
265,111,87822,1,0,0:0:0:0:
229,199,87865,1,0,0:0:0:0:
231,200,87951,1,0,0:0:0:0:
214,55,88038,1,8,0:0:0:0:
252,187,88382,1,4,0:0:0:0:
260,202,88727,1,4,0:0:0:0:
270,121,89072,1,8,0:0:0:0:
270,121,89115,1,0,0:0:0:0:
270,121,89244,1,8,0:0:0:0:
270,121,89288,1,0,0:0:0:0:
364,255,89417,1,8,0:0:0:0:
250,222,89460,1,8,0:0:0:0:
260,265,89589,1,0,0:0:0:0:
194,261,89632,1,0,0:0:0:0:
262,257,89762,1,8,0:0:0:0:
218,246,89805,1,8,0:0:0:0:
174,265,89934,1,8,0:0:0:0:
173,265,89977,1,8,0:0:0:0:
175,260,90107,1,0,0:0:0:0:
175,260,90150,1,8,0:0:0:0:
179,253,90279,1,0,0:0:0:0:
184,177,90322,1,8,0:0:0:0:
336,156,90451,1,0,0:0:0:0:
336,156,90494,1,0,0:0:0:0:
310,236,90624,1,0,0:0:0:0:
310,236,90667,1,0,0:0:0:0:
295,239,90796,1,8,0:0:0:0:
295,239,90839,1,0,0:0:0:0:
233,174,90969,1,8,0:0:0:0:
233,174,91012,1,0,0:0:0:0:
225,140,91141,1,12,0:0:0:0:
225,140,91486,1,4,0:0:0:0:
324,118,91831,1,8,0:0:0:0:
324,118,91874,1,8,0:0:0:0:
324,118,92003,1,8,0:0:0:0:
324,118,92046,1,8,0:0:0:0:
337,252,92175,1,8,0:0:0:0:
337,252,92219,1,8,0:0:0:0:
234,248,92348,1,0,0:0:0:0:
247,236,92391,1,0,0:0:0:0:
314,150,92520,1,8,0:0:0:0:
314,150,92563,1,0,0:0:0:0:
314,150,92693,1,0,0:0:0:0:
314,150,92736,1,8,0:0:0:0:
387,105,92865,1,0,0:0:0:0:
389,110,92908,1,0,0:0:0:0:
390,112,93038,1,0,0:0:0:0:
390,112,93081,1,0,0:0:0:0:
385,276,93210,1,8,0:0:0:0:
277,240,93253,1,0,0:0:0:0:
255,175,93382,1,8,0:0:0:0:
255,175,93425,1,0,0:0:0:0:
255,175,93555,1,8,0:0:0:0:
255,175,93598,1,0,0:0:0:0:
255,175,93727,1,8,0:0:0:0:
255,175,93770,1,8,0:0:0:0:
142,174,93900,1,4,0:0:0:0:
142,174,94244,1,4,0:0:0:0:
314,101,94589,1,8,0:0:0:0:
314,101,94632,1,8,0:0:0:0:
314,101,94762,1,8,0:0:0:0:
314,101,94805,1,8,0:0:0:0:
314,101,94934,1,8,0:0:0:0:
314,101,94977,1,8,0:0:0:0:
317,105,95107,1,8,0:0:0:0:
317,105,95150,1,8,0:0:0:0:
284,260,95279,1,0,0:0:0:0:
300,235,95322,1,0,0:0:0:0:
374,183,95451,1,8,0:0:0:0:
374,183,95494,1,8,0:0:0:0:
374,183,95624,1,0,0:0:0:0:
374,183,95667,1,0,0:0:0:0:
267,290,95796,1,0,0:0:0:0:
267,290,95839,1,0,0:0:0:0:
220,152,95969,1,8,0:0:0:0:
220,152,96012,1,8,0:0:0:0:
163,132,96140,1,0,0:0:0:0:
163,132,96227,1,0,0:0:0:0:
163,132,96313,1,8,0:0:0:0:
148,233,96486,1,0,0:0:0:0:
329,239,96658,1,12,0:0:0:0:
329,239,97003,1,4,0:0:0:0:
134,119,97348,1,8,0:0:0:0:
134,119,97391,1,8,0:0:0:0:
214,119,97520,1,8,0:0:0:0:
214,119,97563,1,8,0:0:0:0:
214,119,97693,1,8,0:0:0:0:
214,119,97736,1,8,0:0:0:0:
214,119,97865,1,8,0:0:0:0:
214,119,97908,1,8,0:0:0:0:
317,167,98038,1,0,0:0:0:0:
317,167,98124,1,0,0:0:0:0:
317,167,98210,1,0,0:0:0:0:
317,167,98296,1,0,0:0:0:0:
263,290,98382,1,8,0:0:0:0:
247,98,98469,1,8,0:0:0:0:
250,141,98555,1,0,0:0:0:0:
152,250,98641,1,0,0:0:0:0:
250,141,98727,1,8,0:0:0:0:
250,141,98813,1,8,0:0:0:0:
250,141,98900,1,8,0:0:0:0:
207,253,98986,1,8,0:0:0:0:
177,213,99072,1,0,0:0:0:0:
312,235,99158,1,8,0:0:0:0:
312,235,99244,1,8,0:0:0:0:
312,235,99331,1,8,0:0:0:0:
375,252,99417,1,4,0:0:0:0:
249,169,99762,1,4,0:0:0:0:
287,85,100107,1,8,0:0:0:0:
287,85,100150,1,0,0:0:0:0:
287,85,100279,1,8,0:0:0:0:
287,85,100322,1,0,0:0:0:0:
287,85,100451,1,8,0:0:0:0:
287,85,100494,1,8,0:0:0:0:
287,85,100624,1,0,0:0:0:0:
287,85,100667,1,0,0:0:0:0:
302,303,100796,1,8,0:0:0:0:
253,289,100839,1,8,0:0:0:0:
302,303,100969,1,8,0:0:0:0:
169,136,101012,1,8,0:0:0:0:
224,129,101141,1,0,0:0:0:0:
224,129,101184,1,8,0:0:0:0:
224,129,101313,1,0,0:0:0:0:
224,129,101357,1,8,0:0:0:0:
323,239,101486,1,0,0:0:0:0:
323,239,101529,1,0,0:0:0:0:
240,247,101658,1,8,0:0:0:0:
240,247,101701,1,8,0:0:0:0:
170,255,101831,1,0,0:0:0:0:
170,255,101874,1,0,0:0:0:0:
170,255,102003,1,0,0:0:0:0:
217,161,102046,1,0,0:0:0:0:
292,180,102175,1,12,0:0:0:0:
292,180,102520,1,4,0:0:0:0:
239,177,102865,1,8,0:0:0:0:
239,177,102908,1,8,0:0:0:0:
239,177,103038,1,8,0:0:0:0:
239,177,103081,1,8,0:0:0:0:
239,177,103210,1,8,0:0:0:0:
239,177,103253,1,8,0:0:0:0:
239,177,103382,1,0,0:0:0:0:
239,177,103425,1,0,0:0:0:0:
316,247,103555,1,8,0:0:0:0:
316,247,103598,1,0,0:0:0:0:
316,247,103727,1,0,0:0:0:0:
316,247,103770,1,8,0:0:0:0:
263,288,103900,1,0,0:0:0:0:
263,288,103943,1,0,0:0:0:0:
253,51,104072,1,0,0:0:0:0:
253,51,104115,1,0,0:0:0:0:
279,226,104244,1,8,0:0:0:0:
204,210,104288,1,0,0:0:0:0:
215,209,104417,1,8,0:0:0:0:
215,203,104460,1,0,0:0:0:0:
410,188,104589,1,8,0:0:0:0:
410,188,104632,1,8,0:0:0:0:
401,186,104762,1,8,0:0:0:0:
401,186,104805,1,8,0:0:0:0:
355,186,104934,1,4,0:0:0:0:
355,186,105279,1,4,0:0:0:0:
305,283,105624,1,8,0:0:0:0:
243,156,105667,1,8,0:0:0:0:
249,154,105796,1,8,0:0:0:0:
249,154,105839,1,8,0:0:0:0:
250,154,105969,1,8,0:0:0:0:
250,154,106012,1,8,0:0:0:0:
251,156,106141,1,8,0:0:0:0:
251,156,106184,1,8,0:0:0:0:
252,159,106313,1,0,0:0:0:0:
252,159,106357,1,0,0:0:0:0:
309,179,106486,1,8,0:0:0:0:
309,179,106529,1,8,0:0:0:0:
309,179,106658,1,0,0:0:0:0:
309,179,106701,1,0,0:0:0:0:
309,179,106831,1,0,0:0:0:0:
309,179,106874,1,0,0:0:0:0:
309,179,107003,1,8,0:0:0:0:
309,179,107046,1,8,0:0:0:0:
419,246,107175,1,0,0:0:0:0:
204,257,107262,1,0,0:0:0:0:
204,257,107348,1,8,0:0:0:0:
204,257,107520,1,0,0:0:0:0:
192,111,107693,1,12,0:0:0:0:
192,111,108038,1,4,0:0:0:0:
369,140,108382,1,8,0:0:0:0:
369,140,108425,1,8,0:0:0:0:
369,140,108555,1,0,0:0:0:0:
369,140,108598,1,0,0:0:0:0:
369,140,108727,1,8,0:0:0:0:
369,140,108900,1,0,0:0:0:0:
235,250,109072,1,8,0:0:0:0:
207,207,109158,1,8,0:0:0:0:
207,207,109244,1,0,0:0:0:0:
153,194,109331,1,0,0:0:0:0:
153,194,109417,1,0,0:0:0:0:
153,194,109503,1,0,0:0:0:0:
153,194,109589,1,0,0:0:0:0:
231,231,109675,1,8,0:0:0:0:
174,213,109762,1,8,0:0:0:0:
284,234,109934,1,0,0:0:0:0:
284,234,110020,1,0,0:0:0:0:
284,234,110107,1,8,0:0:0:0:
313,251,110451,1,4,0:0:0:0:
313,251,110796,1,4,0:0:0:0:
191,216,111141,1,0,0:0:0:0:
191,216,111227,1,0,0:0:0:0:
198,216,111313,1,0,0:0:0:0:
198,216,111400,1,0,0:0:0:0:
191,216,111486,1,8,0:0:0:0:
191,216,111572,1,8,0:0:0:0:
191,216,111658,1,0,0:0:0:0:
198,216,111744,1,0,0:0:0:0:
148,139,111831,1,0,0:0:0:0:
191,216,111917,1,8,0:0:0:0:
191,216,112003,1,8,0:0:0:0:
191,216,112089,1,8,0:0:0:0:
198,216,112175,1,0,0:0:0:0:
198,216,112262,1,0,0:0:0:0:
230,215,112348,1,8,0:0:0:0:
215,216,112434,1,8,0:0:0:0:
215,216,112520,1,8,0:0:0:0:
215,215,112607,1,8,0:0:0:0:
213,214,112693,1,0,0:0:0:0:
212,214,112779,1,8,0:0:0:0:
212,214,112865,1,8,0:0:0:0:
213,214,112951,1,8,0:0:0:0:
213,214,113038,1,8,0:0:0:0:
213,214,113124,1,0,0:0:0:0:
213,214,113210,1,12,0:0:0:0:
215,216,113555,1,4,0:0:0:0:
439,180,113900,1,8,0:0:0:0:
439,180,113943,1,8,0:0:0:0:
439,180,114072,1,8,0:0:0:0:
439,180,114115,1,8,0:0:0:0:
439,180,114244,1,8,0:0:0:0:
439,180,114288,1,8,0:0:0:0:
439,180,114417,1,8,0:0:0:0:
439,180,114460,1,8,0:0:0:0:
439,180,114589,1,0,0:0:0:0:
439,180,114632,1,0,0:0:0:0:
439,180,114762,1,8,0:0:0:0:
439,180,114805,1,8,0:0:0:0:
439,180,114934,1,0,0:0:0:0:
454,194,114977,1,0,0:0:0:0:
454,204,115107,1,0,0:0:0:0:
454,204,115150,1,0,0:0:0:0:
199,234,115279,1,8,0:0:0:0:
216,208,115322,1,8,0:0:0:0:
216,208,115451,1,8,0:0:0:0:
218,202,115494,1,8,0:0:0:0:
229,189,115624,1,0,0:0:0:0:
232,182,115667,1,0,0:0:0:0:
168,135,115796,1,8,0:0:0:0:
281,160,115969,1,4,0:0:0:0:
281,160,116313,1,4,0:0:0:0:
298,137,116658,1,8,0:0:0:0:
304,138,116744,1,8,0:0:0:0:
304,138,116831,1,8,0:0:0:0:
304,138,116917,1,8,0:0:0:0:
304,138,117003,1,0,0:0:0:0:
304,138,117089,1,0,0:0:0:0:
370,245,117175,1,8,0:0:0:0:
278,266,117262,1,8,0:0:0:0:
239,236,117348,1,8,0:0:0:0:
206,218,117434,1,0,0:0:0:0:
206,218,117520,1,0,0:0:0:0:
198,215,117607,1,0,0:0:0:0:
192,212,117693,1,8,0:0:0:0:
187,210,117779,1,8,0:0:0:0:
176,206,117865,1,0,0:0:0:0:
175,206,117951,1,0,0:0:0:0:
176,206,118038,1,0,0:0:0:0:
175,206,118124,1,0,0:0:0:0:
175,206,118210,1,8,0:0:0:0:
174,205,118296,1,0,0:0:0:0:
172,259,118382,1,0,0:0:0:0:
172,259,118469,1,0,0:0:0:0:
172,259,118555,1,0,0:0:0:0:
166,222,118641,1,0,0:0:0:0:
159,220,118727,1,12,0:0:0:0:
163,219,119072,1,4,0:0:0:0:
267,103,119244,1,0,0:0:0:0:
340,200,119288,1,0,0:0:0:0:
267,103,119417,1,8,0:0:0:0:
158,105,119460,1,8,0:0:0:0:
171,98,119589,1,8,0:0:0:0:
183,95,119632,1,8,0:0:0:0:
286,265,119762,1,0,0:0:0:0:
183,95,119805,1,0,0:0:0:0:
251,108,119934,1,0,0:0:0:0:
270,258,119977,1,0,0:0:0:0:
393,219,120107,1,12,0:0:0:0:
285,184,120451,1,0,0:0:0:0:
393,219,120624,1,12,0:0:0:0:
285,184,120969,1,0,0:0:0:0:
383,204,121141,1,12,0:0:0:0:
274,200,121486,1,4,0:0:0:0:
274,200,121831,1,4,0:0:0:0:
191,216,122175,1,0,0:0:0:0:
191,216,122261,1,0,0:0:0:0:
198,216,122347,1,0,0:0:0:0:
198,216,122434,1,0,0:0:0:0:
191,216,122520,1,8,0:0:0:0:
191,216,122606,1,8,0:0:0:0:
191,216,122692,1,0,0:0:0:0:
198,216,122778,1,0,0:0:0:0:
148,139,122865,1,0,0:0:0:0:
191,216,122951,1,8,0:0:0:0:
191,216,123037,1,8,0:0:0:0:
191,216,123123,1,8,0:0:0:0:
198,216,123209,1,0,0:0:0:0:
198,216,123296,1,0,0:0:0:0:
230,215,123382,1,8,0:0:0:0:
215,216,123468,1,8,0:0:0:0:
215,216,123554,1,8,0:0:0:0:
215,215,123641,1,8,0:0:0:0:
213,214,123727,1,0,0:0:0:0:
212,214,123813,1,8,0:0:0:0:
212,214,123899,1,8,0:0:0:0:
213,214,123985,1,8,0:0:0:0:
213,214,124072,1,8,0:0:0:0:
213,214,124158,1,0,0:0:0:0:
213,214,124244,1,12,0:0:0:0:
215,216,124589,1,4,0:0:0:0:
439,180,124934,1,8,0:0:0:0:
439,180,124977,1,8,0:0:0:0:
439,180,125106,1,8,0:0:0:0:
439,180,125149,1,8,0:0:0:0:
439,180,125278,1,8,0:0:0:0:
439,180,125322,1,8,0:0:0:0:
439,180,125451,1,8,0:0:0:0:
439,180,125494,1,8,0:0:0:0:
439,180,125623,1,0,0:0:0:0:
439,180,125666,1,0,0:0:0:0:
439,180,125796,1,8,0:0:0:0:
439,180,125839,1,8,0:0:0:0:
439,180,125968,1,0,0:0:0:0:
454,194,126011,1,0,0:0:0:0:
454,204,126141,1,0,0:0:0:0:
454,204,126184,1,0,0:0:0:0:
199,234,126313,1,8,0:0:0:0:
216,208,126356,1,8,0:0:0:0:
216,208,126485,1,8,0:0:0:0:
218,202,126528,1,8,0:0:0:0:
229,189,126658,1,0,0:0:0:0:
232,182,126701,1,0,0:0:0:0:
168,135,126830,1,8,0:0:0:0:
281,160,127003,1,4,0:0:0:0:
390,262,127175,1,0,0:0:0:0:
281,160,127348,1,4,0:0:0:0:
390,262,127520,1,0,0:0:0:0:
298,137,127692,1,8,0:0:0:0:
304,138,127778,1,8,0:0:0:0:
304,138,127865,1,8,0:0:0:0:
304,138,127951,1,8,0:0:0:0:
304,138,128037,1,0,0:0:0:0:
304,138,128123,1,0,0:0:0:0:
370,245,128209,1,8,0:0:0:0:
278,266,128296,1,8,0:0:0:0:
239,236,128382,1,8,0:0:0:0:
206,218,128468,1,0,0:0:0:0:
206,218,128554,1,0,0:0:0:0:
198,215,128641,1,0,0:0:0:0:
192,212,128727,1,8,0:0:0:0:
187,210,128813,1,8,0:0:0:0:
176,206,128899,1,0,0:0:0:0:
175,206,128985,1,0,0:0:0:0:
176,206,129072,1,0,0:0:0:0:
175,206,129158,1,0,0:0:0:0:
175,206,129244,1,8,0:0:0:0:
174,205,129330,1,0,0:0:0:0:
172,259,129416,1,0,0:0:0:0:
172,259,129503,1,0,0:0:0:0:
172,259,129589,1,0,0:0:0:0:
166,222,129675,1,0,0:0:0:0:
159,220,129762,1,12,0:0:0:0:
295,221,129934,1,0,0:0:0:0:
296,248,130107,1,4,0:0:0:0:
296,248,130279,1,0,0:0:0:0:
380,240,130322,1,0,0:0:0:0:
343,109,130451,1,8,0:0:0:0:
343,109,130494,1,8,0:0:0:0:
343,109,130624,1,0,0:0:0:0:
343,109,130667,1,0,0:0:0:0:
343,109,130796,1,8,0:0:0:0:
343,109,130969,1,0,0:0:0:0:
410,148,131141,1,8,0:0:0:0:
410,148,131227,1,8,0:0:0:0:
284,86,131313,1,8,0:0:0:0:
410,148,131400,1,0,0:0:0:0:
411,152,131486,1,0,0:0:0:0:
411,152,131572,1,0,0:0:0:0:
318,242,131658,1,8,0:0:0:0:
284,86,131744,1,8,0:0:0:0:
284,86,131831,1,8,0:0:0:0:
199,129,131917,1,0,0:0:0:0:
173,241,132003,1,8,0:0:0:0:
133,236,132089,1,8,0:0:0:0:
180,247,132175,1,0,0:0:0:0:
298,208,132520,1,4,0:0:0:0:
