osu file format v14

[General]
AudioFilename: audio.mp3
AudioLeadIn: 0
PreviewTime: 64417
Countdown: 0
SampleSet: Normal
StackLeniency: 0.7
Mode: 1
LetterboxInBreaks: 0
WidescreenStoryboard: 1

[Editor]
DistanceSpacing: 1
BeatDivisor: 4
GridSize: 4
TimelineZoom: 1.299999

[Metadata]
Title:Hide Away My Heart
TitleUnicode:Hide Away My Heart
Artist:MaxNRG
ArtistUnicode:MaxNRG
Creator:Chromoxx
Version:Kantan
Source:
Tags:midnaait dnb drum and & bass liquicity liquid cut
BeatmapID:1490002
BeatmapSetID:693120

[Difficulty]
HPDrainRate:8
CircleSize:5
OverallDifficulty:4
ApproachRate:5
SliderMultiplier:1.4
SliderTickRate:1

[Events]
//Background and Video events
0,0,"almost out of bgs fuk.jpg",0,0
//Break Periods
//Storyboard Layer 0 (Background)
//Storyboard Layer 1 (Fail)
//Storyboard Layer 2 (Pass)
//Storyboard Layer 3 (Foreground)
//Storyboard Sound Samples

[TimingPoints]
107,344.827586206897,4,1,0,70,1,0
66313,-100,4,1,0,70,0,1
87003,-100,4,1,0,70,0,0
88382,-100,4,1,0,70,0,1
132520,-100,4,1,0,70,0,0

[HitObjects]
364,224,107,5,8,0:0:0:0:
348,252,2865,1,0,0:0:0:0:
272,296,5624,1,8,0:0:0:0:
212,228,8382,1,0,0:0:0:0:
232,168,11141,1,8,0:0:0:0:
232,168,12520,1,0,0:0:0:0:
232,168,13900,1,8,0:0:0:0:
232,168,15279,1,0,0:0:0:0:
292,192,16658,1,8,0:0:0:0:
284,196,18038,1,0,0:0:0:0:
284,196,19417,1,8,0:0:0:0:
284,196,20107,1,8,0:0:0:0:
124,144,20796,2,0,L|188:140,12,35
208,180,22175,1,4,0:0:0:0:
176,216,23555,1,8,0:0:0:0:
360,220,24244,1,8,0:0:0:0:
360,220,24589,1,8,0:0:0:0:
360,220,24934,1,0,0:0:0:0:
360,228,26313,1,0,0:0:0:0:
360,228,27003,1,8,0:0:0:0:
360,228,27693,1,0,0:0:0:0:
276,216,29072,1,8,0:0:0:0:
316,216,29762,1,0,0:0:0:0:
316,216,30107,1,0,0:0:0:0:
316,216,30451,1,8,0:0:0:0:
208,256,31831,1,0,0:0:0:0:
208,256,32520,1,8,0:0:0:0:
248,252,33210,1,4,0:0:0:0:
140,264,33900,1,8,0:0:0:0:
240,240,35279,1,8,0:0:0:0:
240,240,35969,1,0,0:0:0:0:
240,240,36658,1,8,0:0:0:0:
236,240,38038,1,0,0:0:0:0:
236,240,38727,1,0,0:0:0:0:
236,240,39417,1,8,0:0:0:0:
240,240,40796,1,8,0:0:0:0:
240,240,41486,1,0,0:0:0:0:
244,232,42175,1,8,0:0:0:0:
256,192,42865,12,8,43900,0:0:0:0:
400,244,44244,5,4,0:0:0:0:
200,240,45624,1,0,0:0:0:0:
200,240,47003,1,0,0:0:0:0:
200,240,48382,1,0,0:0:0:0:
200,240,49762,1,0,0:0:0:0:
212,240,50451,1,0,0:0:0:0:
212,240,51141,1,8,0:0:0:0:
288,216,51831,1,0,0:0:0:0:
212,240,52520,1,8,0:0:0:0:
212,240,53210,1,8,0:0:0:0:
288,240,53900,1,0,0:0:0:0:
288,240,54589,1,8,0:0:0:0:
288,240,55279,1,0,0:0:0:0:
288,196,56313,1,8,0:0:0:0:
288,196,56658,1,0,0:0:0:0:
160,232,57693,1,0,0:0:0:0:
140,216,58038,1,8,0:0:0:0:
140,216,59072,1,8,0:0:0:0:
140,216,59417,1,0,0:0:0:0:
224,292,60451,1,0,0:0:0:0:
264,288,60796,1,12,0:0:0:0:
216,240,62175,1,12,0:0:0:0:
220,192,63555,1,12,0:0:0:0:
220,192,64072,1,12,0:0:0:0:
300,168,66313,1,4,0:0:0:0:
388,208,67003,1,0,0:0:0:0:
232,200,67693,1,8,0:0:0:0:
240,240,68038,1,0,0:0:0:0:
240,240,68382,1,0,0:0:0:0:
276,304,69072,1,12,0:0:0:0:
276,304,70451,1,0,0:0:0:0:
252,272,70969,1,8,0:0:0:0:
240,272,71486,1,8,0:0:0:0:
240,272,71831,1,4,0:0:0:0:
376,292,72520,1,0,0:0:0:0:
296,216,73210,1,8,0:0:0:0:
292,224,73555,1,8,0:0:0:0:
292,220,73900,1,0,0:0:0:0:
292,220,74589,1,12,0:0:0:0:
216,200,75796,1,0,0:0:0:0:
248,236,76486,1,0,0:0:0:0:
368,236,77348,1,4,0:0:0:0:
372,292,78038,1,0,0:0:0:0:
240,224,78727,1,8,0:0:0:0:
240,224,79072,1,0,0:0:0:0:
240,224,79417,1,0,0:0:0:0:
236,228,80107,1,12,0:0:0:0:
236,228,81486,1,0,0:0:0:0:
236,232,82003,1,8,0:0:0:0:
232,236,82520,1,8,0:0:0:0:
240,200,82865,1,4,0:0:0:0:
324,268,83555,1,0,0:0:0:0:
240,200,84244,1,8,0:0:0:0:
240,200,84589,1,8,0:0:0:0:
240,200,84934,1,0,0:0:0:0:
240,200,85624,1,12,0:0:0:0:
224,196,87003,2,8,L|272:200,12,35
352,240,88382,1,4,0:0:0:0:
248,284,89072,1,8,0:0:0:0:
216,200,89762,1,0,0:0:0:0:
212,196,90107,1,0,0:0:0:0:
236,272,90451,1,0,0:0:0:0:
216,200,91141,1,12,0:0:0:0:
328,208,91831,1,0,0:0:0:0:
316,200,92520,1,8,0:0:0:0:
316,200,92865,1,8,0:0:0:0:
316,200,93210,1,8,0:0:0:0:
240,240,93900,1,4,0:0:0:0:
224,280,94589,1,8,0:0:0:0:
224,288,95279,1,0,0:0:0:0:
280,232,95624,1,8,0:0:0:0:
280,232,95969,1,0,0:0:0:0:
280,232,96658,1,12,0:0:0:0:
280,232,98038,1,4,0:0:0:0:
232,248,99417,1,4,0:0:0:0:
272,216,100107,1,8,0:0:0:0:
272,212,100796,1,0,0:0:0:0:
272,212,101141,1,0,0:0:0:0:
272,212,101486,1,0,0:0:0:0:
252,200,102175,1,12,0:0:0:0:
312,232,102865,1,0,0:0:0:0:
312,232,103555,1,8,0:0:0:0:
312,232,103900,1,8,0:0:0:0:
312,232,104244,1,8,0:0:0:0:
312,232,104934,1,4,0:0:0:0:
304,248,105624,1,8,0:0:0:0:
304,248,106313,1,0,0:0:0:0:
304,248,106658,1,8,0:0:0:0:
304,248,107003,1,0,0:0:0:0:
304,248,107693,1,12,0:0:0:0:
140,216,109072,2,0,L|220:168,4,70
364,212,110451,1,4,0:0:0:0:
240,224,111141,1,0,0:0:0:0:
240,232,111658,1,0,0:0:0:0:
240,232,112175,1,0,0:0:0:0:
240,232,112693,1,0,0:0:0:0:
192,208,113210,1,12,0:0:0:0:
188,212,113900,1,0,0:0:0:0:
272,208,114589,1,8,0:0:0:0:
216,204,114934,1,0,0:0:0:0:
216,204,115279,1,8,0:0:0:0:
212,232,115969,1,4,0:0:0:0:
272,192,116658,1,8,0:0:0:0:
264,204,117175,1,8,0:0:0:0:
264,204,117693,1,8,0:0:0:0:
264,208,118210,1,8,0:0:0:0:
260,196,118727,1,12,0:0:0:0:
312,224,120107,1,4,0:0:0:0:
312,224,121486,1,4,0:0:0:0:
332,240,122175,1,0,0:0:0:0:
332,240,122693,1,0,0:0:0:0:
332,240,123210,1,0,0:0:0:0:
328,248,123727,1,0,0:0:0:0:
328,256,124244,1,12,0:0:0:0:
344,232,124934,1,0,0:0:0:0:
344,232,125624,1,8,0:0:0:0:
344,232,125969,1,0,0:0:0:0:
344,232,126313,1,8,0:0:0:0:
340,212,127003,1,4,0:0:0:0:
340,212,127693,1,8,0:0:0:0:
340,212,128210,1,8,0:0:0:0:
340,212,128727,1,8,0:0:0:0:
340,212,129244,1,8,0:0:0:0:
180,168,129762,1,4,0:0:0:0:
292,208,131141,2,0,L|336:200,12,35
168,188,132520,1,4,0:0:0:0:
