osu file format v14

[General]
AudioFilename: audio.mp3
AudioLeadIn: 0
PreviewTime: 64417
Countdown: 0
SampleSet: Normal
StackLeniency: 0.7
Mode: 1
LetterboxInBreaks: 0
WidescreenStoryboard: 1

[Editor]
DistanceSpacing: 1
BeatDivisor: 4
GridSize: 4
TimelineZoom: 1.899999

[Metadata]
Title:Hide Away My Heart
TitleUnicode:Hide Away My Heart
Artist:MaxNRG
ArtistUnicode:MaxNRG
Creator:Chromoxx
Version:Inner Oni
Source:
Tags:midnaait dnb drum and & bass liquicity liquid cut
BeatmapID:1492099
BeatmapSetID:693120

[Difficulty]
HPDrainRate:6
CircleSize:5
OverallDifficulty:6.5
ApproachRate:5
SliderMultiplier:1.4
SliderTickRate:1

[Events]
//Background and Video events
0,0,"almost out of bgs fuk.jpg",0,0
//Break Periods
//Storyboard Layer 0 (Background)
//Storyboard Layer 1 (Fail)
//Storyboard Layer 2 (Pass)
//Storyboard Layer 3 (Foreground)
//Storyboard Sound Samples

[TimingPoints]
107,344.827586206897,4,1,0,70,1,0
20796,-100,4,1,0,70,0,0
20882,-102.040816326531,4,1,0,68,0,0
20969,-104.166666666667,4,1,0,66,0,0
21055,-106.382978723404,4,1,0,64,0,0
21141,-108.695652173913,4,1,0,62,0,0
21227,-111.111111111111,4,1,0,60,0,0
21313,-113.636363636364,4,1,0,58,0,0
21400,-116.279069767442,4,1,0,56,0,0
21486,-119.047619047619,4,1,0,54,0,0
21572,-121.951219512195,4,1,0,52,0,0
21658,-125,4,1,0,50,0,0
21744,-128.205128205128,4,1,0,48,0,0
21831,-131.578947368421,4,1,0,46,0,0
21917,-135.135135135135,4,1,0,44,0,0
22003,-138.888888888889,4,1,0,42,0,0
22175,-100,4,1,0,70,0,0
66313,-100,4,1,0,70,0,1
87003,-100,4,1,0,70,0,0
88382,-100,4,1,0,70,0,1
132520,-100,4,1,0,70,0,0

[HitObjects]
280,176,107,5,4,0:0:0:0:
280,220,365,1,8,0:0:0:0:
388,256,624,1,0,0:0:0:0:
388,256,796,1,8,0:0:0:0:
384,264,1141,1,0,0:0:0:0:
384,264,1486,1,8,0:0:0:0:
384,264,1744,1,8,0:0:0:0:
288,252,2003,1,0,0:0:0:0:
288,252,2175,1,8,0:0:0:0:
288,252,2348,1,0,0:0:0:0:
160,244,2434,1,0,0:0:0:0:
160,244,2520,1,8,0:0:0:0:
168,240,2865,1,0,0:0:0:0:
168,244,3124,1,8,0:0:0:0:
160,240,3382,1,0,0:0:0:0:
160,240,3555,1,8,0:0:0:0:
124,216,3900,1,0,0:0:0:0:
124,216,4244,1,8,0:0:0:0:
124,216,4503,1,8,0:0:0:0:
124,216,4762,1,0,0:0:0:0:
124,216,4934,1,8,0:0:0:0:
124,216,5107,1,0,0:0:0:0:
320,264,5193,1,8,0:0:0:0:
128,216,5279,1,8,0:0:0:0:
296,188,5624,1,0,0:0:0:0:
296,188,5882,1,8,0:0:0:0:
296,188,6141,1,0,0:0:0:0:
296,188,6313,1,8,0:0:0:0:
296,188,6658,1,0,0:0:0:0:
296,188,7003,1,8,0:0:0:0:
296,188,7262,1,8,0:0:0:0:
296,188,7520,1,0,0:0:0:0:
296,188,7693,1,8,0:0:0:0:
272,184,7865,1,0,0:0:0:0:
260,184,7951,1,0,0:0:0:0:
192,176,8038,1,8,0:0:0:0:
100,224,8382,1,0,0:0:0:0:
300,260,8641,1,8,0:0:0:0:
128,224,8900,1,0,0:0:0:0:
128,224,9072,1,8,0:0:0:0:
128,224,9417,1,0,0:0:0:0:
128,224,9762,1,8,0:0:0:0:
128,224,10020,1,8,0:0:0:0:
128,224,10279,1,0,0:0:0:0:
128,224,10451,1,8,0:0:0:0:
116,216,10624,1,0,0:0:0:0:
112,212,10710,1,8,0:0:0:0:
108,212,10796,1,8,0:0:0:0:
196,220,11141,1,4,0:0:0:0:
304,200,11313,1,0,0:0:0:0:
296,200,11400,1,8,0:0:0:0:
172,260,11658,1,0,0:0:0:0:
172,260,11831,1,8,0:0:0:0:
248,276,12175,1,0,0:0:0:0:
188,256,12520,1,8,0:0:0:0:
120,212,12693,1,8,0:0:0:0:
148,252,12779,1,8,0:0:0:0:
172,260,13038,1,0,0:0:0:0:
148,252,13210,1,8,0:0:0:0:
256,320,13382,1,0,0:0:0:0:
148,252,13555,1,0,0:0:0:0:
152,252,13900,1,0,0:0:0:0:
152,252,14072,1,0,0:0:0:0:
148,252,14158,1,8,0:0:0:0:
148,252,14417,1,0,0:0:0:0:
148,252,14589,1,8,0:0:0:0:
152,252,14934,1,0,0:0:0:0:
216,172,15279,1,8,0:0:0:0:
304,156,15451,1,8,0:0:0:0:
324,156,15538,1,8,0:0:0:0:
328,236,15796,1,0,0:0:0:0:
328,236,15969,1,8,0:0:0:0:
328,236,16141,1,8,0:0:0:0:
328,236,16313,1,0,0:0:0:0:
144,260,16658,1,0,0:0:0:0:
144,260,16831,1,0,0:0:0:0:
120,240,16917,1,8,0:0:0:0:
120,240,17175,1,0,0:0:0:0:
120,240,17348,1,8,0:0:0:0:
192,296,17693,1,0,0:0:0:0:
192,288,18038,1,8,0:0:0:0:
172,272,18210,1,8,0:0:0:0:
188,288,18296,1,8,0:0:0:0:
244,256,18555,1,0,0:0:0:0:
244,256,18727,1,0,0:0:0:0:
244,256,18900,1,8,0:0:0:0:
244,256,19072,1,0,0:0:0:0:
224,232,19417,1,0,0:0:0:0:
224,236,19589,1,0,0:0:0:0:
216,228,19675,1,8,0:0:0:0:
216,228,19934,1,0,0:0:0:0:
224,220,20107,1,8,0:0:0:0:
224,220,20279,1,8,0:0:0:0:
224,220,20451,1,8,0:0:0:0:
224,220,20624,1,8,0:0:0:0:
300,244,20796,1,0,0:0:0:0:
300,244,20882,1,0,0:0:0:0:
300,244,20969,1,8,0:0:0:0:
228,256,21055,1,8,0:0:0:0:
188,240,21141,1,0,0:0:0:0:
168,232,21227,1,0,0:0:0:0:
160,220,21313,1,8,0:0:0:0:
144,216,21400,1,8,0:0:0:0:
160,220,21486,1,0,0:0:0:0:
144,216,21572,1,0,0:0:0:0:
160,220,21658,1,8,0:0:0:0:
140,208,21744,1,8,0:0:0:0:
140,208,21831,1,0,0:0:0:0:
136,208,21917,1,0,0:0:0:0:
132,204,22003,1,8,0:0:0:0:
120,200,22175,1,4,0:0:0:0:
416,160,22520,1,8,0:0:0:0:
148,184,22693,1,0,0:0:0:0:
380,188,22865,1,0,0:0:0:0:
204,188,23210,1,0,0:0:0:0:
232,188,23382,1,8,0:0:0:0:
216,320,23727,1,8,0:0:0:0:
216,320,23900,1,8,0:0:0:0:
216,320,24072,1,0,0:0:0:0:
216,320,24244,1,8,0:0:0:0:
216,320,24417,1,8,0:0:0:0:
296,228,24589,1,0,0:0:0:0:
296,228,24762,1,8,0:0:0:0:
296,228,24934,1,0,0:0:0:0:
320,296,25279,1,8,0:0:0:0:
320,296,25451,1,8,0:0:0:0:
320,296,25624,1,0,0:0:0:0:
320,296,25969,1,8,0:0:0:0:
320,296,26141,1,0,0:0:0:0:
320,296,26313,1,8,0:0:0:0:
336,248,26658,1,0,0:0:0:0:
336,248,26831,1,8,0:0:0:0:
336,248,27175,1,0,0:0:0:0:
336,248,27348,1,8,0:0:0:0:
336,248,27520,1,8,0:0:0:0:
336,248,27693,1,0,0:0:0:0:
264,196,28038,1,8,0:0:0:0:
264,196,28210,1,0,0:0:0:0:
264,196,28382,1,0,0:0:0:0:
264,196,28727,1,8,0:0:0:0:
264,196,28900,1,8,0:0:0:0:
156,164,29072,1,0,0:0:0:0:
156,164,29244,1,8,0:0:0:0:
156,164,29417,1,0,0:0:0:0:
144,144,29589,1,8,0:0:0:0:
144,144,29934,1,8,0:0:0:0:
144,144,30107,1,8,0:0:0:0:
144,144,30279,1,0,0:0:0:0:
144,144,30451,1,8,0:0:0:0:
180,136,30796,1,0,0:0:0:0:
180,136,30969,1,8,0:0:0:0:
176,148,31141,1,8,0:0:0:0:
180,136,31313,1,0,0:0:0:0:
180,136,31486,1,8,0:0:0:0:
180,136,31658,1,8,0:0:0:0:
180,136,31831,1,0,0:0:0:0:
388,208,32175,1,8,0:0:0:0:
388,208,32348,1,0,0:0:0:0:
344,192,32693,1,0,0:0:0:0:
196,192,33038,1,8,0:0:0:0:
264,176,33210,1,4,0:0:0:0:
244,260,33727,1,0,0:0:0:0:
264,264,33900,1,8,0:0:0:0:
248,264,34417,1,0,0:0:0:0:
240,256,34762,1,8,0:0:0:0:
424,240,35107,1,8,0:0:0:0:
424,240,35279,1,0,0:0:0:0:
168,224,35969,1,8,0:0:0:0:
244,248,36486,1,0,0:0:0:0:
248,240,36658,1,8,0:0:0:0:
180,232,37175,1,8,0:0:0:0:
184,236,37348,1,0,0:0:0:0:
184,236,37693,1,0,0:0:0:0:
184,236,37865,1,8,0:0:0:0:
184,236,38038,1,0,0:0:0:0:
264,264,38382,1,8,0:0:0:0:
264,264,38727,1,0,0:0:0:0:
264,264,39244,1,0,0:0:0:0:
264,264,39417,1,8,0:0:0:0:
312,244,39762,1,8,0:0:0:0:
312,244,39934,1,8,0:0:0:0:
312,244,40279,1,8,0:0:0:0:
312,244,40624,1,8,0:0:0:0:
312,244,40796,1,0,0:0:0:0:
312,244,40969,1,8,0:0:0:0:
312,244,41141,1,8,0:0:0:0:
312,244,41313,1,0,0:0:0:0:
312,244,41486,1,0,0:0:0:0:
284,248,41658,1,0,0:0:0:0:
260,240,41831,1,8,0:0:0:0:
260,240,42003,1,8,0:0:0:0:
308,256,42175,1,0,0:0:0:0:
188,236,42262,1,0,0:0:0:0:
188,236,42348,1,8,0:0:0:0:
140,212,42434,1,8,0:0:0:0:
140,212,42520,1,0,0:0:0:0:
140,212,42607,1,8,0:0:0:0:
140,212,42693,1,8,0:0:0:0:
140,212,42779,1,8,0:0:0:0:
256,192,42865,12,0,44072,0:0:0:0:
408,228,44244,5,12,0:0:0:0:
272,224,44417,1,0,0:0:0:0:
256,220,44503,1,8,0:0:0:0:
256,220,44762,1,0,0:0:0:0:
256,220,44934,1,8,0:0:0:0:
256,220,45279,1,0,0:0:0:0:
256,220,45624,1,8,0:0:0:0:
256,220,45796,1,8,0:0:0:0:
248,220,45882,1,8,0:0:0:0:
328,220,46141,1,0,0:0:0:0:
328,220,46313,1,8,0:0:0:0:
328,220,46486,1,0,0:0:0:0:
332,228,46572,1,0,0:0:0:0:
152,272,46658,1,8,0:0:0:0:
152,272,47003,1,0,0:0:0:0:
320,240,47175,1,0,0:0:0:0:
304,236,47262,1,8,0:0:0:0:
304,236,47520,1,0,0:0:0:0:
304,236,47693,1,8,0:0:0:0:
304,236,48038,1,0,0:0:0:0:
304,236,48382,1,8,0:0:0:0:
204,152,48555,1,8,0:0:0:0:
232,160,48641,1,8,0:0:0:0:
264,264,48900,1,0,0:0:0:0:
264,264,49072,1,8,0:0:0:0:
240,240,49244,1,0,0:0:0:0:
240,240,49331,1,8,0:0:0:0:
240,240,49417,1,8,0:0:0:0:
340,200,49762,1,0,0:0:0:0:
340,200,49934,1,0,0:0:0:0:
308,192,50020,1,8,0:0:0:0:
228,196,50193,1,8,0:0:0:0:
216,192,50279,1,0,0:0:0:0:
216,192,50451,1,8,0:0:0:0:
288,212,50624,1,0,0:0:0:0:
288,212,50796,1,0,0:0:0:0:
288,212,50969,1,0,0:0:0:0:
288,212,51141,1,8,0:0:0:0:
288,212,51313,1,8,0:0:0:0:
260,200,51400,1,8,0:0:0:0:
232,240,51572,1,0,0:0:0:0:
216,232,51658,1,0,0:0:0:0:
216,232,51831,1,8,0:0:0:0:
220,236,52003,1,0,0:0:0:0:
216,236,52089,1,0,0:0:0:0:
200,232,52175,1,8,0:0:0:0:
184,288,52520,1,0,0:0:0:0:
184,288,52693,1,0,0:0:0:0:
176,272,52779,1,8,0:0:0:0:
180,272,52951,1,8,0:0:0:0:
176,272,53038,1,0,0:0:0:0:
184,272,53210,1,8,0:0:0:0:
356,212,53382,1,0,0:0:0:0:
352,216,53555,1,0,0:0:0:0:
352,216,53727,1,0,0:0:0:0:
256,288,53900,1,8,0:0:0:0:
200,232,54072,1,8,0:0:0:0:
196,224,54158,1,8,0:0:0:0:
196,224,54331,1,0,0:0:0:0:
192,224,54417,1,0,0:0:0:0:
192,224,54589,1,8,0:0:0:0:
200,232,54762,1,0,0:0:0:0:
200,232,54848,1,8,0:0:0:0:
200,232,54934,1,8,0:0:0:0:
228,240,55279,1,0,0:0:0:0:
196,236,55624,1,8,0:0:0:0:
196,236,56141,1,0,0:0:0:0:
196,236,56313,1,8,0:0:0:0:
400,220,56658,1,0,0:0:0:0:
400,220,57003,1,0,0:0:0:0:
400,220,57520,1,8,0:0:0:0:
400,220,57693,1,8,0:0:0:0:
400,220,58038,1,0,0:0:0:0:
400,220,58382,1,8,0:0:0:0:
396,228,58900,1,0,0:0:0:0:
392,228,59072,1,8,0:0:0:0:
392,228,59417,1,0,0:0:0:0:
392,232,59762,1,0,0:0:0:0:
392,236,60279,1,8,0:0:0:0:
392,236,60451,1,8,0:0:0:0:
360,232,60796,1,4,0:0:0:0:
256,276,61141,1,0,0:0:0:0:
220,168,61313,1,12,0:0:0:0:
232,176,61658,1,0,0:0:0:0:
232,176,61831,1,12,0:0:0:0:
208,228,62175,1,4,0:0:0:0:
372,264,62348,1,8,0:0:0:0:
356,260,62434,1,8,0:0:0:0:
340,256,62520,1,8,0:0:0:0:
340,256,62693,1,0,0:0:0:0:
332,256,62779,1,0,0:0:0:0:
312,248,62865,1,8,0:0:0:0:
244,224,62951,1,8,0:0:0:0:
280,236,63038,1,8,0:0:0:0:
240,216,63210,1,0,0:0:0:0:
304,192,63296,1,8,0:0:0:0:
240,216,63382,1,8,0:0:0:0:
292,232,63555,1,0,0:0:0:0:
248,272,63641,1,8,0:0:0:0:
240,232,63727,1,8,0:0:0:0:
172,252,63813,1,0,0:0:0:0:
136,220,63900,1,8,0:0:0:0:
128,220,63986,1,8,0:0:0:0:
124,216,64072,1,0,0:0:0:0:
280,232,65969,1,12,0:0:0:0:
352,272,66313,1,4,0:0:0:0:
352,272,66658,1,4,0:0:0:0:
332,264,66831,1,8,0:0:0:0:
332,264,66917,1,8,0:0:0:0:
244,248,67003,1,0,0:0:0:0:
244,248,67175,1,0,0:0:0:0:
236,244,67348,1,8,0:0:0:0:
236,244,67520,1,0,0:0:0:0:
232,244,67607,1,0,0:0:0:0:
208,240,67693,1,8,0:0:0:0:
208,240,67779,1,8,0:0:0:0:
208,240,67865,1,0,0:0:0:0:
200,236,68038,1,8,0:0:0:0:
368,212,68124,1,0,0:0:0:0:
200,240,68210,1,8,0:0:0:0:
188,152,68296,1,8,0:0:0:0:
188,152,68382,1,0,0:0:0:0:
180,240,68469,1,8,0:0:0:0:
180,240,68555,1,0,0:0:0:0:
152,96,68641,1,0,0:0:0:0:
180,228,68727,1,8,0:0:0:0:
288,280,68900,1,0,0:0:0:0:
304,216,69072,1,12,0:0:0:0:
304,216,69417,1,12,0:0:0:0:
392,252,69589,1,0,0:0:0:0:
392,252,69675,1,0,0:0:0:0:
320,264,69762,1,8,0:0:0:0:
320,264,69934,1,0,0:0:0:0:
312,264,70107,1,8,0:0:0:0:
296,256,70193,1,8,0:0:0:0:
264,244,70279,1,0,0:0:0:0:
264,244,70451,1,8,0:0:0:0:
268,240,70624,1,0,0:0:0:0:
260,236,70710,1,0,0:0:0:0:
268,240,70796,1,0,0:0:0:0:
260,236,70969,1,8,0:0:0:0:
256,236,71055,1,8,0:0:0:0:
220,240,71141,1,0,0:0:0:0:
208,232,71227,1,8,0:0:0:0:
192,224,71313,1,8,0:0:0:0:
236,244,71400,1,0,0:0:0:0:
236,244,71486,1,8,0:0:0:0:
192,228,71658,1,8,0:0:0:0:
256,224,71831,1,4,0:0:0:0:
244,220,72175,1,4,0:0:0:0:
348,264,72348,1,8,0:0:0:0:
272,280,72434,1,8,0:0:0:0:
280,276,72520,1,0,0:0:0:0:
280,276,72693,1,0,0:0:0:0:
280,276,72865,1,8,0:0:0:0:
280,276,73038,1,0,0:0:0:0:
280,276,73124,1,0,0:0:0:0:
272,272,73210,1,8,0:0:0:0:
272,272,73382,1,0,0:0:0:0:
272,272,73555,1,8,0:0:0:0:
272,272,73641,1,8,0:0:0:0:
264,268,73727,1,0,0:0:0:0:
228,256,73900,1,8,0:0:0:0:
168,232,73986,1,0,0:0:0:0:
228,256,74072,1,8,0:0:0:0:
224,252,74158,1,8,0:0:0:0:
312,144,74244,1,0,0:0:0:0:
312,144,74331,1,8,0:0:0:0:
312,144,74417,1,0,0:0:0:0:
352,220,74589,1,12,0:0:0:0:
352,220,74934,1,12,0:0:0:0:
328,272,75107,1,0,0:0:0:0:
328,272,75193,1,0,0:0:0:0:
220,248,75279,1,8,0:0:0:0:
220,248,75451,1,0,0:0:0:0:
220,248,75624,1,8,0:0:0:0:
200,240,75796,1,4,0:0:0:0:
288,244,76141,1,0,0:0:0:0:
288,244,76313,1,8,0:0:0:0:
228,224,76486,1,4,0:0:0:0:
412,224,76831,1,0,0:0:0:0:
412,224,77003,1,8,0:0:0:0:
280,172,77348,1,4,0:0:0:0:
280,172,77693,1,4,0:0:0:0:
264,168,77865,1,8,0:0:0:0:
264,168,77951,1,8,0:0:0:0:
264,168,78038,1,0,0:0:0:0:
196,212,78210,1,0,0:0:0:0:
196,212,78382,1,8,0:0:0:0:
248,168,78555,1,0,0:0:0:0:
264,172,78641,1,0,0:0:0:0:
236,152,78727,1,8,0:0:0:0:
236,152,78813,1,8,0:0:0:0:
236,152,78900,1,0,0:0:0:0:
236,152,79072,1,8,0:0:0:0:
336,224,79158,1,8,0:0:0:0:
296,220,79244,1,0,0:0:0:0:
244,200,79331,1,8,0:0:0:0:
240,192,79417,1,8,0:0:0:0:
236,152,79503,1,0,0:0:0:0:
236,156,79589,1,8,0:0:0:0:
296,180,79675,1,8,0:0:0:0:
200,280,79762,1,0,0:0:0:0:
240,156,79848,1,8,0:0:0:0:
240,156,79934,1,0,0:0:0:0:
272,212,80107,1,12,0:0:0:0:
292,220,80451,1,12,0:0:0:0:
304,232,80624,1,0,0:0:0:0:
304,232,80710,1,0,0:0:0:0:
300,232,80796,1,8,0:0:0:0:
300,232,80969,1,0,0:0:0:0:
300,232,81141,1,8,0:0:0:0:
300,232,81227,1,8,0:0:0:0:
300,232,81313,1,0,0:0:0:0:
300,232,81400,1,0,0:0:0:0:
300,232,81486,1,8,0:0:0:0:
304,232,81658,1,0,0:0:0:0:
296,232,81744,1,0,0:0:0:0:
292,232,81831,1,0,0:0:0:0:
292,232,82003,1,8,0:0:0:0:
280,236,82089,1,0,0:0:0:0:
268,236,82175,1,0,0:0:0:0:
260,236,82262,1,8,0:0:0:0:
260,236,82348,1,0,0:0:0:0:
260,236,82434,1,8,0:0:0:0:
260,236,82520,1,8,0:0:0:0:
260,236,82607,1,0,0:0:0:0:
204,228,82693,1,8,0:0:0:0:
256,224,82865,1,4,0:0:0:0:
256,224,83210,1,4,0:0:0:0:
260,228,83382,1,8,0:0:0:0:
260,228,83469,1,8,0:0:0:0:
260,228,83555,1,0,0:0:0:0:
204,232,83727,1,0,0:0:0:0:
204,232,83900,1,8,0:0:0:0:
204,232,84072,1,0,0:0:0:0:
204,232,84158,1,0,0:0:0:0:
200,232,84244,1,8,0:0:0:0:
200,232,84331,1,8,0:0:0:0:
200,232,84417,1,0,0:0:0:0:
200,232,84589,1,8,0:0:0:0:
192,232,84675,1,0,0:0:0:0:
188,232,84762,1,8,0:0:0:0:
184,228,84848,1,8,0:0:0:0:
176,224,84934,1,0,0:0:0:0:
176,224,85020,1,8,0:0:0:0:
176,224,85107,1,8,0:0:0:0:
172,224,85193,1,0,0:0:0:0:
172,224,85279,1,8,0:0:0:0:
172,224,85365,1,8,0:0:0:0:
172,224,85451,1,0,0:0:0:0:
176,224,85624,1,12,0:0:0:0:
176,224,85969,1,12,0:0:0:0:
348,320,86141,1,0,0:0:0:0:
312,308,86227,1,0,0:0:0:0:
252,268,86313,1,8,0:0:0:0:
252,268,86486,1,0,0:0:0:0:
252,268,86658,1,8,0:0:0:0:
252,268,86744,1,8,0:0:0:0:
224,264,86831,1,0,0:0:0:0:
216,248,87003,1,8,0:0:0:0:
216,244,87089,1,8,0:0:0:0:
216,244,87175,1,8,0:0:0:0:
208,240,87262,1,8,0:0:0:0:
208,240,87348,1,0,0:0:0:0:
208,240,87434,1,0,0:0:0:0:
192,232,87520,1,8,0:0:0:0:
204,240,87607,1,0,0:0:0:0:
184,232,87693,1,8,0:0:0:0:
180,228,87779,1,0,0:0:0:0:
160,224,87865,1,8,0:0:0:0:
184,232,87951,1,0,0:0:0:0:
160,224,88038,1,0,0:0:0:0:
412,300,88382,1,4,0:0:0:0:
412,300,88727,1,4,0:0:0:0:
308,276,89072,1,8,0:0:0:0:
296,272,89158,1,0,0:0:0:0:
408,164,89244,1,8,0:0:0:0:
408,164,89331,1,8,0:0:0:0:
408,164,89417,1,0,0:0:0:0:
408,164,89503,1,8,0:0:0:0:
408,164,89589,1,0,0:0:0:0:
408,164,89675,1,0,0:0:0:0:
392,336,89762,1,8,0:0:0:0:
144,224,89848,1,0,0:0:0:0:
144,224,89934,1,8,0:0:0:0:
136,216,90020,1,8,0:0:0:0:
132,216,90107,1,0,0:0:0:0:
132,216,90193,1,8,0:0:0:0:
128,216,90279,1,0,0:0:0:0:
128,216,90365,1,8,0:0:0:0:
144,224,90451,1,8,0:0:0:0:
144,224,90538,1,0,0:0:0:0:
144,224,90624,1,8,0:0:0:0:
144,224,90710,1,8,0:0:0:0:
128,240,90796,1,0,0:0:0:0:
336,248,90882,1,8,0:0:0:0:
336,248,90969,1,0,0:0:0:0:
336,248,91141,1,12,0:0:0:0:
336,248,91486,1,4,0:0:0:0:
328,288,91831,1,8,0:0:0:0:
324,276,91917,1,8,0:0:0:0:
248,256,92003,1,0,0:0:0:0:
240,252,92089,1,8,0:0:0:0:
232,248,92175,1,0,0:0:0:0:
232,248,92262,1,0,0:0:0:0:
216,248,92348,1,8,0:0:0:0:
192,244,92434,1,0,0:0:0:0:
192,244,92520,1,8,0:0:0:0:
192,244,92607,1,8,0:0:0:0:
192,244,92693,1,0,0:0:0:0:
176,244,92779,1,8,0:0:0:0:
168,240,92865,1,8,0:0:0:0:
168,240,92951,1,0,0:0:0:0:
168,240,93038,1,8,0:0:0:0:
168,240,93124,1,8,0:0:0:0:
168,240,93210,1,0,0:0:0:0:
168,240,93296,1,8,0:0:0:0:
168,240,93382,1,0,0:0:0:0:
168,240,93469,1,0,0:0:0:0:
168,244,93555,1,8,0:0:0:0:
168,244,93641,1,0,0:0:0:0:
164,240,93727,1,8,0:0:0:0:
216,272,93900,1,4,0:0:0:0:
216,272,94244,1,4,0:0:0:0:
300,272,94589,1,8,0:0:0:0:
300,280,94675,1,0,0:0:0:0:
280,272,94762,1,8,0:0:0:0:
384,172,94848,1,0,0:0:0:0:
384,172,94934,1,8,0:0:0:0:
384,172,95020,1,0,0:0:0:0:
384,172,95107,1,8,0:0:0:0:
384,172,95193,1,8,0:0:0:0:
384,172,95279,1,0,0:0:0:0:
384,172,95365,1,0,0:0:0:0:
384,172,95451,1,8,0:0:0:0:
384,172,95538,1,8,0:0:0:0:
356,228,95624,1,0,0:0:0:0:
220,104,95710,1,8,0:0:0:0:
220,104,95796,1,0,0:0:0:0:
220,104,95882,1,0,0:0:0:0:
188,240,95969,1,8,0:0:0:0:
356,228,96055,1,8,0:0:0:0:
356,228,96141,1,0,0:0:0:0:
356,228,96227,1,0,0:0:0:0:
224,232,96313,1,0,0:0:0:0:
252,240,96486,1,0,0:0:0:0:
268,232,96658,1,12,0:0:0:0:
268,232,97003,1,4,0:0:0:0:
304,156,97348,1,8,0:0:0:0:
304,156,97434,1,0,0:0:0:0:
304,156,97520,1,8,0:0:0:0:
304,156,97607,1,0,0:0:0:0:
304,156,97693,1,8,0:0:0:0:
304,156,97779,1,0,0:0:0:0:
304,156,97865,1,8,0:0:0:0:
400,292,98038,1,0,0:0:0:0:
400,292,98124,1,0,0:0:0:0:
380,296,98210,1,0,0:0:0:0:
380,296,98296,1,0,0:0:0:0:
360,292,98382,1,8,0:0:0:0:
328,292,98555,1,0,0:0:0:0:
296,284,98641,1,0,0:0:0:0:
288,280,98727,1,0,0:0:0:0:
288,280,98813,1,8,0:0:0:0:
288,280,98900,1,8,0:0:0:0:
288,280,99072,1,0,0:0:0:0:
288,280,99158,1,8,0:0:0:0:
288,280,99244,1,8,0:0:0:0:
284,280,99417,1,4,0:0:0:0:
228,260,99762,1,4,0:0:0:0:
236,236,100107,1,0,0:0:0:0:
256,212,100193,1,8,0:0:0:0:
252,200,100279,1,8,0:0:0:0:
256,196,100365,1,0,0:0:0:0:
256,196,100451,1,8,0:0:0:0:
256,196,100538,1,8,0:0:0:0:
236,280,100624,1,0,0:0:0:0:
220,244,100710,1,0,0:0:0:0:
236,236,100796,1,8,0:0:0:0:
236,236,100882,1,0,0:0:0:0:
228,240,100969,1,8,0:0:0:0:
172,208,101055,1,0,0:0:0:0:
172,208,101141,1,8,0:0:0:0:
172,208,101227,1,8,0:0:0:0:
184,220,101313,1,0,0:0:0:0:
184,224,101400,1,8,0:0:0:0:
184,224,101486,1,0,0:0:0:0:
180,224,101572,1,0,0:0:0:0:
212,228,101658,1,8,0:0:0:0:
196,224,101744,1,0,0:0:0:0:
188,220,101831,1,0,0:0:0:0:
180,220,101917,1,8,0:0:0:0:
176,216,102003,1,0,0:0:0:0:
196,200,102175,1,12,0:0:0:0:
196,200,102520,1,4,0:0:0:0:
336,248,102865,1,8,0:0:0:0:
324,248,102951,1,0,0:0:0:0:
304,236,103038,1,0,0:0:0:0:
296,232,103124,1,8,0:0:0:0:
288,224,103210,1,0,0:0:0:0:
288,224,103296,1,0,0:0:0:0:
268,228,103382,1,8,0:0:0:0:
288,224,103469,1,8,0:0:0:0:
192,216,103555,1,0,0:0:0:0:
172,208,103641,1,8,0:0:0:0:
180,208,103727,1,0,0:0:0:0:
180,208,103813,1,0,0:0:0:0:
176,208,103900,1,8,0:0:0:0:
168,208,103986,1,0,0:0:0:0:
168,208,104072,1,8,0:0:0:0:
168,208,104158,1,0,0:0:0:0:
168,208,104244,1,8,0:0:0:0:
168,208,104331,1,8,0:0:0:0:
184,208,104417,1,0,0:0:0:0:
180,208,104503,1,8,0:0:0:0:
152,200,104589,1,8,0:0:0:0:
152,200,104675,1,0,0:0:0:0:
152,200,104762,1,8,0:0:0:0:
184,216,104934,1,4,0:0:0:0:
184,216,105279,1,4,0:0:0:0:
408,100,105624,1,8,0:0:0:0:
400,104,105710,1,0,0:0:0:0:
400,104,105796,1,8,0:0:0:0:
400,104,105882,1,0,0:0:0:0:
400,104,105969,1,8,0:0:0:0:
400,104,106055,1,0,0:0:0:0:
400,104,106141,1,8,0:0:0:0:
400,104,106227,1,8,0:0:0:0:
220,252,106313,1,0,0:0:0:0:
224,244,106400,1,0,0:0:0:0:
240,232,106486,1,8,0:0:0:0:
232,216,106572,1,8,0:0:0:0:
232,216,106658,1,0,0:0:0:0:
232,216,106744,1,8,0:0:0:0:
224,216,106831,1,0,0:0:0:0:
224,212,106917,1,0,0:0:0:0:
224,212,107003,1,8,0:0:0:0:
220,208,107089,1,8,0:0:0:0:
216,200,107175,1,0,0:0:0:0:
216,200,107262,1,0,0:0:0:0:
200,192,107348,1,0,0:0:0:0:
268,252,107520,1,0,0:0:0:0:
296,152,107693,1,12,0:0:0:0:
296,152,108038,1,4,0:0:0:0:
304,280,108382,1,8,0:0:0:0:
304,280,108469,1,8,0:0:0:0:
224,264,108555,1,0,0:0:0:0:
256,264,108727,1,8,0:0:0:0:
256,264,108900,1,0,0:0:0:0:
256,280,109072,1,8,0:0:0:0:
244,288,109158,1,8,0:0:0:0:
188,312,109244,1,8,0:0:0:0:
176,304,109331,1,8,0:0:0:0:
236,304,109417,1,8,0:0:0:0:
232,304,109503,1,8,0:0:0:0:
232,304,109589,1,0,0:0:0:0:
224,312,109675,1,0,0:0:0:0:
136,280,109762,1,8,0:0:0:0:
112,280,109934,1,8,0:0:0:0:
300,232,110020,1,8,0:0:0:0:
256,224,110107,1,0,0:0:0:0:
260,232,110451,1,4,0:0:0:0:
260,232,110796,1,4,0:0:0:0:
252,276,111141,1,0,0:0:0:0:
236,276,111227,1,0,0:0:0:0:
236,276,111313,1,0,0:0:0:0:
228,272,111400,1,0,0:0:0:0:
212,264,111486,1,8,0:0:0:0:
212,264,111658,1,0,0:0:0:0:
208,264,111744,1,0,0:0:0:0:
208,264,111831,1,0,0:0:0:0:
208,264,111917,1,8,0:0:0:0:
204,260,112003,1,8,0:0:0:0:
204,264,112175,1,0,0:0:0:0:
204,260,112262,1,0,0:0:0:0:
172,264,112348,1,8,0:0:0:0:
160,256,112434,1,8,0:0:0:0:
160,252,112520,1,8,0:0:0:0:
272,256,112693,1,0,0:0:0:0:
272,256,112779,1,8,0:0:0:0:
264,252,112865,1,8,0:0:0:0:
188,212,113038,1,0,0:0:0:0:
360,224,113210,1,12,0:0:0:0:
360,224,113555,1,4,0:0:0:0:
340,232,113900,1,8,0:0:0:0:
268,212,113986,1,0,0:0:0:0:
372,220,114072,1,8,0:0:0:0:
372,220,114158,1,0,0:0:0:0:
372,220,114244,1,8,0:0:0:0:
372,220,114331,1,0,0:0:0:0:
372,220,114417,1,8,0:0:0:0:
372,220,114503,1,8,0:0:0:0:
272,220,114589,1,0,0:0:0:0:
276,216,114675,1,0,0:0:0:0:
280,136,114762,1,8,0:0:0:0:
280,136,114848,1,8,0:0:0:0:
280,136,114934,1,0,0:0:0:0:
160,208,115020,1,8,0:0:0:0:
160,208,115107,1,0,0:0:0:0:
176,212,115193,1,0,0:0:0:0:
180,216,115279,1,8,0:0:0:0:
192,216,115365,1,0,0:0:0:0:
188,216,115451,1,8,0:0:0:0:
188,216,115538,1,0,0:0:0:0:
188,216,115624,1,8,0:0:0:0:
192,232,115796,1,8,0:0:0:0:
200,240,115969,1,4,0:0:0:0:
200,240,116313,1,4,0:0:0:0:
260,240,116658,1,8,0:0:0:0:
244,244,116744,1,8,0:0:0:0:
260,240,116831,1,8,0:0:0:0:
244,244,116917,1,8,0:0:0:0:
240,240,117003,1,0,0:0:0:0:
240,240,117175,1,8,0:0:0:0:
200,240,117262,1,8,0:0:0:0:
216,248,117348,1,8,0:0:0:0:
200,240,117434,1,0,0:0:0:0:
200,240,117520,1,0,0:0:0:0:
184,248,117693,1,8,0:0:0:0:
212,264,117779,1,8,0:0:0:0:
200,256,117865,1,0,0:0:0:0:
200,256,117951,1,0,0:0:0:0:
196,256,118038,1,0,0:0:0:0:
200,256,118210,1,8,0:0:0:0:
336,160,118296,1,0,0:0:0:0:
336,160,118382,1,0,0:0:0:0:
256,220,118555,1,0,0:0:0:0:
320,212,118727,1,12,0:0:0:0:
320,212,119072,1,4,0:0:0:0:
296,240,119244,1,0,0:0:0:0:
280,240,119331,1,0,0:0:0:0:
252,244,119417,1,8,0:0:0:0:
208,248,119503,1,0,0:0:0:0:
364,176,119589,1,8,0:0:0:0:
364,176,119675,1,0,0:0:0:0:
364,176,119762,1,8,0:0:0:0:
364,176,119848,1,0,0:0:0:0:
364,176,119934,1,8,0:0:0:0:
364,232,120107,1,4,0:0:0:0:
332,272,120451,1,8,0:0:0:0:
328,292,120624,1,4,0:0:0:0:
280,272,120969,1,0,0:0:0:0:
120,168,121141,1,12,0:0:0:0:
280,260,121486,1,4,0:0:0:0:
320,252,121831,1,4,0:0:0:0:
360,160,122175,1,0,0:0:0:0:
360,160,122262,1,0,0:0:0:0:
360,160,122348,1,0,0:0:0:0:
360,160,122434,1,0,0:0:0:0:
360,160,122520,1,8,0:0:0:0:
384,132,122693,1,0,0:0:0:0:
384,132,122779,1,0,0:0:0:0:
384,132,122865,1,0,0:0:0:0:
384,132,122951,1,8,0:0:0:0:
384,132,123038,1,8,0:0:0:0:
384,132,123210,1,0,0:0:0:0:
388,140,123296,1,0,0:0:0:0:
388,140,123382,1,8,0:0:0:0:
388,140,123469,1,8,0:0:0:0:
388,140,123555,1,8,0:0:0:0:
392,140,123727,1,0,0:0:0:0:
392,144,123813,1,8,0:0:0:0:
392,144,123900,1,8,0:0:0:0:
300,216,124072,1,0,0:0:0:0:
300,216,124244,1,12,0:0:0:0:
300,216,124589,1,4,0:0:0:0:
300,216,124934,1,8,0:0:0:0:
368,128,125020,1,0,0:0:0:0:
368,128,125107,1,8,0:0:0:0:
368,128,125193,1,0,0:0:0:0:
368,128,125279,1,8,0:0:0:0:
368,136,125365,1,0,0:0:0:0:
368,144,125451,1,8,0:0:0:0:
376,152,125538,1,8,0:0:0:0:
332,284,125624,1,0,0:0:0:0:
328,280,125710,1,0,0:0:0:0:
316,268,125796,1,8,0:0:0:0:
308,264,125882,1,8,0:0:0:0:
296,124,125969,1,0,0:0:0:0:
296,124,126055,1,8,0:0:0:0:
296,124,126141,1,0,0:0:0:0:
300,128,126227,1,0,0:0:0:0:
352,184,126313,1,8,0:0:0:0:
352,184,126400,1,0,0:0:0:0:
352,184,126486,1,8,0:0:0:0:
352,184,126572,1,0,0:0:0:0:
352,184,126658,1,8,0:0:0:0:
408,296,126831,1,8,0:0:0:0:
364,276,127003,1,4,0:0:0:0:
364,276,127348,1,4,0:0:0:0:
380,180,127693,1,8,0:0:0:0:
380,180,127779,1,8,0:0:0:0:
380,180,127865,1,8,0:0:0:0:
380,180,127951,1,8,0:0:0:0:
380,180,128038,1,0,0:0:0:0:
380,180,128210,1,8,0:0:0:0:
380,180,128296,1,8,0:0:0:0:
380,180,128382,1,8,0:0:0:0:
380,180,128469,1,0,0:0:0:0:
380,180,128555,1,0,0:0:0:0:
380,180,128727,1,8,0:0:0:0:
380,180,128813,1,8,0:0:0:0:
380,180,128900,1,0,0:0:0:0:
380,180,128986,1,0,0:0:0:0:
380,180,129072,1,0,0:0:0:0:
296,268,129244,1,8,0:0:0:0:
288,260,129331,1,0,0:0:0:0:
288,260,129417,1,0,0:0:0:0:
280,256,129589,1,0,0:0:0:0:
264,248,129762,1,12,0:0:0:0:
236,240,130107,1,4,0:0:0:0:
344,236,130279,1,0,0:0:0:0:
224,284,130365,1,0,0:0:0:0:
220,280,130451,1,8,0:0:0:0:
220,276,130538,1,0,0:0:0:0:
220,276,130624,1,8,0:0:0:0:
220,272,130710,1,0,0:0:0:0:
220,272,130796,1,8,0:0:0:0:
228,268,130969,1,0,0:0:0:0:
404,156,131141,1,8,0:0:0:0:
404,156,131227,1,8,0:0:0:0:
408,160,131313,1,0,0:0:0:0:
408,160,131400,1,0,0:0:0:0:
408,160,131486,1,0,0:0:0:0:
408,160,131572,1,0,0:0:0:0:
408,160,131658,1,8,0:0:0:0:
408,160,131744,1,8,0:0:0:0:
408,160,131831,1,0,0:0:0:0:
412,164,131917,1,0,0:0:0:0:
356,196,132003,1,8,0:0:0:0:
356,196,132089,1,8,0:0:0:0:
356,196,132175,1,8,0:0:0:0:
356,196,132520,1,4,0:0:0:0:
