osu file format v14

[General]
AudioFilename: audio.mp3
AudioLeadIn: 0
PreviewTime: -1
Countdown: 1
SampleSet: Normal
StackLeniency: 0.7
Mode: 0
LetterboxInBreaks: 0
WidescreenStoryboard: 0

[Editor]
DistanceSpacing: 1
BeatDivisor: 8
GridSize: 4
TimelineZoom: 2

[Metadata]
Title:Hide Away My Heart
TitleUnicode:Hide Away My Heart
Artist:MaxNRG
ArtistUnicode:MaxNRG
Creator:Bacwux
Version:Love
Source:
Tags:
BeatmapID:1548594
BeatmapSetID:733833

[Difficulty]
HPDrainRate:6
CircleSize:4
OverallDifficulty:7
ApproachRate:9.8
SliderMultiplier:2.6
SliderTickRate:1

[Events]
//Background and Video events
0,0,"almost out of bgs fuk.jpg",0,0
//Break Periods
//Storyboard Layer 0 (Background)
//Storyboard Layer 1 (Fail)
//Storyboard Layer 2 (Pass)
//Storyboard Layer 3 (Foreground)
//Storyboard Sound Samples

[TimingPoints]
122,344.827586206897,4,1,0,60,1,0
22190,-200,4,1,0,60,0,0
55294,-133.333333333333,4,1,0,60,0,0
61846,-100,4,1,0,60,0,0
62190,-133.333333333333,4,1,0,60,0,0
63225,-100,4,1,0,60,0,0
63570,-133.333333333333,4,1,0,60,0,0
63915,-100,4,1,0,60,0,0
64001,-100,4,1,0,5,0,0
64087,-100,4,1,0,60,0,0
65984,-100,4,1,0,60,0,0
66012,-100,4,1,0,55,0,0
66041,-100,4,1,0,50,0,0
66070,-100,4,1,0,45,0,0
66099,-100,4,1,0,40,0,0
66127,-100,4,1,0,35,0,0
66156,-100,4,1,0,30,0,0
66185,-100,4,1,0,25,0,0
66213,-100,4,1,0,20,0,0
66242,-100,4,1,0,15,0,0
66271,-100,4,1,0,10,0,0
66328,-66.6666666666667,4,1,0,75,0,0
66673,-57.1428571428571,4,1,0,75,0,0
67018,-50,4,1,0,60,0,0
69087,-66.6666666666667,4,1,0,60,0,0
69777,-50,4,1,0,60,0,0
71846,-66.6666666666667,4,1,0,60,0,0
72190,-57.1428571428571,4,1,0,60,0,0
72535,-50,4,1,0,60,0,0
74604,-66.6666666666667,4,1,0,60,0,0
75294,-50,4,1,0,60,0,0
77363,-66.6666666666667,4,1,0,60,0,0
77708,-57.1428571428571,4,1,0,60,0,0
78053,-50,4,1,0,60,0,0
80122,-66.6666666666667,4,1,0,60,0,0
80466,-57.1428571428571,4,1,0,60,0,0
80811,-50,4,1,0,60,0,0
82880,-66.6666666666667,4,1,0,60,0,0
83225,-57.1428571428571,4,1,0,60,0,0
83570,-50,4,1,0,60,0,0
85639,-66.6666666666667,4,1,0,60,0,0
85984,-57.1428571428571,4,1,0,60,0,0
86328,-50,4,1,0,60,0,0
88397,-57.1428571428571,4,1,0,60,0,0
88742,-50,4,1,0,60,0,0
89087,-33.3333333333333,4,1,0,60,0,0
91156,-44.4444444444445,4,1,0,60,0,0
91501,-50,4,1,0,60,0,0
91846,-33.3333333333333,4,1,0,60,0,0
92535,-25,4,1,0,60,0,0
93053,-28.5714285714286,4,1,0,60,0,0
93570,-33.3333333333333,4,1,0,60,0,0
93915,-40,4,1,0,60,0,0
94604,-20,4,1,0,60,0,0
95466,-13.4444444444444,4,1,0,60,0,0
95639,-20,4,1,0,60,0,0
95984,-13.4444444444444,4,1,0,60,0,0
96156,-20,4,1,0,60,0,0
96673,-40,4,1,0,60,0,0
97018,-50,4,1,0,60,0,0
97363,-20,4,1,0,60,0,0

[HitObjects]
256,192,16673,12,0,21846,0:0:0:0:
100,132,22190,6,0,P|168:112|236:136,2,130
92,140,23225,5,0,0:0:0:0:
232,136,23397,2,0,P|244:168|228:264,1,130
104,320,23915,2,0,L|172:316,2,65
40,264,24432,1,0,0:0:0:0:
120,176,24604,2,0,L|124:256,1,65
48,132,24949,6,0,P|88:96|164:104,2,130
120,176,26156,5,0,0:0:0:0:
184,248,26328,2,0,L|324:244,1,130
376,192,26846,2,0,P|396:144|384:64,1,130
244,64,27363,1,0,0:0:0:0:
312,124,27535,1,0,0:0:0:0:
176,4,27708,6,0,L|40:12,2,130
244,64,28742,5,0,0:0:0:0:
168,160,28915,2,0,L|164:80,1,65
280,164,29259,2,0,L|276:244,1,65
156,168,29604,2,0,L|152:88,1,65
292,156,29949,1,0,0:0:0:0:
188,256,30122,2,0,L|116:252,1,65
56,172,30466,2,0,P|80:220|64:304,2,130
16,96,31328,2,0,L|20:20,2,65
56,172,31846,2,0,P|104:176|180:116,1,130
224,80,32363,2,0,L|232:204,1,97.5
248,204,32708,2,0,L|240:328,1,97.5
224,328,33053,1,0,0:0:0:0:
340,268,33225,6,0,P|380:256|472:280,1,130
316,348,33742,2,0,L|320:276,1,65
272,168,34432,6,0,P|228:148|144:164,1,130
96,228,34949,2,0,L|100:304,1,65
180,240,35294,1,0,0:0:0:0:
64,144,35466,2,0,L|68:68,2,65
192,248,35984,6,0,L|336:240,1,130
172,324,36501,2,0,L|180:248,1,65
352,160,37190,5,0,0:0:0:0:
240,80,37363,2,0,L|252:216,1,130
472,179,37880,2,0,P|416:151|344:163,1,130
392,324,38397,2,0,L|398:250,1,65
216,168,38742,6,0,L|228:304,1,130
136,160,39259,2,0,P|172:152|216:160,1,65
112,280,39777,5,0,0:0:0:0:
28,196,39949,2,0,P|20:154|35:112,1,65
160,52,40294,2,0,P|167:93|152:135,1,65
20,208,40639,2,0,P|12:166|27:124,1,65
176,40,40984,1,0,0:0:0:0:
108,244,41156,2,0,P|100:202|115:160,1,65
244,212,41501,2,0,L|232:356,1,130
320,208,42018,2,0,P|276:196|252:200,1,65
388,340,42535,6,0,L|384:252,1,65
320,208,42880,1,0,0:0:0:0:
252,144,43053,2,0,P|312:116|384:144,2,130
236,228,44087,1,0,0:0:0:0:
76,172,44259,6,0,P|132:160|180:180,2,97.5
16,228,44949,2,0,L|24:364,1,130
236,228,45639,6,0,L|244:116,2,97.5
200,312,46328,2,0,L|272:308,2,65
120,160,47018,6,0,P|108:108|128:48,2,97.5
191,114,47708,2,0,L|320:132,1,130
392,280,48397,6,0,L|384:176,2,97.5
320,324,49087,2,0,L|312:388,2,65
168,224,49777,6,0,P|232:216|264:228,2,97.5
128,296,50466,2,0,L|112:160,1,130
200,40,51156,6,0,L|188:140,2,97.5
52,96,51846,2,0,L|116:88,2,65
192,216,52535,6,0,L|312:204,2,97.5
144,288,53225,2,0,L|8:276,1,130
212,112,53915,6,0,P|216:160|200:212,2,97.5
64,144,54604,2,0,L|132:152,2,65
336,64,55294,6,0,B|352:132|330:203|330:203|324:168|288:144,1,195.00000743866
252,220,56156,1,0,0:0:0:0:
332,48,56328,1,0,0:0:0:0:
325,286,56673,6,0,B|253:298|201:254|201:254|229:218|269:218,1,195.00000743866
328,208,57536,1,0,0:0:0:0:
152,320,57708,1,0,0:0:0:0:
140,120,58053,6,0,B|148:184|148:184|136:252|136:252|144:320,1,195.00000743866
64,180,58915,1,0,0:0:0:0:
220,256,59087,1,0,0:0:0:0:
428,112,59432,6,0,B|380:100|348:112|348:112|320:88|320:88|292:104|236:100,1,195.00000743866
264,16,60294,1,0,0:0:0:0:
396,188,60466,1,0,0:0:0:0:
128,176,60811,6,0,B|108:127|122:79|122:79|170:65|241:108,1,195.00000743866
242,211,61328,6,0,B|210:252|161:263|161:263|125:229|126:146,1,195.00000743866
215,94,61846,6,0,B|266:100|301:137|301:137|289:185|217:225,1,195.00000743866
96,304,62190,5,0,0:0:0:0:
143,292,62276,1,0,0:0:0:0:
190,302,62362,1,0,0:0:0:0:
237,312,62448,1,0,0:0:0:0:
285,301,62534,1,0,0:0:0:0:
430,208,62708,5,0,0:0:0:0:
382,219,62794,1,0,0:0:0:0:
335,209,62880,1,0,0:0:0:0:
288,199,62966,1,0,0:0:0:0:
240,210,63052,1,0,0:0:0:0:
112,40,63225,5,0,0:0:0:0:
167,66,63311,1,0,0:0:0:0:
171,128,63397,1,0,0:0:0:0:
118,160,63483,1,0,0:0:0:0:
64,129,63570,5,0,0:0:0:0:
111,114,63656,1,0,0:0:0:0:
159,111,63742,1,0,0:0:0:0:
207,120,63828,1,0,0:0:0:0:
251,141,63915,6,0,L|248:220,1,65
244,320,64087,1,0,0:0:0:0:
244,320,65984,6,0,L|240:348,10,21.6666666666667
240,296,66328,6,0,B|200:236|200:136|268:104|268:104|320:140|308:204,1,292.50001115799
316,248,66673,6,0,B|256:272|256:272|204:248|204:248|152:248|152:248|108:216|108:216|60:248|60:248|4:248,1,341.250003254414
108,320,67018,6,0,L|100:388,1,65
260,192,67190,6,0,L|267:127,1,65
108,216,67363,1,0,0:0:0:0:
272,340,67535,2,0,L|279:275,1,65
164,128,67708,5,0,0:0:0:0:
352,320,67880,2,0,L|424:316,1,65
165,384,68053,2,0,L|93:380,1,65
380,236,68225,2,0,L|452:232,1,65
164,128,68397,6,0,L|160:63,1,65
252,328,68570,1,0,0:0:0:0:
432,184,68742,2,0,B|388:164|328:164|284:200|284:200|308:256|376:236,1,260
432,96,69087,6,0,P|352:84|168:188,1,292.50001115799
148,292,69432,6,0,B|140:232|140:232|160:176|160:176|124:132|124:132|140:72|140:72|136:8,1,292.50001115799
56,0,69777,6,0,L|64:84,1,65
224,116,69949,2,0,L|216:32,1,65
52,196,70122,1,0,0:0:0:0:
160,312,70294,2,0,L|248:308,1,65
364,192,70466,6,0,B|340:156|344:108|344:108|292:60|236:84|236:84|220:116|240:172,1,260
336,300,70811,2,0,L|416:296,1,65
228,236,70984,2,0,B|168:220|104:292|104:292|84:348|84:348|56:296|56:296|100:240|72:140,1,390
164,156,71328,2,0,P|244:152|296:176,1,130
356,224,71501,2,0,P|399:291|404:348,1,130
272,260,71673,1,0,0:0:0:0:
72,76,71846,6,0,B|140:48|236:92|236:92|316:120|396:72,1,292.50001115799
424,40,72190,6,0,B|332:124|368:224|368:224|460:208|464:128,1,341.250003254414
280,180,72535,6,0,L|284:264,1,65
120,332,72708,2,0,L|124:248,1,65
220,52,72880,1,0,0:0:0:0:
412,308,73053,2,0,L|328:304,1,65
140,128,73225,6,0,L|232:132,1,65
328,312,73397,2,0,L|263:309,1,65
64,112,73570,6,0,L|156:116,1,65
244,316,73742,2,0,L|179:313,1,65
176,32,73915,6,0,L|238:99,1,65
104,360,74087,1,0,0:0:0:0:
12,196,74259,2,0,L|108:192,1,65
244,188,74432,2,0,L|340:184,1,65
480,180,74604,6,0,B|464:112|408:88|392:64|392:64|376:92|324:128|328:208,1,292.50001115799
368,284,74949,6,0,B|296:300|244:256|244:256|244:300|244:300|196:264|120:284,1,292.50001115799
72,208,75294,6,0,L|156:196,1,65
328,56,75466,2,0,L|412:68,1,65
292,360,75639,1,0,0:0:0:0:
148,208,75811,6,0,B|104:112|188:28|188:28|224:72|216:128,1,260
244,256,76156,1,0,0:0:0:0:
64,312,76328,1,0,0:0:0:0:
260,168,76501,6,0,B|320:132|380:204|380:204|424:124|508:152,1,260
292,332,76846,1,0,0:0:0:0:
311,114,77018,6,0,B|279:70|211:78|191:98|156:132|163:190|179:234|251:234|251:234|285:190|285:190|243:154,1,390
252,164,77363,6,0,B|200:152|180:104|180:104|188:312,1,292.50001115799
260,344,77708,6,0,P|264:284|120:356,1,341.250003254414
340,340,78053,6,0,P|344:300|332:248,1,65
304,188,78225,2,0,P|278:156|233:128,1,65
171,105,78397,1,0,0:0:0:0:
384,208,78570,2,0,P|424:212|456:200,1,65
268,8,78742,6,0,P|244:40|238:74,1,65
248,288,78915,2,0,P|232:259|228:227,1,65
372,44,79087,6,0,P|332:50|304:70,1,65
159,227,79260,2,0,P|167:195|187:170,1,65
364,116,79432,6,0,P|395:124|420:144,1,65
312,336,79604,1,0,0:0:0:0:
104,160,79777,2,0,L|108:88,1,65
284,164,79949,2,0,L|280:228,1,65
48,320,80122,6,0,B|104:184|104:184|164:332,1,292.50001115799
104,384,80466,6,0,B|128:328|184:312|240:332|268:368|268:368|268:276|296:316|296:216,1,341.250003254414
224,176,80811,6,0,P|212:252|216:268,1,65
328,72,80984,2,0,P|265:117|257:131,1,65
224,324,81156,1,0,0:0:0:0:
456,244,81328,2,0,P|447:167|439:153,1,65
200,120,81501,6,0,B|168:180|204:224|208:244|208:244|228:236|296:228|324:140,1,260
200,32,81846,2,0,P|140:56|124:80,1,65
52,308,82018,6,0,B|100:332|144:296|144:296|192:340|192:340|220:308|312:320,2,260
76,156,82535,2,0,P|88:200|88:240,1,65
295,253,82708,2,0,P|283:297|283:337,1,65
220,148,82880,6,0,B|276:100|328:88|404:112|404:112|420:176|348:204,1,292.50001115799
232,252,83225,6,0,B|184:220|136:252|136:252|153:183|153:183|140:164|138:134|138:134|152:108|172:92|172:92|192:8,1,341.250003254414
280,16,83570,6,0,L|262:86,1,65
56,136,83742,2,0,L|73:206,1,65
184,312,83915,1,0,0:0:0:0:
404,112,84087,6,0,L|335:136,1,65
172,375,84259,2,0,L|184:303,1,65
61,43,84432,2,0,L|116:90,1,65
312,260,84604,1,0,0:0:0:0:
120,88,84777,6,0,L|124:0,1,65
320,188,84949,2,0,L|317:252,1,65
112,308,85122,1,0,0:0:0:0:
204,120,85294,2,0,B|304:76|376:124|376:124|352:188|284:180,1,260
100,304,85639,6,0,B|80:240|112:168|112:168|148:92|104:0,1,292.50001115799
28,96,85984,6,0,P|84:156|212:8,1,341.250003254414
304,32,86328,6,0,P|308:72|300:112,1,65
92,240,86501,2,0,P|124:243|156:239,1,65
272,216,86673,1,0,0:0:0:0:
120,4,86846,2,0,L|128:80,1,65
104,336,87018,5,0,0:0:0:0:
149,291,87104,1,0,0:0:0:0:
212,278,87190,1,0,0:0:0:0:
272,301,87276,1,0,0:0:0:0:
309,353,87363,1,0,0:0:0:0:
354,371,87449,1,0,0:0:0:0:
416,336,87535,1,0,0:0:0:0:
412,272,87621,1,0,0:0:0:0:
456,212,87708,5,0,0:0:0:0:
461,147,87794,1,0,0:0:0:0:
415,87,87880,1,0,0:0:0:0:
409,22,87966,1,0,0:0:0:0:
328,120,88053,6,0,L|332:192,6,65
252,56,88397,6,0,B|208:32|160:24|100:80|104:144|152:200|200:200|224:152|224:152|204:108,1,341.250003254414
209,119,88742,6,0,B|152:184|136:280|180:356|180:356|252:300|244:228,1,390
276,168,89087,6,0,P|324:184|360:232,1,97.50000371933
214,106,89259,2,0,P|259:83|318:91,1,97.50000371933
124,244,89432,6,0,L|136:352,1,97.50000371933
128,360,89604,2,0,L|117:263,1,97.50000371933
364,224,89777,6,0,P|331:188|285:173,1,97.50000371933
312,80,89949,2,0,P|263:77|221:99,1,97.50000371933
117,263,90122,6,0,P|177:247|213:211,1,97.50000371933
203,224,90294,2,0,P|143:240|107:276,1,97.50000371933
292,332,90466,6,0,L|412:336,1,97.50000371933
336,252,90639,2,0,L|456:256,1,97.50000371933
312,80,90811,6,0,P|292:128|300:196,1,97.50000371933
456,88,90984,2,0,P|407:107|365:161,1,97.50000371933
320,324,91156,6,0,B|264:308|208:328|208:328|144:352|64:340|32:272|32:272|76:216|168:252,1,438.750016736985
156,252,91501,6,0,B|104:180|108:104|152:52|152:52|184:120|252:156|312:144,1,390
292,72,91846,6,0,P|248:56|216:-8,1,97.50000371933
378,134,92018,2,0,P|335:153|267:131,1,97.50000371933
152,52,92190,6,0,P|143:99|163:142,1,97.50000371933
482,117,92363,2,0,P|466:161|402:193,1,97.50000371933
272,260,92535,5,0,0:0:0:0:
163,142,92708,2,0,B|155:190|155:190|167:234|167:234|159:294,1,130
236,56,92880,2,0,B|231:91|231:91|243:135|243:135|235:183,1,130
116,332,93053,6,0,P|192:308|252:328,1,113.750001084805
331,295,93225,2,0,P|279:317|223:313,1,113.750001084805
134,249,93397,2,0,P|204:285|232:342,1,113.750001084805
48,292,93570,6,0,B|40:244|40:244|60:172,1,97.50000371933
280,136,93742,2,0,B|288:184|288:184|268:256,1,97.50000371933
196,84,93915,6,0,B|272:56|272:56|324:60|364:84|364:84|440:144|516:68|476:-12|404:-20|376:4|364:44|364:44|384:120,1,487.5
420,132,94259,6,0,B|440:184|440:236|404:308|373:333|324:344|256:332|223:288|220:256|232:220|228:156|288:152|312:140|338:137|352:168|384:192|320:236,1,568.75
316,240,94604,6,0,B|268:268|268:268|152:256,1,162.5
88,204,94777,2,0,B|136:176|136:176|252:188,1,162.5
336,264,94949,2,0,B|288:292|288:292|172:280,1,162.5
68,180,95122,2,0,B|116:152|116:152|232:164,1,162.5
100,352,95294,6,0,B|68:320|68:320|60:200,1,162.5
300,115,95466,2,0,B|324:167|308:219|290:254|247:264|219:256|184:185|195:140|227:119|299:128|347:96,1,241.735533379554
356,52,95639,6,0,P|388:148|372:228,1,162.5
168,276,95811,2,0,P|136:180|152:100,1,162.5
424,268,95984,6,0,B|373:318|373:318|327:358|285:355|282:313|322:268|322:268|358:231,1,241.735533379554
293,181,96156,6,0,B|454:137|454:137|483:154|483:154|466:183|466:183|377:207,2,325
324,136,96501,2,0,L|503:87,1,162.5
136,312,96673,6,0,B|136:252|136:252|118:234|118:234|136:216|136:216|136:164|136:164|136:88|176:64|216:88|216:124|216:124|224:136|224:136|216:148|216:148|216:168|216:168|216:212|216:212|208:228|208:228|216:244|216:244|216:300,1,487.5
396,288,97018,6,0,B|364:208|304:156|304:156|280:216|296:264|296:264|348:244|424:196,1,390
