osu file format v14

[General]
AudioFilename: audio.mp3
AudioLeadIn: 0
PreviewTime: 32594
Countdown: 0
SampleSet: None
StackLeniency: 0.7
Mode: 0
LetterboxInBreaks: 0
WidescreenStoryboard: 0

[Editor]
DistanceSpacing: 1.3
BeatDivisor: 4
GridSize: 32
TimelineZoom: 1.8

[Metadata]
Title:Stilevo
TitleUnicode:Стилево
Artist:Max Korzh
ArtistUnicode:Макс Корж
Creator:Alumetri
Version:Turquoise Sunrise
Source:
Tags:
BeatmapID:2069225
BeatmapSetID:989276

[Difficulty]
HPDrainRate:4.2
CircleSize:3.7
OverallDifficulty:8.7
ApproachRate:9.2
SliderMultiplier:1.81
SliderTickRate:1

[Events]
//Background and Video events
0,0,"bg.jpg",0,0
//Break Periods
//Storyboard Layer 0 (Background)
//Storyboard Layer 1 (Fail)
//Storyboard Layer 2 (Pass)
//Storyboard Layer 3 (Foreground)
//Storyboard Sound Samples

[TimingPoints]
2831,472.44094488189,4,2,0,50,1,0
2831,-100,4,2,0,50,0,0
17949,-47.6190476190476,4,2,0,50,0,0
18421,-55.5555555555556,4,2,0,50,0,1
25508,-47.6190476190476,4,2,0,50,0,1
25980,-55.5555555555556,4,2,0,50,0,1
33067,-54.054054054054,4,2,0,50,0,1
46295,-54.054054054054,4,2,0,50,0,0
48185,-60.6060606060606,4,2,0,50,0,0
78421,-44.4444444444445,4,2,0,50,0,1
78893,-50,4,2,0,50,0,1
93539,-48.780487804878,4,2,0,50,0,1
106768,-60.6060606060606,4,2,0,50,0,0

[Colours]
Combo1 : 0,128,128
Combo2 : 255,255,128
Combo3 : 128,64,0
Combo4 : 255,128,64

[HitObjects]
130,56,2830,6,0,P|134:130|81:182,1,135.75,0|0,0:0|0:0,0:0:0:0:
48,255,3303,2,0,P|110:214|181:234,1,135.75,0|0,0:0|0:0,0:0:0:0:
284,341,3775,2,0,P|239:312|225:253,1,90.5,0|0,0:0|0:0,0:0:0:0:
326,180,4130,2,0,P|323:233|279:275,1,90.5,0|0,0:0|0:0,0:0:0:0:
281,110,4484,2,0,P|307:99|340:101,1,45.25,0|0,0:0|0:0,0:0:0:0:
453,145,4720,6,0,B|374:135|398:181|321:180,1,135.75,0|0,0:0|0:0,0:0:0:0:
170,100,5193,2,0,P|228:72|286:138,1,135.75,0|0,0:0|0:0,0:0:0:0:
251,228,5665,2,0,L|230:318,1,90.5,0|0,0:0|0:0,0:0:0:0:
112,384,6019,2,0,P|81:343|79:294,1,90.5,0|0,0:0|0:0,0:0:0:0:
168,198,6374,2,0,P|167:170|155:142,1,45.25,0|0,0:0|0:0,0:0:0:0:
34,71,6610,6,0,P|166:46|191:51,1,135.75,0|0,0:0|0:0,0:0:0:0:
273,107,7082,2,0,B|271:184|295:142|298:252,1,135.75,0|0,0:0|0:0,0:0:0:0:
434,132,7555,2,0,P|361:120|344:131,1,90.5,0|0,0:0|0:0,0:0:0:0:
225,283,7909,2,0,P|291:250|299:232,1,90.5,0|0,0:0|0:0,0:0:0:0:
161,153,8264,2,0,P|134:156|101:169,1,45.25,0|0,0:0|0:0,0:0:0:0:
25,268,8500,6,0,B|38:190|1:224|14:100,1,135.75,0|0,0:0|0:0,0:0:0:0:
107,36,8972,2,0,P|182:50|250:89,1,135.75,0|0,0:0|0:0,0:0:0:0:
369,176,9445,2,0,P|322:182|266:203,1,90.5,0|0,0:0|0:0,0:0:0:0:
137,262,9799,2,0,P|184:268|240:289,1,90.5,0|0,0:0|0:0,0:0:0:0:
347,358,10153,2,0,P|371:354|399:343,1,45.25,0|0,0:0|0:0,0:0:0:0:
382,56,10390,6,0,P|378:130|431:182,1,135.75,0|0,0:0|0:0,0:0:0:0:
464,255,10863,2,0,P|401:214|330:234,1,135.75,0|0,0:0|0:0,0:0:0:0:
228,341,11335,2,0,P|273:312|287:253,1,90.5,0|0,0:0|0:0,0:0:0:0:
186,180,11690,2,0,P|188:233|232:275,1,90.5,0|0,0:0|0:0,0:0:0:0:
231,110,12044,2,0,P|205:99|172:101,1,45.25,0|0,0:0|0:0,0:0:0:0:
59,145,12280,6,0,B|138:135|114:181|191:180,1,135.75,0|0,0:0|0:0,0:0:0:0:
342,100,12753,2,0,P|284:72|226:138,1,135.75,0|0,0:0|0:0,0:0:0:0:
261,228,13225,2,0,L|282:318,1,90.5,0|0,0:0|0:0,0:0:0:0:
400,384,13579,2,0,P|431:343|433:294,1,90.5,0|0,0:0|0:0,0:0:0:0:
344,198,13934,2,0,P|345:170|357:142,1,45.25,0|0,0:0|0:0,0:0:0:0:
478,71,14170,6,0,P|346:46|321:51,1,135.75,0|0,0:0|0:0,0:0:0:0:
239,107,14642,2,0,B|241:184|217:142|214:252,1,135.75,0|0,0:0|0:0,0:0:0:0:
78,132,15115,2,0,P|151:120|168:131,1,90.5,0|0,0:0|0:0,0:0:0:0:
287,282,15469,2,0,P|220:249|212:231,1,90.5,0|0,0:0|0:0,0:0:0:0:
351,153,15824,2,0,P|378:156|411:169,1,45.25,0|0,0:0|0:0,0:0:0:0:
487,268,16060,6,0,B|474:190|511:224|498:100,1,135.75,0|0,0:0|0:0,0:0:0:0:
405,36,16532,2,0,P|330:50|262:89,1,135.75,0|0,0:0|0:0,0:0:0:0:
143,176,17005,2,0,P|190:182|246:203,1,90.5,0|0,0:0|0:0,0:0:0:0:
375,262,17359,2,0,P|328:268|272:289,1,90.5,0|0,0:0|0:0,0:0:0:0:
165,358,17713,2,0,P|141:354|113:343,1,45.25,0|0,0:0|0:0,0:0:0:0:
87,95,17949,6,0,B|30:43|30:43|73:248,1,285.074991300202,0|0,0:0|0:0,0:0:0:0:
280,182,18421,6,0,P|210:138|129:180,1,162.899995028687,0|0,0:0|0:0,0:0:0:0:
183,370,18775,2,0,P|211:302|201:204,1,162.899995028687,0|0,0:0|0:0,0:0:0:0:
72,246,19130,1,0,0:0:0:0:
287,350,19366,2,0,B|470:363|470:363|426:313,1,244.34999254303,0|0,0:0|0:0,0:0:0:0:
307,177,19838,6,0,P|188:156|209:218,1,244.34999254303,0|0,0:0|0:0,0:0:0:0:
288,44,20311,2,0,P|207:43|134:101,1,162.899995028687,0|0,0:0|0:0,0:0:0:0:
58,258,20665,2,0,P|139:259|212:201,1,162.899995028687,0|0,0:0|0:0,0:0:0:0:
142,88,21019,1,0,0:0:0:0:
266,328,21256,2,0,B|281:352|309:362|309:362|337:240|304:170,1,244.34999254303,0|0,0:0|0:0,0:0:0:0:
244,67,21728,5,0,0:0:0:0:
250,48,21846,1,0,0:0:0:0:
263,31,21964,2,0,P|301:35|348:51,1,81.4499975143433,0|0,0:0|0:0,0:0:0:0:
460,135,22201,2,0,B|356:125|401:190|273:173,1,162.899995028687,0|0,0:0|0:0,0:0:0:0:
406,366,22555,2,0,P|433:299|432:200,1,162.899995028687,0|0,0:0|0:0,0:0:0:0:
325,89,22909,1,0,0:0:0:0:
187,321,23145,2,0,B|243:343|291:335|291:335|283:343|283:343|348:332|411:369,1,244.34999254303,0|0,0:0|0:0,0:0:0:0:
304,203,23618,6,0,P|222:188|295:243,1,244.34999254303,0|0,0:0|0:0,0:0:0:0:
434,209,24090,2,0,B|442:123|442:123|418:44,1,162.899995028687,0|0,0:0|0:0,0:0:0:0:
166,46,24445,2,0,L|356:33,1,162.899995028687,0|0,0:0|0:0,0:0:0:0:
508,22,24799,1,0,0:0:0:0:
256,140,25035,2,0,B|188:144|188:144|137:165|137:165|90:152|90:152|6:159,1,244.34999254303,0|0,0:0|0:0,0:0:0:0:
328,34,25508,6,0,B|321:86|347:137|347:137|331:216|331:216|354:255|353:340,1,285.074991300202,0|0,0:0|0:0,0:0:0:0:
512,111,25980,6,0,P|465:43|400:80,1,162.899995028687,0|0,0:0|0:0,0:0:0:0:
352,310,26334,2,0,P|422:335|459:269,1,162.899995028687,0|0,0:0|0:0,0:0:0:0:
256,140,26689,1,0,0:0:0:0:
207,367,26925,2,0,B|276:336|276:336|106:358,1,244.34999254303,0|0,0:0|0:0,0:0:0:0:
8,269,27397,6,0,P|46:254|94:259,1,81.4499975143433,0|0,0:0|0:0,0:0:0:0:
256,140,27634,2,0,P|249:180|221:219,1,81.4499975143433,0|0,0:0|0:0,0:0:0:0:
4,289,27870,2,0,P|42:274|90:279,1,81.4499975143433,0|0,0:0|0:0,0:0:0:0:
277,132,28106,2,0,P|270:172|242:211,1,81.4499975143433,0|0,0:0|0:0,0:0:0:0:
108,357,28342,1,0,0:0:0:0:
153,85,28579,1,0,0:0:0:0:
289,322,28815,2,0,B|377:301|441:349|441:349|407:309|401:253,1,244.34999254303,0|0,0:0|0:0,0:0:0:0:
473,135,29287,6,0,B|302:127|397:201|225:205,1,244.34999254303,0|0,0:0|0:0,0:0:0:0:
210,0,29760,2,0,P|286:63|270:133,1,162.899995028687,0|0,0:0|0:0,0:0:0:0:
180,324,30114,2,0,P|196:226|265:205,1,162.899995028687,0|0,0:0|0:0,0:0:0:0:
404,273,30468,1,0,0:0:0:0:
60,101,30705,2,0,B|33:214|33:214|87:364,1,244.34999254303,0|0,0:0|0:0,0:0:0:0:
220,375,31177,5,0,0:0:0:0:
244,365,31295,1,0,0:0:0:0:
267,347,31413,2,0,P|286:313|292:256,1,81.4499975143433,0|0,0:0|0:0,0:0:0:0:
175,93,31649,2,0,L|193:280,1,162.899995028687,0|0,0:0|0:0,0:0:0:0:
373,381,32004,2,0,L|388:218,1,162.899995028687,0|0,0:0|0:0,0:0:0:0:
403,52,32358,1,0,0:0:0:0:
198,336,32594,2,0,L|174:85,1,244.34999254303,0|0,0:0|0:0,0:0:0:0:
0,232,33067,5,0,0:0:0:0:
0,232,33303,2,0,P|40:217|87:228,1,83.7124996806622,0|0,0:0|0:0,0:0:0:0:
221,27,33539,2,0,P|188:54|174:100,1,83.7124996806622,0|0,0:0|0:0,0:0:0:0:
311,287,33775,2,0,P|303:244|270:209,1,83.7124996806622,0|0,0:0|0:0,0:0:0:0:
14,366,34012,2,0,P|21:323|54:288,1,83.7124996806622,0|0,0:0|0:0,0:0:0:0:
341,294,34248,2,0,P|333:251|300:216,1,83.7124996806622,0|0,0:0|0:0,0:0:0:0:
0,67,34484,2,0,P|105:-1|229:33,1,251.137499041986,0|0,0:0|0:0,0:0:0:0:
308,221,34956,5,0,0:0:0:0:
308,221,35193,2,0,P|312:174|347:121,1,83.7124996806622,0|0,0:0|0:0,0:0:0:0:
471,10,35429,2,0,L|447:108,1,83.7124996806622,0|0,0:0|0:0,0:0:0:0:
360,375,35665,2,0,L|340:293,1,83.7124996806622,0|0,0:0|0:0,0:0:0:0:
220,26,35901,2,0,P|175:26|137:52,1,83.7124996806622,0|0,0:0|0:0,0:0:0:0:
11,258,36138,2,0,P|56:258|94:284,1,83.7124996806622,0|0,0:0|0:0,0:0:0:0:
354,112,36374,2,0,B|199:102|267:182|102:162,1,251.137499041986,0|0,0:0|0:0,0:0:0:0:
308,221,36846,5,0,0:0:0:0:
308,221,37082,2,0,P|347:222|398:254,1,83.7124996806622,0|0,0:0|0:0,0:0:0:0:
501,384,37319,2,0,L|513:294,1,83.7124996806622,0|0,0:0|0:0,0:0:0:0:
342,29,37555,2,0,L|354:119,1,83.7124996806622,0|0,0:0|0:0,0:0:0:0:
234,356,37791,2,0,P|274:342|331:351,1,83.7124996806622,0|0,0:0|0:0,0:0:0:0:
114,163,38027,2,0,P|74:149|17:158,1,83.7124996806622,0|0,0:0|0:0,0:0:0:0:
375,203,38264,2,0,P|453:145|344:124,1,251.137499041986,0|0,0:0|0:0,0:0:0:0:
237,253,38736,5,0,0:0:0:0:
237,253,38972,2,0,L|220:165,1,83.7124996806622,0|0,0:0|0:0,0:0:0:0:
21,0,39208,2,0,L|5:82,1,83.7124996806622,0|0,0:0|0:0,0:0:0:0:
274,111,39445,2,0,P|232:94|159:112,1,83.7124996806622,0|0,0:0|0:0,0:0:0:0:
0,310,39681,2,0,P|42:293|115:311,1,83.7124996806622,0|0,0:0|0:0,0:0:0:0:
290,93,39917,2,0,P|248:76|175:94,1,83.7124996806622,0|0,0:0|0:0,0:0:0:0:
356,371,40153,2,0,B|355:214|420:310|393:113,1,251.137499041986,0|0,0:0|0:0,0:0:0:0:
447,330,40626,5,0,0:0:0:0:
447,330,40862,2,0,P|468:292|473:234,1,83.7124996806622,0|0,0:0|0:0,0:0:0:0:
210,77,41098,2,0,P|217:118|237:154,1,83.7124996806622,0|0,0:0|0:0,0:0:0:0:
465,345,41334,2,0,P|486:307|491:249,1,83.7124996806622,0|0,0:0|0:0,0:0:0:0:
181,67,41571,2,0,P|188:108|208:144,1,83.7124996806622,0|0,0:0|0:0,0:0:0:0:
483,367,41807,2,0,P|504:329|509:271,1,83.7124996806622,0|0,0:0|0:0,0:0:0:0:
512,23,42043,2,0,B|370:23|443:105|264:92,1,251.137499041986,0|0,0:0|0:0,0:0:0:0:
480,114,42516,5,0,0:0:0:0:
480,114,42752,2,0,P|464:149|453:206,1,83.7124996806622,0|0,0:0|0:0,0:0:0:0:
233,357,42988,2,0,P|224:316|207:278,1,83.7124996806622,0|0,0:0|0:0,0:0:0:0:
252,13,43224,2,0,P|260:53|277:91,1,83.7124996806622,0|0,0:0|0:0,0:0:0:0:
94,360,43460,2,0,P|102:319|119:281,1,83.7124996806622,0|0,0:0|0:0,0:0:0:0:
75,16,43697,2,0,P|66:56|49:94,1,83.7124996806622,0|0,0:0|0:0,0:0:0:0:
309,304,43933,2,0,P|297:208|156:201,1,251.137499041986,0|0,0:0|0:0,0:0:0:0:
42,300,44405,5,0,0:0:0:0:
42,300,44642,2,0,P|85:300|137:322,1,83.7124996806622,0|0,0:0|0:0,0:0:0:0:
359,78,44878,2,0,P|316:78|264:100,1,83.7124996806622,0|0,0:0|0:0,0:0:0:0:
406,351,45114,2,0,L|420:232,1,83.7124996806622,0|0,0:0|0:0,0:0:0:0:
153,110,45350,2,0,L|162:193,1,83.7124996806622,0|0,0:0|0:0,0:0:0:0:
510,175,45586,2,0,L|419:182,1,83.7124996806622,0|0,0:0|0:0,0:0:0:0:
42,300,45823,2,0,L|297:277,1,251.137499041986,0|0,0:0|0:0,0:0:0:0:
365,101,46295,5,0,0:0:0:0:
365,101,46531,2,0,P|370:53|357:10,1,83.7124996806622,0|0,0:0|0:0,0:0:0:0:
45,218,46768,2,0,P|35:258|41:299,1,83.7124996806622,0|0,0:0|0:0,0:0:0:0:
331,111,47004,2,0,P|336:63|323:20,1,83.7124996806622,0|0,0:0|0:0,0:0:0:0:
62,5,47240,1,0,0:0:0:0:
47,27,47358,1,0,0:0:0:0:
37,59,47476,1,0,0:0:0:0:
293,191,47712,1,0,0:0:0:0:
41,299,47949,1,0,0:0:0:0:
164,34,48185,6,0,L|185:273,1,223.987502136111,0|0,0:0|0:0,0:0:0:0:
339,361,48657,2,0,P|413:375|484:333,1,149.325001424074,0|0,0:0|0:0,0:0:0:0:
454,147,49012,2,0,P|380:133|309:175,1,149.325001424074,0|0,0:0|0:0,0:0:0:0:
183,257,49366,1,0,0:0:0:0:
307,10,49602,2,0,B|293:72|317:166|317:166|304:117|272:100,1,223.987502136111,0|0,0:0|0:0,0:0:0:0:
117,48,50075,6,0,P|184:43|109:67,1,223.987502136111,0|0,0:0|0:0,0:0:0:0:
28,222,50547,2,0,P|20:287|47:381,1,149.325001424074,0|0,0:0|0:0,0:0:0:0:
266,270,50901,2,0,L|92:281,1,149.325001424074,0|0,0:0|0:0,0:0:0:0:
285,109,51256,1,0,0:0:0:0:
347,353,51492,2,0,B|403:226|322:249|384:111,1,223.987502136111,0|0,0:0|0:0,0:0:0:0:
500,62,51964,6,0,B|386:57|386:57|279:27,1,223.987502136111,0|0,0:0|0:0,0:0:0:0:
134,140,52437,2,0,P|196:96|186:29,1,149.325001424074,0|0,0:0|0:0,0:0:0:0:
51,197,52791,2,0,L|61:355,1,149.325001424074,0|0,0:0|0:0,0:0:0:0:
186,383,53145,1,0,0:0:0:0:
374,134,53382,2,0,B|224:147|224:147|283:203,1,223.987502136111,0|0,0:0|0:0,0:0:0:0:
386,293,53854,6,0,L|425:49,1,223.987502136111,0|0,0:0|0:0,0:0:0:0:
283,20,54327,2,0,P|212:6|144:38,1,149.325001424074,0|0,0:0|0:0,0:0:0:0:
138,215,54681,2,0,P|209:229|277:197,1,149.325001424074,0|0,0:0|0:0,0:0:0:0:
421,71,55035,1,0,0:0:0:0:
104,142,55271,2,0,P|56:227|149:296,1,223.987502136111,0|0,0:0|0:0,0:0:0:0:
354,184,55744,6,0,B|219:162|274:236|117:212,1,223.987502136111,0|0,0:0|0:0,0:0:0:0:
122,21,56216,2,0,P|194:105|186:146,1,149.325001424074,0|0,0:0|0:0,0:0:0:0:
69,328,56571,2,0,P|77:256|137:214,1,149.325001424074,0|0,0:0|0:0,0:0:0:0:
309,266,56925,1,0,0:0:0:0:
306,44,57161,2,0,B|276:176|338:124|304:290,1,223.987502136111,0|0,0:0|0:0,0:0:0:0:
199,361,57634,5,0,0:0:0:0:
174,351,57752,1,0,0:0:0:0:
145,327,57870,2,0,P|130:292|126:242,1,74.6625007120371,0|0,0:0|0:0,0:0:0:0:
163,8,58106,2,0,B|256:4|218:39|323:45,1,149.325001424074,0|0,0:0|0:0,0:0:0:0:
451,229,58460,2,0,B|358:225|396:260|291:266,1,149.325001424074,0|0,0:0|0:0,0:0:0:0:
193,84,58815,1,0,0:0:0:0:
91,345,59051,2,0,B|110:221|50:266|76:103,1,223.987502136111,0|0,0:0|0:0,0:0:0:0:
115,15,59523,6,0,P|221:30|361:70,1,223.987502136111,0|0,0:0|0:0,0:0:0:0:
454,147,59996,2,0,P|371:163|361:221,1,149.325001424074,0|0,0:0|0:0,0:0:0:0:
249,297,60350,2,0,P|332:313|342:371,1,149.325001424074,0|0,0:0|0:0,0:0:0:0:
448,274,60705,1,0,0:0:0:0:
227,184,60941,2,0,P|140:246|23:208,1,223.987502136111,0|0,0:0|0:0,0:0:0:0:
66,109,61413,6,0,P|133:173|147:79,1,223.987502136111,0|0,0:0|0:0,0:0:0:0:
0,36,61886,2,0,L|153:-1,1,149.325001424074,0|0,0:0|0:0,0:0:0:0:
297,118,62240,2,0,L|144:81,1,149.325001424074,0|0,0:0|0:0,0:0:0:0:
379,40,62594,1,0,0:0:0:0:
165,248,62831,2,0,B|246:227|246:227|303:235|303:235|386:207,1,223.987502136111,0|0,0:0|0:0,0:0:0:0:
463,90,63303,6,0,P|423:207|468:322,1,223.987502136111,0|0,0:0|0:0,0:0:0:0:
260,366,63775,2,0,P|336:370|410:382,1,149.325001424074,0|0,0:0|0:0,0:0:0:0:
230,187,64130,2,0,P|154:191|80:203,1,149.325001424074,0|0,0:0|0:0,0:0:0:0:
4,305,64484,1,0,0:0:0:0:
108,102,64720,2,0,P|222:91|358:99,1,223.987502136111,0|0,0:0|0:0,0:0:0:0:
432,195,65193,6,0,P|369:104|425:15,1,223.987502136111,0|0,0:0|0:0,0:0:0:0:
512,220,65665,2,0,P|473:268|381:263,1,149.325001424074,0|0,0:0|0:0,0:0:0:0:
209,46,66019,2,0,P|281:42|330:94,1,149.325001424074,0|0,0:0|0:0,0:0:0:0:
267,270,66374,1,0,0:0:0:0:
125,75,66610,2,0,P|32:131|90:234,1,223.987502136111,0|0,0:0|0:0,0:0:0:0:
184,321,67082,6,0,B|317:309|256:373|433:346,1,223.987502136111,0|0,0:0|0:0,0:0:0:0:
390,140,67555,2,0,P|342:216|348:282,1,149.325001424074,0|0,0:0|0:0,0:0:0:0:
474,93,67909,2,0,P|404:57|318:79,1,149.325001424074,0|0,0:0|0:0,0:0:0:0:
224,169,68264,1,0,0:0:0:0:
49,35,68500,2,0,P|149:5|234:82,1,223.987502136111,0|0,0:0|0:0,0:0:0:0:
201,283,68972,6,0,P|138:214|19:266,1,223.987502136111,0|0,0:0|0:0,0:0:0:0:
235,364,69445,2,0,P|280:310|270:231,1,149.325001424074,0|0,0:0|0:0,0:0:0:0:
64,123,69799,2,0,P|18:179|26:251,1,149.325001424074,0|0,0:0|0:0,0:0:0:0:
201,283,70153,1,0,0:0:0:0:
145,41,70390,2,0,B|201:26|201:26|288:74|288:74|361:57,1,223.987502136111,0|0,0:0|0:0,0:0:0:0:
481,0,70862,5,0,0:0:0:0:
481,0,71334,1,0,0:0:0:0:
352,58,71689,1,0,0:0:0:0:
499,147,72043,1,0,0:0:0:0:
314,227,72279,1,0,0:0:0:0:
314,227,72752,5,0,0:0:0:0:
314,227,73224,1,0,0:0:0:0:
268,106,73579,1,0,0:0:0:0:
205,289,73933,1,0,0:0:0:0:
117,89,74169,1,0,0:0:0:0:
117,89,74642,5,0,0:0:0:0:
102,112,75114,1,0,0:0:0:0:
146,206,75468,1,0,0:0:0:0:
68,305,75823,1,0,0:0:0:0:
167,380,76059,1,0,0:0:0:0:
186,373,76531,5,0,0:0:0:0:
256,192,76649,12,0,78185,0:0:0:0:
61,216,78421,6,0,B|46:180|10:164|10:164|63:159|104:185|104:185|149:185|149:185|186:204|261:208,1,305.437511651516,0|0,0:0|0:0,0:0:0:0:
311,72,78893,6,0,B|224:62|224:62|126:86,1,181,0|0,0:0|0:0,0:0:0:0:
150,312,79248,2,0,B|237:322|237:322|335:298,1,181,0|0,0:0|0:0,0:0:0:0:
420,180,79602,1,0,0:0:0:0:
47,175,79838,2,0,B|206:160|146:214|325:192,1,271.5,0|0,0:0|0:0,0:0:0:0:
506,119,80311,6,0,P|385:85|316:201,1,271.5,0|0,0:0|0:0,0:0:0:0:
488,342,80783,2,0,B|413:251|480:269|410:165,1,181,0|0,0:0|0:0,0:0:0:0:
245,28,81138,2,0,B|320:119|253:101|323:205,1,181,0|0,0:0|0:0,0:0:0:0:
415,0,81492,1,0,0:0:0:0:
102,106,81728,2,0,P|209:146|113:169,1,271.5,0|0,0:0|0:0,0:0:0:0:
22,303,82201,5,0,0:0:0:0:
44,323,82319,1,0,0:0:0:0:
78,338,82437,2,0,P|120:343|183:332,1,90.5,0|0,0:0|0:0,0:0:0:0:
260,90,82673,2,0,P|177:103|128:185,1,181,0|0,0:0|0:0,0:0:0:0:
344,301,83027,2,0,P|386:224|356:141,1,181,0|0,0:0|0:0,0:0:0:0:
228,264,83382,1,0,0:0:0:0:
360,26,83618,2,0,L|226:266,1,271.5,0|0,0:0|0:0,0:0:0:0:
99,359,84090,6,0,P|31:254|127:180,1,271.5,0|0,0:0|0:0,0:0:0:0:
236,355,84563,2,0,P|330:350|389:292,1,181,0|0,0:0|0:0,0:0:0:0:
413,26,84917,2,0,P|319:31|260:89,1,181,0|0,0:0|0:0,0:0:0:0:
227,263,85271,1,0,0:0:0:0:
79,53,85508,2,0,P|229:75|240:173,1,271.5,0|0,0:0|0:0,0:0:0:0:
201,365,85980,6,0,P|241:229|334:131,1,271.5,0|0,0:0|0:0,0:0:0:0:
512,203,86453,2,0,P|431:207|335:241,1,181,0|0,0:0|0:0,0:0:0:0:
26,328,86807,2,0,P|107:332|203:366,1,181,0|0,0:0|0:0,0:0:0:0:
240,171,87161,1,0,0:0:0:0:
423,375,87397,2,0,P|457:230|422:70,1,271.5,0|0,0:0|0:0,0:0:0:0:
310,29,87870,6,0,P|268:20|192:39,1,90.5,0|0,0:0|0:0,0:0:0:0:
78,288,88106,2,0,P|102:247|109:189,1,90.5,0|0,0:0|0:0,0:0:0:0:
325,12,88342,2,0,P|283:3|207:22,1,90.5,0|0,0:0|0:0,0:0:0:0:
91,312,88579,2,0,P|115:271|122:213,1,90.5,0|0,0:0|0:0,0:0:0:0:
69,19,88815,1,0,0:0:0:0:
227,328,89051,1,0,0:0:0:0:
438,110,89287,2,0,B|499:78|499:78|287:97,1,271.5,0|0,0:0|0:0,0:0:0:0:
140,162,89760,6,0,P|320:170|342:243,1,271.5,0|0,0:0|0:0,0:0:0:0:
386,372,90232,2,0,P|428:245|466:216,1,181,0|0,0:0|0:0,0:0:0:0:
512,93,90586,2,0,P|447:38|354:63,1,181,0|0,0:0|0:0,0:0:0:0:
270,206,90941,1,0,0:0:0:0:
79,18,91177,2,0,B|251:51|153:98|334:132,1,271.5,0|0,0:0|0:0,0:0:0:0:
438,53,91649,5,0,0:0:0:0:
415,25,91768,1,0,0:0:0:0:
376,18,91886,2,0,P|333:13|286:27,1,90.5,0|0,0:0|0:0,0:0:0:0:
99,181,92122,2,0,P|186:169|277:213,1,181,0|0,0:0|0:0,0:0:0:0:
417,268,92476,2,0,P|331:283|230:334,1,181,0|0,0:0|0:0,0:0:0:0:
129,384,92831,1,0,0:0:0:0:
159,118,93067,2,0,B|108:254|192:188|125:393,1,271.5,0|0,0:0|0:0,0:0:0:0:
269,205,93539,5,0,0:0:0:0:
269,205,93775,2,0,P|296:159|302:99,1,92.7625014154435,0|0,0:0|0:0,0:0:0:0:
33,191,94012,2,0,P|42:236|67:275,1,92.7625014154435,0|0,0:0|0:0,0:0:0:0:
357,61,94248,2,0,P|312:45|256:58,1,92.7625014154435,0|0,0:0|0:0,0:0:0:0:
31,345,94484,2,0,P|76:351|119:335,1,92.7625014154435,0|0,0:0|0:0,0:0:0:0:
357,195,94720,2,0,P|311:188|268:204,1,92.7625014154435,0|0,0:0|0:0,0:0:0:0:
422,384,94956,2,0,B|419:234|478:314|461:87,1,278.28750424633,0|0,0:0|0:0,0:0:0:0:
315,24,95429,5,0,0:0:0:0:
315,24,95665,2,0,P|266:15|222:19,1,92.7625014154435,0|0,0:0|0:0,0:0:0:0:
46,247,95901,2,0,P|91:225|134:218,1,92.7625014154435,0|0,0:0|0:0,0:0:0:0:
462,112,96138,2,0,P|416:90|373:83,1,92.7625014154435,0|0,0:0|0:0,0:0:0:0:
24,230,96374,2,0,P|69:208|112:201,1,92.7625014154435,0|0,0:0|0:0,0:0:0:0:
444,223,96610,2,0,P|398:201|355:194,1,92.7625014154435,0|0,0:0|0:0,0:0:0:0:
4,142,96846,2,0,P|103:100|276:103,1,278.28750424633,0|0,0:0|0:0,0:0:0:0:
380,277,97319,5,0,0:0:0:0:
380,277,97555,2,0,P|387:231|412:182,1,92.7625014154435,0|0,0:0|0:0,0:0:0:0:
137,113,97791,2,0,P|117:154|110:200,1,92.7625014154435,0|0,0:0|0:0,0:0:0:0:
399,308,98027,2,0,P|406:262|431:213,1,92.7625014154435,0|0,0:0|0:0,0:0:0:0:
118,90,98264,2,0,P|98:131|91:177,1,92.7625014154435,0|0,0:0|0:0,0:0:0:0:
419,336,98500,2,0,P|426:290|451:241,1,92.7625014154435,0|0,0:0|0:0,0:0:0:0:
286,62,98736,2,0,B|280:5|280:5|247:166|247:166|226:95,1,278.28750424633,0|0,0:0|0:0,0:0:0:0:
136,0,99208,5,0,0:0:0:0:
136,0,99445,2,0,P|120:38|119:101,1,92.7625014154435,0|0,0:0|0:0,0:0:0:0:
477,153,99681,2,0,P|439:137|376:135,1,92.7625014154435,0|0,0:0|0:0,0:0:0:0:
85,296,99917,2,0,P|123:280|186:278,1,92.7625014154435,0|0,0:0|0:0,0:0:0:0:
279,0,100153,2,0,L|289:102,1,92.7625014154435,0|0,0:0|0:0,0:0:0:0:
268,384,100390,2,0,L|277:291,1,92.7625014154435,0|0,0:0|0:0,0:0:0:0:
146,9,100626,2,0,B|137:58|160:116|160:116|145:151|145:151|179:205|172:301,1,278.28750424633,0|0,0:0|0:0,0:0:0:0:
63,377,101098,5,0,0:0:0:0:
63,377,101334,2,0,P|74:330|72:262,1,92.7625014154435,0|0,0:0|0:0,0:0:0:0:
233,18,101571,2,0,P|253:54|304:104,1,92.7625014154435,0|0,0:0|0:0,0:0:0:0:
486,249,101807,2,0,P|442:243|381:249,1,92.7625014154435,0|0,0:0|0:0,0:0:0:0:
57,172,102043,2,0,P|99:154|164:154,1,92.7625014154435,0|0,0:0|0:0,0:0:0:0:
484,39,102279,2,0,P|437:42|395:60,1,92.7625014154435,0|0,0:0|0:0,0:0:0:0:
299,324,102516,2,0,B|340:230|265:257|302:147|360:143|445:195|390:249,1,278.28750424633,0|0,0:0|0:0,0:0:0:0:
227,278,102988,5,0,0:0:0:0:
227,278,103224,2,0,P|185:252|126:243,1,92.7625014154435,0|0,0:0|0:0,0:0:0:0:
395,60,103460,2,0,P|437:34|496:25,1,92.7625014154435,0|0,0:0|0:0,0:0:0:0:
198,302,103697,2,0,P|156:276|97:267,1,92.7625014154435,0|0,0:0|0:0,0:0:0:0:
394,35,103933,2,0,P|436:9|495:0,1,92.7625014154435,0|0,0:0|0:0,0:0:0:0:
470,360,104169,2,0,P|428:334|369:325,1,92.7625014154435,0|0,0:0|0:0,0:0:0:0:
144,108,104405,2,0,B|296:139|215:202|384:234,1,278.28750424633,0|0,0:0|0:0,0:0:0:0:
503,128,104878,5,0,0:0:0:0:
503,128,105114,2,0,L|395:118,1,92.7625014154435,0|0,0:0|0:0,0:0:0:0:
72,217,105350,2,0,L|180:207,1,92.7625014154435,0|0,0:0|0:0,0:0:0:0:
394,35,105586,2,0,L|286:25,1,92.7625014154435,0|0,0:0|0:0,0:0:0:0:
155,336,105823,2,0,L|263:326,1,92.7625014154435,0|0,0:0|0:0,0:0:0:0:
155,10,106059,2,0,L|47:0,1,92.7625014154435,0|0,0:0|0:0,0:0:0:0:
353,279,106295,2,0,B|439:316|523:273|523:273|497:204|420:215,1,278.28750424633
314,141,106768,5,0,0:0:0:0:
314,141,107004,2,0,P|273:127|241:124,1,74.6625007120371
58,283,107240,2,0,P|99:269|131:266,1,74.6625007120371
322,180,107476,2,0,P|281:166|249:163,1,74.6625007120371
114,348,107712,1,0,0:0:0:0:
447,213,108185,1,0,0:0:0:0:
